Начать новую тему Ответить на тему
Статистика раздачи
Размер: 358.95 МБ | Добавлен: 26 мар 2019, 21:08 | Скачали: 0
Сидеров: 0  [0 байт/сек]    Личеров: 0  [0 байт/сек]
Пред. тема | След. тема 

Автор
Сообщение

СообщениеДобавлено: 26 мар 2019, 21:08 

Ответить с цитатой 

Andrew Gold / Leftovers (1998)
Жанр: Pop/Rock
Страна-производитель диска: U.S.A.
Год издания: 1998
Издатель (лейбл): Q Brain Records
Страна: U.S.A.
Аудиокодек: FLAC (*.flac)
Тип рипа: image+.cue
Битрейт аудио: lossless
Продолжительность: 55:02
Источник (релизер): собственный рип
Наличие сканов в содержимом раздачи: да
Треклист:
1. Laugh (Phone Message 1986) - 0:27
2. Tail Lights (1989 Gouldman/Gold) - 3:12
3. Car Phone (Phone Message 1989) - 0:30
4. Marcella (1977 B.Wilson) - 4:04
5. Jaws (Phone Message 1978) - 0:45
6. Here Without You (1965 G. Clark) - 4:21
7. Dylan (Phone Message 1977) - 0:29
8. I'm In No Condition (1993 Gold) - 4:14
9. Appropriate Response (Phone Message 1988) - 0:30
10. The Gospel According To Love (1995 Gold/Yates) - 4:13
11. Latin (Phone Message 1977) - 0:29
12. Falling Down (1993 Gold/Walsh) - duet with Sally Dworsky - 4:18
13. Kitties (Phone Message 1987) - 0:42
14. A River In Time (1997 Gold/Shifrin) - 3:47
15. Mr. Ed (Phone Message 1984) - 0:37
16. Love Will Have It's Way With You (1997 Gold/Yates) - 4:17
17. Fake Out (Phone Message 1988) - 0:30
18. What A Gentelman Does (1991 Gold) - 4:16
19. Wax "Live" (Phone Message 1987) - 0:44
20. Show Me A Way (1992 Edwards/Gold) - 4:30
21. Baby (Phone Message 1990) - 0:45
22. Guilty (1983 Gold -"Yanks") - 2:23
23. Greatest (Phone Message 1978) - 0:46
24. Golden Paths Of Heaven (1994 Bryndle) - 3:29
25. Beeps (Phone Message 1993) - 0:44
Код:
Exact Audio Copy V1.0 beta 3 from 29. August 2011
EAC extraction logfile from 16. April 2013, 23:06
Andrew Gold / Leftover
Used drive  : SlimtypeDVD A  DS8A5SH   Adapter: 0  ID: 1
Read mode               : Secure
Utilize accurate stream : Yes
Defeat audio cache      : Yes
Make use of C2 pointers : No
Read offset correction                      : 6
Overread into Lead-In and Lead-Out          : No
Fill up missing offset samples with silence : Yes
Delete leading and trailing silent blocks   : No
Null samples used in CRC calculations       : Yes
Used interface                              : Native Win32 interface for Win NT & 2000
Used output format              : User Defined Encoder
Selected bitrate                : 320 kBit/s
Quality                         : High
Add ID3 tag                     : No
Command line compressor         : C:\Program Files (x86)\Exact Audio Copy\Flac\flac.exe
Additional command line options : -V -8 -T "Date=%year%" -T "Genre=%genre%" %source%
TOC of the extracted CD
     Track |   Start  |  Length  | Start sector | End sector
    ---------------------------------------------------------
        1  |  0:00.00 |  0:27.17 |         0    |     2041
        2  |  0:27.17 |  3:11.43 |      2042    |    16409
        3  |  3:38.60 |  0:30.00 |     16410    |    18659
        4  |  4:08.60 |  4:04.00 |     18660    |    36959
        5  |  8:12.60 |  0:44.52 |     36960    |    40311
        6  |  8:57.37 |  4:21.03 |     40312    |    59889
        7  | 13:18.40 |  0:29.27 |     59890    |    62091
        8  | 13:47.67 |  4:14.25 |     62092    |    81166
        9  | 18:02.17 |  0:29.38 |     81167    |    83379
       10  | 18:31.55 |  4:13.17 |     83380    |   102371
       11  | 22:44.72 |  0:28.45 |    102372    |   104516
       12  | 23:13.42 |  4:17.55 |    104517    |   123846
       13  | 27:31.22 |  0:42.10 |    123847    |   127006
       14  | 28:13.32 |  3:47.20 |    127007    |   144051
       15  | 32:00.52 |  0:36.68 |    144052    |   146819
       16  | 32:37.45 |  4:17.12 |    146820    |   166106
       17  | 36:54.57 |  0:30.15 |    166107    |   168371
       18  | 37:24.72 |  4:16.28 |    168372    |   187599
       19  | 41:41.25 |  0:44.37 |    187600    |   190936
       20  | 42:25.62 |  4:29.53 |    190937    |   211164
       21  | 46:55.40 |  0:44.57 |    211165    |   214521
       22  | 47:40.22 |  2:22.50 |    214522    |   225221
       23  | 50:02.72 |  0:45.50 |    225222    |   228646
       24  | 50:48.47 |  3:29.10 |    228647    |   244331
       25  | 54:17.57 |  0:44.20 |    244332    |   247651
Range status and errors
Selected range
     Filename D:\My Music\Andrew Gold - 1998 Leftovers\Andrew Gold - Leftover.wav
     Peak level 98.8 %
     Extraction speed 1.8 X
     Range quality 100.0 %
     Test CRC 129AA07F
     Copy CRC 129AA07F
     Copy OK
No errors occurred
AccurateRip summary
Track  1  not present in database
Track  2  not present in database
Track  3  not present in database
Track  4  not present in database
Track  5  not present in database
Track  6  not present in database
Track  7  not present in database
Track  8  not present in database
Track  9  not present in database
Track 10  not present in database
Track 11  not present in database
Track 12  not present in database
Track 13  not present in database
Track 14  not present in database
Track 15  not present in database
Track 16  not present in database
Track 17  not present in database
Track 18  not present in database
Track 19  not present in database
Track 20  not present in database
Track 21  not present in database
Track 22  not present in database
Track 23  not present in database
Track 24  not present in database
Track 25  not present in database
None of the tracks are present in the AccurateRip database
End of status report
==== Log checksum 1C6E88EAA105BEA022A18CC95D2B01AEDEA1A4272DA1545C0163D10D7429B92B ====
Правила, инструкции, FAQ!!!
Торрент  Добавлен [26 мар 2019, 21:08] Скачать торрент Магнет ссылка
Скачать торрент
[ Размер 14.81 КБ / Просмотров 7 ]

Статус
Проверен 
 
Размер  358.95 МБ
Приватный: Нет (DHT включён)
.torrent скачан  0
 


     Отправить личное сообщение
   
Страница 1 из 1
Показать сообщения за:  Поле сортировки  
Начать новую тему Ответить на тему


Сейчас этот форум просматривают: нет зарегистрированных пользователей и гости: 0


Вы не можете начинать темы
Вы не можете отвечать на сообщения
Вы не можете редактировать свои сообщения
Вы не можете удалять свои сообщения
Вы не можете добавлять вложения

Перейти:  
cron