Начать новую тему Ответить на тему
Статистика раздачи
Размер: 779.84 МБ | Добавлен: 26 мар 2019, 21:08 | Скачали: 0
Сидеров: 12  [0 байт/сек]    Личеров: 1  [0 байт/сек]
Пред. тема | След. тема 

Автор
Сообщение

СообщениеДобавлено: 26 мар 2019, 21:08 

Ответить с цитатой 

Ana Johnsson
Жанр: Pop-Rock
Страна: Швеция
Аудио кодек: FLAC (tracks+.cue)
Битрейт аудио: lossless
Источник: waffles.fm (автор RedTide).
#777The Way I Am
01 - We Are
02 - Don't Cry For Pain
03 - The Way I Am
04 - I'm Stupid
05 - 6 Feet Under
06 - Coz I Can
07 - Crest Of The Wave
08 - L.A.
09 - Life
10 - Now It's Gone
11 - Here I Go Again
12 - Black Hole (Bonus Track)
Bonus Disc:
01 - Tame Me
02 - Bring It On
03 - What Is A Girl To Do
04 - Anything Goes
05 - Just A Girl
Продолжительность: 01:00:32 (00:44:41 и 00:15:50)
Код:
Exact Audio Copy V0.99 prebeta 4 from 23. January 2008
EAC extraction logfile from 7. June 2008, 17:15
Ana Johnsson / The Way I Am [IMPORT]
Used drive  : TSSTcorpCD/DVDW TS-H653L   Adapter: 2  ID: 1
Read mode               : Secure
Utilize accurate stream : Yes
Defeat audio cache      : No
Make use of C2 pointers : No
Read offset correction                      : 6
Overread into Lead-In and Lead-Out          : No
Fill up missing offset samples with silence : Yes
Delete leading and trailing silent blocks   : No
Null samples used in CRC calculations       : Yes
Used interface                              : Installed external ASPI interface
Gap handling                                : Appended to previous track
Used output format              : User Defined Encoder
Selected bitrate                : 320 kBit/s
Quality                         : High
Add ID3 tag                     : No
Command line compressor         : F:\PORTABLE\BURNER\Exact Audio Copy\Flac\flac.exe
Additional command line options : -8 -V -T "artist=%a" -T "title=%t" -T "album=%g" -T "date=%y" -T "tracknumber=%n" -T "genre=%m" %s
TOC of the extracted CD
     Track |   Start  |  Length  | Start sector | End sector
    ---------------------------------------------------------
        1  |  0:00.00 |  3:56.61 |         0    |    17760
        2  |  3:56.61 |  3:48.12 |     17761    |    34872
        3  |  7:44.73 |  3:31.63 |     34873    |    50760
        4  | 11:16.61 |  3:48.33 |     50761    |    67893
        5  | 15:05.19 |  3:44.54 |     67894    |    84747
        6  | 18:49.73 |  3:02.45 |     84748    |    98442
        7  | 21:52.43 |  4:50.30 |     98443    |   120222
        8  | 26:42.73 |  3:44.22 |    120223    |   137044
        9  | 30:27.20 |  3:08.10 |    137045    |   151154
       10  | 33:35.30 |  3:42.64 |    151155    |   167868
       11  | 37:18.19 |  3:26.59 |    167869    |   183377
       12  | 40:45.03 |  3:56.53 |    183378    |   201130
       13  | 47:13.56 | 10:45.59 |    212531    |   260964
Track  1
     Filename C:\==RIP==\01 - Ana Johnsson - We Are.wav
     Pre-gap length  0:00:02.00
     Peak level 98.8 %
     Track quality 100.0 %
     Test CRC 605B30E3
     Copy CRC 605B30E3
     Copy OK
Track  2
     Filename C:\==RIP==\02 - Ana Johnsson - Don't Cry For Pain.wav
     Peak level 98.8 %
     Track quality 100.0 %
     Test CRC F9BFBAFF
     Copy CRC F9BFBAFF
     Copy OK
Track  3
     Filename C:\==RIP==\03 - Ana Johnsson - The Way I Am.wav
     Peak level 98.8 %
     Track quality 99.9 %
     Test CRC E10CA610
     Copy CRC E10CA610
     Copy OK
Track  4
     Filename C:\==RIP==\04 - Ana Johnsson - I'm Stupid.wav
     Peak level 98.8 %
     Track quality 99.9 %
     Test CRC B7B015CC
     Copy CRC B7B015CC
     Copy OK
Track  5
     Filename C:\==RIP==\05 - Ana Johnsson - 6 Feet Under.wav
     Peak level 99.2 %
     Track quality 100.0 %
     Test CRC A34D41DD
     Copy CRC A34D41DD
     Copy OK
Track  6
     Filename C:\==RIP==\06 - Ana Johnsson - Coz I Can.wav
     Peak level 98.8 %
     Track quality 99.9 %
     Test CRC DC9383F4
     Copy CRC DC9383F4
     Copy OK
Track  7
     Filename C:\==RIP==\07 - Ana Johnsson - Crest Of The Wave.wav
     Peak level 98.8 %
     Track quality 100.0 %
     Test CRC 9DCF2FC4
     Copy CRC 9DCF2FC4
     Copy OK
Track  8
     Filename C:\==RIP==\08 - Ana Johnsson - L.A..wav
     Peak level 98.8 %
     Track quality 100.0 %
     Test CRC 5DD6A25C
     Copy CRC 5DD6A25C
     Copy OK
Track  9
     Filename C:\==RIP==\09 - Ana Johnsson - Life.wav
     Peak level 98.8 %
     Track quality 100.0 %
     Test CRC 82DCB215
     Copy CRC 82DCB215
     Copy OK
Track 10
     Filename C:\==RIP==\10 - Ana Johnsson - Now It's Gone.wav
     Peak level 98.8 %
     Track quality 100.0 %
     Test CRC 80A6598B
     Copy CRC 80A6598B
     Copy OK
Track 11
     Filename C:\==RIP==\11 - Ana Johnsson - Here I Go Again.wav
     Peak level 98.9 %
     Track quality 100.0 %
     Test CRC 1AB8B5C1
     Copy CRC 1AB8B5C1
     Copy OK
Track 12
     Filename C:\==RIP==\12 - Ana Johnsson - Black Hole (Bonus Track).wav
     Peak level 97.7 %
     Track quality 100.0 %
     Test CRC 40C28C75
     Copy CRC 40C28C75
     Copy OK
No errors occurred
End of status report
Код:
Exact Audio Copy V0.99 prebeta 4 from 23. January 2008
EAC extraction logfile from 7. June 2008, 17:26
Ana Johnsson / The Way I Am [BONUS]
Used drive  : TSSTcorpCD/DVDW TS-H653L   Adapter: 2  ID: 1
Read mode               : Secure
Utilize accurate stream : Yes
Defeat audio cache      : No
Make use of C2 pointers : No
Read offset correction                      : 6
Overread into Lead-In and Lead-Out          : No
Fill up missing offset samples with silence : Yes
Delete leading and trailing silent blocks   : No
Null samples used in CRC calculations       : Yes
Used interface                              : Installed external ASPI interface
Gap handling                                : Appended to previous track
Used output format              : User Defined Encoder
Selected bitrate                : 320 kBit/s
Quality                         : High
Add ID3 tag                     : No
Command line compressor         : F:\PORTABLE\BURNER\Exact Audio Copy\Flac\flac.exe
Additional command line options : -8 -V -T "artist=%a" -T "title=%t" -T "album=%g" -T "date=%y" -T "tracknumber=%n" -T "genre=%m" %s
TOC of the extracted CD
     Track |   Start  |  Length  | Start sector | End sector
    ---------------------------------------------------------
        1  |  0:00.00 |  3:31.27 |         0    |    15851
        2  |  3:31.27 |  2:46.43 |     15852    |    28344
        3  |  6:17.70 |  3:19.70 |     28345    |    43339
        4  |  9:37.65 |  2:50.65 |     43340    |    56154
        5  | 12:28.55 |  3:21.41 |     56155    |    71270
        6  | 18:22.21 | 10:30.27 |     82671    |   129947
Track  1
     Filename C:\==RIP==\01 - Ana Johnsson - Tame Me.wav
     Pre-gap length  0:00:02.00
     Peak level 97.7 %
     Track quality 100.0 %
     Test CRC 3340D93E
     Copy CRC 3340D93E
     Copy OK
Track  2
     Filename C:\==RIP==\02 - Ana Johnsson - Bring It On.wav
     Peak level 98.9 %
     Track quality 100.0 %
     Test CRC 3071639C
     Copy CRC 3071639C
     Copy OK
Track  3
     Filename C:\==RIP==\03 - Ana Johnsson - What Is A Girl To Do.wav
     Peak level 97.7 %
     Track quality 100.0 %
     Test CRC 6D2F6823
     Copy CRC 6D2F6823
     Copy OK
Track  4
     Filename C:\==RIP==\04 - Ana Johnsson - Anything Goes.wav
     Peak level 87.5 %
     Track quality 100.0 %
     Test CRC F931513A
     Copy CRC F931513A
     Copy OK
Track  5
     Filename C:\==RIP==\05 - Ana Johnsson - Just A Girl.wav
     Peak level 100.0 %
     Track quality 100.0 %
     Test CRC A4DE0486
     Copy CRC A4DE0486
     Copy OK
No errors occurred
End of status report
Код:
REM GENRE Rock
REM DATE 2004
REM DISCID A70D970D
REM COMMENT "ExactAudioCopy v0.99pb4"
PERFORMER "Ana Johnsson"
TITLE "The Way I Am [IMPORT]"
FILE "01 - Ana Johnsson - We Are.wav" WAVE
  TRACK 01 AUDIO
    TITLE "We Are"
    PERFORMER "Ana Johnsson"
    INDEX 01 00:00:00
FILE "02 - Ana Johnsson - Don't Cry For Pain.wav" WAVE
  TRACK 02 AUDIO
    TITLE "Don't Cry For Pain"
    PERFORMER "Ana Johnsson"
    INDEX 01 00:00:00
FILE "03 - Ana Johnsson - The Way I Am.wav" WAVE
  TRACK 03 AUDIO
    TITLE "The Way I Am"
    PERFORMER "Ana Johnsson"
    INDEX 01 00:00:00
FILE "04 - Ana Johnsson - I'm Stupid.wav" WAVE
  TRACK 04 AUDIO
    TITLE "I'm Stupid"
    PERFORMER "Ana Johnsson"
    INDEX 01 00:00:00
FILE "05 - Ana Johnsson - 6 Feet Under.wav" WAVE
  TRACK 05 AUDIO
    TITLE "6 Feet Under"
    PERFORMER "Ana Johnsson"
    INDEX 01 00:00:00
FILE "06 - Ana Johnsson - Coz I Can.wav" WAVE
  TRACK 06 AUDIO
    TITLE "Coz I Can"
    PERFORMER "Ana Johnsson"
    INDEX 01 00:00:00
FILE "07 - Ana Johnsson - Crest Of The Wave.wav" WAVE
  TRACK 07 AUDIO
    TITLE "Crest Of The Wave"
    PERFORMER "Ana Johnsson"
    INDEX 01 00:00:00
FILE "08 - Ana Johnsson - L.A..wav" WAVE
  TRACK 08 AUDIO
    TITLE "L.A."
    PERFORMER "Ana Johnsson"
    INDEX 01 00:00:00
FILE "09 - Ana Johnsson - Life.wav" WAVE
  TRACK 09 AUDIO
    TITLE "Life"
    PERFORMER "Ana Johnsson"
    INDEX 01 00:00:00
FILE "10 - Ana Johnsson - Now It's Gone.wav" WAVE
  TRACK 10 AUDIO
    TITLE "Now It's Gone"
    PERFORMER "Ana Johnsson"
    INDEX 01 00:00:00
FILE "11 - Ana Johnsson - Here I Go Again.wav" WAVE
  TRACK 11 AUDIO
    TITLE "Here I Go Again"
    PERFORMER "Ana Johnsson"
    INDEX 01 00:00:00
FILE "12 - Ana Johnsson - Black Hole (Bonus Track).wav" WAVE
  TRACK 12 AUDIO
    TITLE "Black Hole (Bonus Track)"
    PERFORMER "Ana Johnsson"
    INDEX 01 00:00:00
  TRACK 13 MODEx/2xxx
    TITLE "CD EXTRA"
    PERFORMER "Ana Johnsson"
    INDEX 00 03:56:53
Код:
REM GENRE Rock
REM DATE 2004
REM DISCID 4206C406
REM COMMENT "ExactAudioCopy v0.99pb4"
PERFORMER "Ana Johnsson"
TITLE "The Way I Am [BONUS]"
FILE "01 - Ana Johnsson - Tame Me.wav" WAVE
  TRACK 01 AUDIO
    TITLE "Tame Me"
    PERFORMER "Ana Johnsson"
    INDEX 01 00:00:00
FILE "02 - Ana Johnsson - Bring It On.wav" WAVE
  TRACK 02 AUDIO
    TITLE "Bring It On"
    PERFORMER "Ana Johnsson"
    INDEX 01 00:00:00
FILE "03 - Ana Johnsson - What Is A Girl To Do.wav" WAVE
  TRACK 03 AUDIO
    TITLE "What Is A Girl To Do"
    PERFORMER "Ana Johnsson"
    INDEX 01 00:00:00
FILE "04 - Ana Johnsson - Anything Goes.wav" WAVE
  TRACK 04 AUDIO
    TITLE "Anything Goes"
    PERFORMER "Ana Johnsson"
    INDEX 01 00:00:00
FILE "05 - Ana Johnsson - Just A Girl.wav" WAVE
  TRACK 05 AUDIO
    TITLE "Just A Girl"
    PERFORMER "Ana Johnsson"
    INDEX 01 00:00:00
  TRACK 06 MODEx/2xxx
    TITLE "CD EXTRA"
    PERFORMER "Ana Johnsson"
    INDEX 00 03:21:41
#777Little Angel
01 - Little Angel
02 - Break Through Time
03 - Exception
04 - Catch Me If You Can
05 - What If
06 - Playing God
07 - Burn
08 - Days of Summer
09 - Harder We Fall
10 - Still
11 - Spit It Out
12 - Coming out Strong
13 - Falling to Pieces (Bonus Track)
14 - If I'm Not Dreaming (Bonus Track)
Продолжительность: 00:49:33
Код:
Exact Audio Copy V0.99 prebeta 4 from 23. January 2008
EAC extraction logfile from 7. June 2008, 16:54
Ana Johnsson / Little Angel [IMPORT]
Used drive  : TSSTcorpCD/DVDW TS-H653L   Adapter: 2  ID: 1
Read mode               : Secure
Utilize accurate stream : Yes
Defeat audio cache      : No
Make use of C2 pointers : No
Read offset correction                      : 6
Overread into Lead-In and Lead-Out          : No
Fill up missing offset samples with silence : Yes
Delete leading and trailing silent blocks   : No
Null samples used in CRC calculations       : Yes
Used interface                              : Installed external ASPI interface
Gap handling                                : Appended to previous track
Used output format              : User Defined Encoder
Selected bitrate                : 320 kBit/s
Quality                         : High
Add ID3 tag                     : No
Command line compressor         : F:\PORTABLE\BURNER\Exact Audio Copy\Flac\flac.exe
Additional command line options : -8 -V -T "artist=%a" -T "title=%t" -T "album=%g" -T "date=%y" -T "tracknumber=%n" -T "genre=%m" %s
TOC of the extracted CD
     Track |   Start  |  Length  | Start sector | End sector
    ---------------------------------------------------------
        1  |  0:00.00 |  2:50.13 |         0    |    12762
        2  |  2:50.13 |  3:01.35 |     12763    |    26372
        3  |  5:51.48 |  3:10.09 |     26373    |    40631
        4  |  9:01.57 |  2:45.06 |     40632    |    53012
        5  | 11:46.63 |  4:02.35 |     53013    |    71197
        6  | 15:49.23 |  4:04.08 |     71198    |    89505
        7  | 19:53.31 |  3:49.72 |     89506    |   106752
        8  | 23:43.28 |  3:12.16 |    106753    |   121168
        9  | 26:55.44 |  3:46.37 |    121169    |   138155
       10  | 30:42.06 |  3:50.12 |    138156    |   155417
       11  | 34:32.18 |  3:12.60 |    155418    |   169877
       12  | 37:45.03 |  4:46.26 |    169878    |   191353
       13  | 42:31.29 |  3:25.72 |    191354    |   206800
       14  | 45:57.26 |  3:36.22 |    206801    |   223022
Track  1
     Filename C:\==RIP==\01 - Ana Johnsson - Little Angel.wav
     Pre-gap length  0:00:02.00
     Peak level 75.0 %
     Track quality 100.0 %
     Test CRC DAE3D10B
     Copy CRC DAE3D10B
     Copy OK
Track  2
     Filename C:\==RIP==\02 - Ana Johnsson - Break Through Time.wav
     Peak level 100.0 %
     Track quality 100.0 %
     Test CRC DF913DAA
     Copy CRC DF913DAA
     Copy OK
Track  3
     Filename C:\==RIP==\03 - Ana Johnsson - Exception.wav
     Peak level 99.9 %
     Track quality 100.0 %
     Test CRC C7037B23
     Copy CRC C7037B23
     Copy OK
Track  4
     Filename C:\==RIP==\04 - Ana Johnsson - Catch Me If You Can.wav
     Peak level 100.0 %
     Track quality 100.0 %
     Test CRC D25E806A
     Copy CRC D25E806A
     Copy OK
Track  5
     Filename C:\==RIP==\05 - Ana Johnsson - What If.wav
     Peak level 100.0 %
     Track quality 100.0 %
     Test CRC 2B660C7E
     Copy CRC 2B660C7E
     Copy OK
Track  6
     Filename C:\==RIP==\06 - Ana Johnsson - Playing God.wav
     Peak level 100.0 %
     Track quality 100.0 %
     Test CRC FB8A3521
     Copy CRC FB8A3521
     Copy OK
Track  7
     Filename C:\==RIP==\07 - Ana Johnsson - Burn.wav
     Peak level 86.9 %
     Track quality 100.0 %
     Test CRC 81B0DBD0
     Copy CRC 81B0DBD0
     Copy OK
Track  8
     Filename C:\==RIP==\08 - Ana Johnsson - Days of Summer.wav
     Peak level 100.0 %
     Track quality 100.0 %
     Test CRC 37E01D66
     Copy CRC 37E01D66
     Copy OK
Track  9
     Filename C:\==RIP==\09 - Ana Johnsson - Harder We Fall.wav
     Peak level 100.0 %
     Track quality 100.0 %
     Test CRC A8AA3818
     Copy CRC A8AA3818
     Copy OK
Track 10
     Filename C:\==RIP==\10 - Ana Johnsson - Still.wav
     Peak level 100.0 %
     Track quality 100.0 %
     Test CRC 7271E5F1
     Copy CRC 7271E5F1
     Copy OK
Track 11
     Filename C:\==RIP==\11 - Ana Johnsson - Spit It Out.wav
     Peak level 100.0 %
     Track quality 100.0 %
     Test CRC 4D5359F7
     Copy CRC 4D5359F7
     Copy OK
Track 12
     Filename C:\==RIP==\12 - Ana Johnsson - Coming out Strong.wav
     Peak level 100.0 %
     Track quality 100.0 %
     Test CRC 43F7356B
     Copy CRC 43F7356B
     Copy OK
Track 13
     Filename C:\==RIP==\13 - Ana Johnsson - Falling to Pieces [x].wav
     Peak level 100.0 %
     Track quality 100.0 %
     Test CRC 1695B28D
     Copy CRC 1695B28D
     Copy OK
Track 14
     Filename C:\==RIP==\14 - Ana Johnsson - If I'm Not Dreaming [x].wav
     Peak level 99.7 %
     Track quality 100.0 %
     Test CRC A0F96DA1
     Copy CRC A0F96DA1
     Copy OK
No errors occurred
End of status report
Код:
REM GENRE Pop
REM DATE 2007
REM DISCID C10B9D0E
REM COMMENT "ExactAudioCopy v0.99pb4"
PERFORMER "Ana Johnsson"
TITLE "Little Angel [IMPORT]"
FILE "01 - Ana Johnsson - Little Angel.wav" WAVE
  TRACK 01 AUDIO
    TITLE "Little Angel"
    PERFORMER "Ana Johnsson"
    INDEX 01 00:00:00
FILE "02 - Ana Johnsson - Break Through Time.wav" WAVE
  TRACK 02 AUDIO
    TITLE "Break Through Time"
    PERFORMER "Ana Johnsson"
    INDEX 01 00:00:00
FILE "03 - Ana Johnsson - Exception.wav" WAVE
  TRACK 03 AUDIO
    TITLE "Exception"
    PERFORMER "Ana Johnsson"
    INDEX 01 00:00:00
FILE "04 - Ana Johnsson - Catch Me If You Can.wav" WAVE
  TRACK 04 AUDIO
    TITLE "Catch Me If You Can"
    PERFORMER "Ana Johnsson"
    INDEX 01 00:00:00
FILE "05 - Ana Johnsson - What If.wav" WAVE
  TRACK 05 AUDIO
    TITLE "What If"
    PERFORMER "Ana Johnsson"
    INDEX 01 00:00:00
FILE "06 - Ana Johnsson - Playing God.wav" WAVE
  TRACK 06 AUDIO
    TITLE "Playing God"
    PERFORMER "Ana Johnsson"
    INDEX 01 00:00:00
FILE "07 - Ana Johnsson - Burn.wav" WAVE
  TRACK 07 AUDIO
    TITLE "Burn"
    PERFORMER "Ana Johnsson"
    INDEX 01 00:00:00
FILE "08 - Ana Johnsson - Days of Summer.wav" WAVE
  TRACK 08 AUDIO
    TITLE "Days of Summer"
    PERFORMER "Ana Johnsson"
    INDEX 01 00:00:00
FILE "09 - Ana Johnsson - Harder We Fall.wav" WAVE
  TRACK 09 AUDIO
    TITLE "Harder We Fall"
    PERFORMER "Ana Johnsson"
    INDEX 01 00:00:00
FILE "10 - Ana Johnsson - Still.wav" WAVE
  TRACK 10 AUDIO
    TITLE "Still"
    PERFORMER "Ana Johnsson"
    INDEX 01 00:00:00
FILE "11 - Ana Johnsson - Spit It Out.wav" WAVE
  TRACK 11 AUDIO
    TITLE "Spit It Out"
    PERFORMER "Ana Johnsson"
    INDEX 01 00:00:00
FILE "12 - Ana Johnsson - Coming out Strong.wav" WAVE
  TRACK 12 AUDIO
    TITLE "Coming out Strong"
    PERFORMER "Ana Johnsson"
    INDEX 01 00:00:00
FILE "13 - Ana Johnsson - Falling to Pieces [x].wav" WAVE
  TRACK 13 AUDIO
    TITLE "Falling to Pieces
"
PERFORMER "Ana Johnsson"
INDEX 01 00:00:00
FILE "14 - Ana Johnsson - If I'm Not Dreaming [x].wav" WAVE
TRACK 14 AUDIO
TITLE "If I'm Not Dreaming
    "
    PERFORMER "Ana Johnsson"
    INDEX 01 00:00:00
Правила, инструкции, FAQ!!!
Торрент  Добавлен [26 мар 2019, 21:08] Скачать торрент Магнет ссылка
Скачать торрент
[ Размер 18.92 КБ / Просмотров 12 ]

Статус
Проверен 
 
Размер  779.84 МБ
Приватный: Нет (DHT включён)
.torrent скачан  0
 


     Отправить личное сообщение
   
Страница 1 из 1
Показать сообщения за:  Поле сортировки  
Начать новую тему Ответить на тему


Сейчас этот форум просматривают: нет зарегистрированных пользователей и гости: 0


Вы не можете начинать темы
Вы не можете отвечать на сообщения
Вы не можете редактировать свои сообщения
Вы не можете удалять свои сообщения
Вы не можете добавлять вложения

Перейти:  
cron