Начать новую тему Ответить на тему
Статистика раздачи
Размер: 1.01 ГБ | Добавлен: 26 мар 2019, 19:34 | Скачали: 0
Сидеров: 0  [0 байт/сек]    Личеров: 0  [0 байт/сек]
Пред. тема | След. тема 

Автор
Сообщение

СообщениеДобавлено: 26 мар 2019, 19:34 

Ответить с цитатой 

Amy Rigby - коллекция 1996-2003 (3 альбома)
Жанр: pop-rock
Носитель: CD
Год издания: 1996-2003
Страна исполнителя (группы): US
 
 
 
 
 
 
 
 
 
 
 
 
 
 
 
 
Studio Albums
#777Страна-производитель диска: Canada
Год первого выпуска: 1996
Год настоящего издания: 1996
Издатель (лейбл): Koch Records
Номер по каталогу: KOC-CD-7922
Format: CD, Album
Аудиокодек: FLAC (*.flac)
Тип рипа: tracks+.cue
Битрейт аудио: lossless
Продолжительность: 00:40:15
Источник (релизер): What.CD
Наличие сканов в содержимом раздачи: да
Треклист:
01. Time For Me To Come Down (04:06)
02. Sad Tale (04:00)
03. Beer & Kisses (03:39)
04. 20 Questions (03:16)
05. Down Side Of Love (02:14)
06. The Good Girls (03:23)
07. Knapsack (02:52)
08. Just Someone I Had In Mind (03:22)
09. Don't Break The Heart (03:50)
10. That Tone Of Voice (03:10)
11. Didn't I? (03:10)
12. We're Stronger Than That (02:52)
Код:
X Lossless Decoder version 20090320 (105.1)
XLD extraction logfile from 2009-06-05 00:37:06 -0400
Amy Rigby / Diary of a Mod Housewife
Used drive : MATSHITA DVD-R   UJ-875 (revision DB09)
Use cdparanoia mode     : YES (CDParanoia III 10.2 engine)
Disable audio cache     : OK for the drive with cache less than 2750KB
Make use of C2 pointers : NO
Read offset correction  : 102
Max retry count         : 100
TOC of the extracted CD
     Track |   Start  |  Length  | Start sector | End sector
    ---------------------------------------------------------
        1  | 00:00:00 | 04:07:52 |         0    |    18576
        2  | 04:07:52 | 04:01:48 |     18577    |    36699
        3  | 08:09:25 | 03:41:05 |     36700    |    53279
        4  | 11:50:30 | 03:18:12 |     53280    |    68141
        5  | 15:08:42 | 02:15:68 |     68142    |    78334
        6  | 17:24:35 | 03:24:72 |     78335    |    93706
        7  | 20:49:32 | 02:55:25 |     93707    |   106856
        8  | 23:44:57 | 03:23:28 |    106857    |   122109
        9  | 27:08:10 | 03:51:12 |    122110    |   139446
       10  | 30:59:22 | 03:09:68 |    139447    |   153689
       11  | 34:09:15 | 03:14:12 |    153690    |   168251
       12  | 37:23:27 | 02:52:35 |    168252    |   181186
Track 01
    Filename : Amy Rigby - Diary of a Mod Housewife/01 Time for Me to Come Down.flac
    CRC32 hash (test run)  : A72E2032
    CRC32 hash             : A72E2032
    CRC32 hash (skip zero) : 04C35B94
    AccurateRip signature  : CA3FE8A6
        ->Accurately ripped! (confidence 10)
    Statistics
        Read error                           : 0
        Skipped (treated as error)           : 0
        Edge jitter error (maybe fixed)      : 0
        Atom jitter error (maybe fixed)      : 0
        Drift error (maybe fixed)            : 0
        Dropped bytes error (maybe fixed)    : 0
        Duplicated bytes error (maybe fixed) : 0
        Inconsistency in error sectors       : 0
Track 02
    Filename : Amy Rigby - Diary of a Mod Housewife/02 Sad Tale.flac
    CRC32 hash (test run)  : 8E91C224
    CRC32 hash             : 8E91C224
    CRC32 hash (skip zero) : 6200A1F6
    AccurateRip signature  : AF83301E
        ->Accurately ripped! (confidence 10)
    Statistics
        Read error                           : 0
        Skipped (treated as error)           : 0
        Edge jitter error (maybe fixed)      : 0
        Atom jitter error (maybe fixed)      : 0
        Drift error (maybe fixed)            : 0
        Dropped bytes error (maybe fixed)    : 0
        Duplicated bytes error (maybe fixed) : 0
        Inconsistency in error sectors       : 0
Track 03
    Filename : Amy Rigby - Diary of a Mod Housewife/03 Beer & Kisses.flac
    CRC32 hash (test run)  : EA970D58
    CRC32 hash             : EA970D58
    CRC32 hash (skip zero) : 4139DB6E
    AccurateRip signature  : 791B6ABE
        ->Accurately ripped! (confidence 10)
    Statistics
        Read error                           : 0
        Skipped (treated as error)           : 0
        Edge jitter error (maybe fixed)      : 0
        Atom jitter error (maybe fixed)      : 0
        Drift error (maybe fixed)            : 0
        Dropped bytes error (maybe fixed)    : 0
        Duplicated bytes error (maybe fixed) : 0
        Inconsistency in error sectors       : 0
Track 04
    Filename : Amy Rigby - Diary of a Mod Housewife/04 20 Questions.flac
    CRC32 hash (test run)  : C4695020
    CRC32 hash             : C4695020
    CRC32 hash (skip zero) : C8AFD97F
    AccurateRip signature  : BEFE455E
        ->Accurately ripped! (confidence 9)
    Statistics
        Read error                           : 0
        Skipped (treated as error)           : 0
        Edge jitter error (maybe fixed)      : 0
        Atom jitter error (maybe fixed)      : 0
        Drift error (maybe fixed)            : 0
        Dropped bytes error (maybe fixed)    : 0
        Duplicated bytes error (maybe fixed) : 0
        Inconsistency in error sectors       : 0
Track 05
    Filename : Amy Rigby - Diary of a Mod Housewife/05 Down Side of Love.flac
    CRC32 hash (test run)  : 832A7E3D
    CRC32 hash             : 832A7E3D
    CRC32 hash (skip zero) : 6E1AD0B9
    AccurateRip signature  : 2FF55D11
        ->Accurately ripped! (confidence 10)
    Statistics
        Read error                           : 0
        Skipped (treated as error)           : 0
        Edge jitter error (maybe fixed)      : 0
        Atom jitter error (maybe fixed)      : 0
        Drift error (maybe fixed)            : 0
        Dropped bytes error (maybe fixed)    : 0
        Duplicated bytes error (maybe fixed) : 0
        Inconsistency in error sectors       : 0
Track 06
    Filename : Amy Rigby - Diary of a Mod Housewife/06 The Good Girls.flac
    CRC32 hash (test run)  : E19D0E95
    CRC32 hash             : E19D0E95
    CRC32 hash (skip zero) : E01A10F0
    AccurateRip signature  : 3A9B8973
        ->Accurately ripped! (confidence 10)
    Statistics
        Read error                           : 0
        Skipped (treated as error)           : 0
        Edge jitter error (maybe fixed)      : 0
        Atom jitter error (maybe fixed)      : 0
        Drift error (maybe fixed)            : 0
        Dropped bytes error (maybe fixed)    : 0
        Duplicated bytes error (maybe fixed) : 0
        Inconsistency in error sectors       : 0
Track 07
    Filename : Amy Rigby - Diary of a Mod Housewife/07 Knapsack.flac
    CRC32 hash (test run)  : DD913E0B
    CRC32 hash             : DD913E0B
    CRC32 hash (skip zero) : 8939302B
    AccurateRip signature  : AB0852D2
        ->Accurately ripped! (confidence 10)
    Statistics
        Read error                           : 0
        Skipped (treated as error)           : 0
        Edge jitter error (maybe fixed)      : 0
        Atom jitter error (maybe fixed)      : 0
        Drift error (maybe fixed)            : 0
        Dropped bytes error (maybe fixed)    : 0
        Duplicated bytes error (maybe fixed) : 0
        Inconsistency in error sectors       : 0
Track 08
    Filename : Amy Rigby - Diary of a Mod Housewife/08 Just Someone I Had in Mind.flac
    CRC32 hash (test run)  : E91C1D34
    CRC32 hash             : E91C1D34
    CRC32 hash (skip zero) : 79203F9C
    AccurateRip signature  : CE55476E
        ->Accurately ripped! (confidence 10)
    Statistics
        Read error                           : 0
        Skipped (treated as error)           : 0
        Edge jitter error (maybe fixed)      : 0
        Atom jitter error (maybe fixed)      : 0
        Drift error (maybe fixed)            : 0
        Dropped bytes error (maybe fixed)    : 0
        Duplicated bytes error (maybe fixed) : 0
        Inconsistency in error sectors       : 0
Track 09
    Filename : Amy Rigby - Diary of a Mod Housewife/09 Don't Break the Heart.flac
    CRC32 hash (test run)  : 4D241ADE
    CRC32 hash             : 4D241ADE
    CRC32 hash (skip zero) : 7232B2AF
    AccurateRip signature  : 17C13D76
        ->Accurately ripped! (confidence 10)
    Statistics
        Read error                           : 0
        Skipped (treated as error)           : 0
        Edge jitter error (maybe fixed)      : 0
        Atom jitter error (maybe fixed)      : 0
        Drift error (maybe fixed)            : 0
        Dropped bytes error (maybe fixed)    : 0
        Duplicated bytes error (maybe fixed) : 0
        Inconsistency in error sectors       : 0
Track 10
    Filename : Amy Rigby - Diary of a Mod Housewife/10 That Tone of Voice.flac
    CRC32 hash (test run)  : A34C8026
    CRC32 hash             : A34C8026
    CRC32 hash (skip zero) : C1BF6C75
    AccurateRip signature  : 2984799C
        ->Accurately ripped! (confidence 9)
    Statistics
        Read error                           : 0
        Skipped (treated as error)           : 0
        Edge jitter error (maybe fixed)      : 0
        Atom jitter error (maybe fixed)      : 0
        Drift error (maybe fixed)            : 0
        Dropped bytes error (maybe fixed)    : 0
        Duplicated bytes error (maybe fixed) : 0
        Inconsistency in error sectors       : 0
Track 11
    Filename : Amy Rigby - Diary of a Mod Housewife/11 Didn't I?.flac
    CRC32 hash (test run)  : 4F6A2A59
    CRC32 hash             : 4F6A2A59
    CRC32 hash (skip zero) : 96A2B4A2
    AccurateRip signature  : 7FF82CE5
        ->Accurately ripped! (confidence 9)
    Statistics
        Read error                           : 0
        Skipped (treated as error)           : 0
        Edge jitter error (maybe fixed)      : 0
        Atom jitter error (maybe fixed)      : 0
        Drift error (maybe fixed)            : 0
        Dropped bytes error (maybe fixed)    : 0
        Duplicated bytes error (maybe fixed) : 0
        Inconsistency in error sectors       : 0
Track 12
    Filename : Amy Rigby - Diary of a Mod Housewife/12 We're Stronger Than That.flac
    CRC32 hash (test run)  : FD38E27B
    CRC32 hash             : FD38E27B
    CRC32 hash (skip zero) : 958B881A
    AccurateRip signature  : F5D785DE
        ->Accurately ripped! (confidence 8)
    Statistics
        Read error                           : 0
        Skipped (treated as error)           : 0
        Edge jitter error (maybe fixed)      : 0
        Atom jitter error (maybe fixed)      : 0
        Drift error (maybe fixed)            : 0
        Dropped bytes error (maybe fixed)    : 0
        Duplicated bytes error (maybe fixed) : 0
        Inconsistency in error sectors       : 0
No errors occurred
End of status report
Код:
TITLE "Diary of a Mod Housewife"
PERFORMER "Amy Rigby"
REM GENRE "Rock"
REM DATE "Diary of a Mod Housewife"
FILE "01 Time for Me to Come Down.wav" WAVE
  TRACK 01 AUDIO
    TITLE "Time for Me to Come Down"
    INDEX 01 00:00:00
FILE "02 Sad Tale.wav" WAVE
  TRACK 02 AUDIO
    TITLE "Sad Tale"
    INDEX 01 00:00:00
FILE "03 Beer & Kisses.wav" WAVE
  TRACK 03 AUDIO
    TITLE "Beer & Kisses"
    INDEX 01 00:00:00
FILE "04 20 Questions.wav" WAVE
  TRACK 04 AUDIO
    TITLE "20 Questions"
    INDEX 01 00:00:00
FILE "05 Down Side of Love.wav" WAVE
  TRACK 05 AUDIO
    TITLE "Down Side of Love"
    INDEX 01 00:00:00
FILE "06 The Good Girls.wav" WAVE
  TRACK 06 AUDIO
    TITLE "The Good Girls"
    INDEX 01 00:00:00
FILE "07 Knapsack.wav" WAVE
  TRACK 07 AUDIO
    TITLE "Knapsack"
    INDEX 01 00:00:00
FILE "08 Just Someone I Had in Mind.wav" WAVE
  TRACK 08 AUDIO
    TITLE "Just Someone I Had in Mind"
    INDEX 01 00:00:00
FILE "09 Don't Break the Heart.wav" WAVE
  TRACK 09 AUDIO
    TITLE "Don't Break the Heart"
    INDEX 01 00:00:00
FILE "10 That Tone of Voice.wav" WAVE
  TRACK 10 AUDIO
    TITLE "That Tone of Voice"
    INDEX 01 00:00:00
FILE "11 Didn't I?.wav" WAVE
  TRACK 11 AUDIO
    TITLE "Didn't I?"
    INDEX 01 00:00:00
FILE "12 We're Stronger Than That.wav" WAVE
  TRACK 12 AUDIO
    TITLE "We're Stronger Than That"
    INDEX 01 00:00:00
#777Страна-производитель диска:
Год первого выпуска:
Год настоящего издания:
Издатель (лейбл): Koch Records
Номер по каталогу: KOC-CD-8384
Format: CD, Album
Аудиокодек: FLAC (*.flac)
Тип рипа: tracks+.cue
Битрейт аудио: lossless
Продолжительность: 1:04:20
Источник (релизер): SupLegolas
Наличие сканов в содержимом раздачи: да
Треклист:
01. All I Want (03:53)
02. The Summer Of My Wasted Youth (03:22)
03. Balls (03:12)
04. Cynically Yours (03:15)
05. Beer & Kisses (03:40)
06. 20 Questions (03:17)
07. Keep It To Yourself (03:47)
08. Wait Till I Get You Home (03:21)
09. We´re Stronger Than That (02:49)
10. Time For Me To Come Down (04:04)
11. Raising The Bar (03:01)
12. What I Need (03:52)
13. The Good Girls
(03:23)
14. Knapsack (02:53)
15. Invisible (04:07)
16. Rode Hard (04:20)
17. If You Won´t Hang Around (03:15)
18. Magicians (04:23)
Код:
Exact Audio Copy V1.0 beta 3 from 29. August 2011
EAC extraction logfile from 15. January 2013, 15:58
Amy Rigby / 18 again
Used drive  : HL-DT-STDVDRAM GT50N   Adapter: 0  ID: 0
Read mode               : Secure
Utilize accurate stream : Yes
Defeat audio cache      : Yes
Make use of C2 pointers : No
Read offset correction                      : 103
Overread into Lead-In and Lead-Out          : No
Fill up missing offset samples with silence : Yes
Delete leading and trailing silent blocks   : No
Null samples used in CRC calculations       : Yes
Used interface                              : Native Win32 interface for Win NT & 2000
Gap handling                                : Appended to previous track
Used output format              : User Defined Encoder
Selected bitrate                : 1024 kBit/s
Quality                         : High
Add ID3 tag                     : No
Command line compressor         : C:\Program Files (x86)\Exact Audio Copy\Flac
\flac.exe
Additional command line options : -T "artist=%artist%" -T "title=%title%" -T "album=
%albumtitle%" -T "date=%year%" -T "tracknumber=%tracknr%" -T "genre=%genre%" -V -8
%source%
TOC of the extracted CD
     Track |   Start  |  Length  | Start sector | End sector
    ---------------------------------------------------------
        1  |  0:00.00 |  3:53.67 |         0    |    17541
        2  |  3:53.67 |  3:23.28 |     17542    |    32794
        3  |  7:17.20 |  3:14.05 |     32795    |    47349
        4  | 10:31.25 |  3:15.38 |     47350    |    62012
        5  | 13:46.63 |  3:40.45 |     62013    |    78557
        6  | 17:27.33 |  3:17.58 |     78558    |    93390
        7  | 20:45.16 |  3:49.29 |     93391    |   110594
        8  | 24:34.45 |  3:21.70 |    110595    |   125739
        9  | 27:56.40 |  2:49.19 |    125740    |   138433
       10  | 30:45.59 |  4:05.60 |    138434    |   156868
       11  | 34:51.44 |  3:01.64 |    156869    |   170507
       12  | 37:53.33 |  3:54.48 |    170508    |   188105
       13  | 41:48.06 |  3:25.17 |    188106    |   203497
       14  | 45:13.23 |  2:54.57 |    203498    |   216604
       15  | 48:08.05 |  4:08.23 |    216605    |   235227
       16  | 52:16.28 |  4:22.60 |    235228    |   254937
       17  | 56:39.13 |  3:17.24 |    254938    |   269736
       18  | 59:56.37 |  4:23.51 |    269737    |   289512
Track  1
     Filename M:\work\Amy Rigby - 18 again [CD FLAC]\01 All I want.wav
     Pre-gap length  0:00:02.00
     Peak level 98.8 %
     Extraction speed 2.5 X
     Track quality 100.0 %
     Test CRC BEE159FC
     Copy CRC BEE159FC
     Accurately ripped (confidence 6)  [7078F8AB]  (AR v1)
     Copy OK
Track  2
     Filename M:\work\Amy Rigby - 18 again [CD FLAC]\02 The Summer of My Wasted
Youth.wav
     Pre-gap length  0:00:00.53
     Peak level 98.8 %
     Extraction speed 2.7 X
     Track quality 100.0 %
     Test CRC CCB201E9
     Copy CRC CCB201E9
     Accurately ripped (confidence 6)  [5E348877]  (AR v1)
     Copy OK
Track  3
     Filename M:\work\Amy Rigby - 18 again [CD FLAC]\03 Balls.wav
     Pre-gap length  0:00:00.88
     Peak level 97.7 %
     Extraction speed 2.8 X
     Track quality 100.0 %
     Test CRC 6696A645
     Copy CRC 6696A645
     Accurately ripped (confidence 6)  [0EECBD5E]  (AR v1)
     Copy OK
Track  4
     Filename M:\work\Amy Rigby - 18 again [CD FLAC]\04 Cynically Yours.wav
     Pre-gap length  0:00:01.36
     Peak level 98.5 %
     Extraction speed 2.3 X
     Track quality 99.9 %
     Test CRC D36D8516
     Copy CRC D36D8516
     Accurately ripped (confidence 6)  [6D56FEFD]  (AR v1)
     Copy OK
Track  5
     Filename M:\work\Amy Rigby - 18 again [CD FLAC]\05 Beer & Kisses.wav
     Pre-gap length  0:00:00.34
     Peak level 96.5 %
     Extraction speed 3.2 X
     Track quality 100.0 %
     Test CRC 79013855
     Copy CRC 79013855
     Accurately ripped (confidence 6)  [6230420E]  (AR v1)
     Copy OK
Track  6
     Filename M:\work\Amy Rigby - 18 again [CD FLAC]\06 20 Questions.wav
     Pre-gap length  0:00:00.29
     Peak level 98.4 %
     Extraction speed 3.3 X
     Track quality 100.0 %
     Test CRC 28996FED
     Copy CRC 28996FED
     Accurately ripped (confidence 6)  [16E7702A]  (AR v1)
     Copy OK
Track  7
     Filename M:\work\Amy Rigby - 18 again [CD FLAC]\07 Keep It To Yourself.wav
     Peak level 82.6 %
     Extraction speed 2.8 X
     Track quality 99.9 %
     Test CRC 3A47A709
     Copy CRC 3A47A709
     Accurately ripped (confidence 6)  [BCBFA63E]  (AR v1)
     Copy OK
Track  8
     Filename M:\work\Amy Rigby - 18 again [CD FLAC]\08 Wait Til I Get You Home.wav
     Pre-gap length  0:00:01.52
     Peak level 99.9 %
     Extraction speed 3.7 X
     Track quality 100.0 %
     Test CRC 67229390
     Copy CRC 67229390
     Accurately ripped (confidence 6)  [17C0E107]  (AR v1)
     Copy OK
Track  9
     Filename M:\work\Amy Rigby - 18 again [CD FLAC]\09 We're Stronger Than That.wav
     Pre-gap length  0:00:00.25
     Peak level 97.5 %
     Extraction speed 3.6 X
     Track quality 100.0 %
     Test CRC 7549043E
     Copy CRC 7549043E
     Accurately ripped (confidence 6)  [0F76EF6A]  (AR v1)
     Copy OK
Track 10
     Filename M:\work\Amy Rigby - 18 again [CD FLAC]\10 Time For Me To Come Down.wav
     Pre-gap length  0:00:00.22
     Peak level 97.3 %
     Extraction speed 4.1 X
     Track quality 100.0 %
     Test CRC 90138A2E
     Copy CRC 90138A2E
     Accurately ripped (confidence 6)  [B44569D3]  (AR v1)
     Copy OK
Track 11
     Filename M:\work\Amy Rigby - 18 again [CD FLAC]\11 Raising the Bar.wav
     Pre-gap length  0:00:01.42
     Peak level 98.8 %
     Extraction speed 3.9 X
     Track quality 100.0 %
     Test CRC 94D9716A
     Copy CRC 94D9716A
     Accurately ripped (confidence 6)  [9A52C27F]  (AR v1)
     Copy OK
Track 12
     Filename M:\work\Amy Rigby - 18 again [CD FLAC]\12 What I Need.wav
     Pre-gap length  0:00:00.61
     Peak level 98.8 %
     Extraction speed 4.2 X
     Track quality 100.0 %
     Test CRC E7319921
     Copy CRC E7319921
     Accurately ripped (confidence 6)  [FB296723]  (AR v1)
     Copy OK
Track 13
     Filename M:\work\Amy Rigby - 18 again [CD FLAC]\13 The Good Girls.wav
     Pre-gap length  0:00:02.00
     Peak level 99.0 %
     Extraction speed 4.3 X
     Track quality 100.0 %
     Test CRC 147D37D9
     Copy CRC 147D37D9
     Accurately ripped (confidence 6)  [524FA675]  (AR v1)
     Copy OK
Track 14
     Filename M:\work\Amy Rigby - 18 again [CD FLAC]\14 Knapsack.wav
     Pre-gap length  0:00:01.30
     Peak level 96.4 %
     Extraction speed 4.3 X
     Track quality 100.0 %
     Test CRC 89F55067
     Copy CRC 89F55067
     Accurately ripped (confidence 6)  [BE2922BF]  (AR v1)
     Copy OK
Track 15
     Filename M:\work\Amy Rigby - 18 again [CD FLAC]\15 Invisible.wav
     Pre-gap length  0:00:01.26
     Peak level 89.1 %
     Extraction speed 3.7 X
     Track quality 99.9 %
     Test CRC A104D008
     Copy CRC A104D008
     Accurately ripped (confidence 6)  [784780AA]  (AR v1)
     Copy OK
Track 16
     Filename M:\work\Amy Rigby - 18 again [CD FLAC]\16 Rode Hard.wav
     Pre-gap length  0:00:01.25
     Peak level 99.8 %
     Extraction speed 4.8 X
     Track quality 100.0 %
     Test CRC DAD615EA
     Copy CRC DAD615EA
     Accurately ripped (confidence 6)  [C4776739]  (AR v1)
     Copy OK
Track 17
     Filename M:\work\Amy Rigby - 18 again [CD FLAC]\17 If You Won't Hang Around.wav
     Pre-gap length  0:00:02.00
     Peak level 99.9 %
     Extraction speed 4.8 X
     Track quality 100.0 %
     Test CRC 8D0FA365
     Copy CRC 8D0FA365
     Accurately ripped (confidence 6)  [392AED3C]  (AR v1)
     Copy OK
Track 18
     Filename M:\work\Amy Rigby - 18 again [CD FLAC]\18 Magicians.wav
     Pre-gap length  0:00:01.52
     Peak level 97.7 %
     Extraction speed 5.1 X
     Track quality 100.0 %
     Test CRC FE8857EB
     Copy CRC FE8857EB
     Accurately ripped (confidence 6)  [AC3683B2]  (AR v1)
     Copy OK
All tracks accurately ripped
No errors occurred
End of status report
==== Log checksum 098DEC614BD731B0F88E6897765DD68EFD5289E63295ECFA072C8EF9C131C353
====
Код:
REM GENRE ROCK
REM DATE 2002
REM DISCID 0B0F1412
REM COMMENT "ExactAudioCopy v1.0b3"
PERFORMER "Amy Rigby"
TITLE "18 again"
FILE "01 All I want.wav" WAVE
  TRACK 01 AUDIO
    TITLE "All I want"
    PERFORMER "Amy Rigby"
    FLAGS DCP
    INDEX 01 00:00:00
  TRACK 02 AUDIO
    TITLE "The Summer of My Wasted Youth"
    PERFORMER "Amy Rigby"
    FLAGS DCP
    INDEX 00 03:53:27
FILE "02 The Summer of My Wasted Youth.wav" WAVE
    INDEX 01 00:00:00
  TRACK 03 AUDIO
    TITLE "Balls"
    PERFORMER "Amy Rigby"
    FLAGS DCP
    INDEX 00 03:22:37
FILE "03 Balls.wav" WAVE
    INDEX 01 00:00:00
  TRACK 04 AUDIO
    TITLE "Cynically Yours"
    PERFORMER "Amy Rigby"
    FLAGS DCP
    INDEX 00 03:12:53
FILE "04 Cynically Yours.wav" WAVE
    INDEX 01 00:00:00
  TRACK 05 AUDIO
    TITLE "Beer & Kisses"
    PERFORMER "Amy Rigby"
    FLAGS DCP
    INDEX 00 03:15:12
FILE "05 Beer & Kisses.wav" WAVE
    INDEX 01 00:00:00
  TRACK 06 AUDIO
    TITLE "20 Questions"
    PERFORMER "Amy Rigby"
    FLAGS DCP
    INDEX 00 03:40:23
FILE "06 20 Questions.wav" WAVE
    INDEX 01 00:00:00
FILE "07 Keep It To Yourself.wav" WAVE
  TRACK 07 AUDIO
    TITLE "Keep It To Yourself"
    PERFORMER "Amy Rigby"
    FLAGS DCP
    INDEX 01 00:00:00
  TRACK 08 AUDIO
    TITLE "Wait Til I Get You Home"
    PERFORMER "Amy Rigby"
    FLAGS DCP
    INDEX 00 03:47:65
FILE "08 Wait Til I Get You Home.wav" WAVE
    INDEX 01 00:00:00
  TRACK 09 AUDIO
    TITLE "We're Stronger Than That"
    PERFORMER "Amy Rigby"
    FLAGS DCP
    INDEX 00 03:21:51
FILE "09 We're Stronger Than That.wav" WAVE
    INDEX 01 00:00:00
  TRACK 10 AUDIO
    TITLE "Time For Me To Come Down"
    PERFORMER "Amy Rigby"
    FLAGS DCP
    INDEX 00 02:49:02
FILE "10 Time For Me To Come Down.wav" WAVE
    INDEX 01 00:00:00
  TRACK 11 AUDIO
    TITLE "Raising the Bar"
    PERFORMER "Amy Rigby"
    FLAGS DCP
    INDEX 00 04:04:28
FILE "11 Raising the Bar.wav" WAVE
    INDEX 01 00:00:00
  TRACK 12 AUDIO
    TITLE "What I Need"
    PERFORMER "Amy Rigby"
    FLAGS DCP
    INDEX 00 03:01:18
FILE "12 What I Need.wav" WAVE
    INDEX 01 00:00:00
  TRACK 13 AUDIO
    TITLE "The Good Girls"
    PERFORMER "Amy Rigby"
    FLAGS DCP
    INDEX 00 03:52:48
FILE "13 The Good Girls.wav" WAVE
    INDEX 01 00:00:00
  TRACK 14 AUDIO
    TITLE "Knapsack"
    PERFORMER "Amy Rigby"
    FLAGS DCP
    INDEX 00 03:23:69
FILE "14 Knapsack.wav" WAVE
    INDEX 01 00:00:00
  TRACK 15 AUDIO
    TITLE "Invisible"
    PERFORMER "Amy Rigby"
    FLAGS DCP
    INDEX 00 02:53:37
FILE "15 Invisible.wav" WAVE
    INDEX 01 00:00:00
  TRACK 16 AUDIO
    TITLE "Rode Hard"
    PERFORMER "Amy Rigby"
    FLAGS DCP
    INDEX 00 04:07:04
FILE "16 Rode Hard.wav" WAVE
    INDEX 01 00:00:00
  TRACK 17 AUDIO
    TITLE "If You Won't Hang Around"
    PERFORMER "Amy Rigby"
    FLAGS DCP
    INDEX 00 04:20:60
FILE "17 If You Won't Hang Around.wav" WAVE
    INDEX 01 00:00:00
  TRACK 18 AUDIO
    TITLE "Magicians"
    PERFORMER "Amy Rigby"
    FLAGS DCP
    INDEX 00 03:15:60
FILE "18 Magicians.wav" WAVE
    INDEX 01 00:00:00
#777Страна-производитель диска: US
Год первого выпуска: 2003
Год настоящего издания: 2003
Издатель (лейбл): Signature Sounds
Номер по каталогу: SIG1277
Format: CD, Album
Аудиокодек: FLAC (*.flac)
Тип рипа: tracks+.cue
Битрейт аудио: lossless
Продолжительность: 00:52:00
Источник (релизер): What.CD
Наличие сканов в содержимом раздачи: да
Треклист:
01. Why Do I (04:26)
02. Til the Wheels Fall Off (03:29)
03. Shopping Around (04:13)
04. Don't Ever Change (03:38)
05. Are We Ever Gonna Have Sex Again? (02:52)
06. The Deal (03:49)
07. O'Hare (04:11)
08. How People Are (04:53)
09. Even the Weak Survive (03:54)
10. Last Request (02:04)
11. Here We Go Again (03:24)
12. Breakup Boots (03:21)
13. Believe in You (03:25)
14. All the Way to Heaven (04:15)
Код:
Exact Audio Copy V1.0 beta 1 from 15. November 2010
EAC extraction logfile from 13. April 2011, 5:50
Amy Rigby / Til The Wheels Fall Off
Used drive  : ASUS    DRW-24B1LT   Adapter: 0  ID: 1
Read mode               : Secure
Utilize accurate stream : Yes
Defeat audio cache      : Yes
Make use of C2 pointers : No
Read offset correction                      : 6
Overread into Lead-In and Lead-Out          : No
Fill up missing offset samples with silence : Yes
Delete leading and trailing silent blocks   : No
Null samples used in CRC calculations       : Yes
Used interface                              : Native Win32 interface for Win NT & 2000
Gap handling                                : Appended to previous track
Used output format              : User Defined Encoder
Selected bitrate                : 768 kBit/s
Quality                         : High
Add ID3 tag                     : No
Command line compressor         : F:\Exact Audio Copy\FLAC\flac.exe
Additional command line options : -V -8 -T "artist=%a" -T "title=%t" -T "album=%g" -T
"date=%y" -T "tracknumber=%n" -T "genre=%m" %s
TOC of the extracted CD
     Track |   Start  |  Length  | Start sector | End sector
    ---------------------------------------------------------
        1  |  0:00.00 |  4:26.23 |         0    |    19972
        2  |  4:26.23 |  3:29.16 |     19973    |    35663
        3  |  7:55.39 |  4:13.00 |     35664    |    54638
        4  | 12:08.39 |  3:38.69 |     54639    |    71057
        5  | 15:47.33 |  2:52.50 |     71058    |    84007
        6  | 18:40.08 |  3:49.65 |     84008    |   101247
        7  | 22:29.73 |  4:11.35 |    101248    |   120107
        8  | 26:41.33 |  4:53.16 |    120108    |   142098
        9  | 31:34.49 |  3:54.48 |    142099    |   159696
       10  | 35:29.22 |  2:04.29 |    159697    |   169025
       11  | 37:33.51 |  3:24.22 |    169026    |   184347
       12  | 40:57.73 |  3:21.30 |    184348    |   199452
       13  | 44:19.28 |  3:25.54 |    199453    |   214881
       14  | 47:45.07 |  4:15.62 |    214882    |   234068
Track  1
     Filename G:\demonoid\Amy Rigby - 2003 - Til The Wheels Fall Off\01 - Why Do I
.wav
     Pre-gap length  0:00:02.00
     Peak level 91.2 %
     Extraction speed 3.2 X
     Track quality 99.9 %
     Test CRC 3E8C9746
     Copy CRC 3E8C9746
     Accurately ripped (confidence 6)  [7DFFD3E7]
     Copy OK
Track  2
     Filename G:\demonoid\Amy Rigby - 2003 - Til The Wheels Fall Off\02 - Til The
Wheels Fall Off .wav
     Pre-gap length  0:00:00.46
     Peak level 79.4 %
     Extraction speed 3.2 X
     Track quality 99.9 %
     Test CRC 44BE5963
     Copy CRC 44BE5963
     Accurately ripped (confidence 6)  [C21C03F5]
     Copy OK
Track  3
     Filename G:\demonoid\Amy Rigby - 2003 - Til The Wheels Fall Off\03 - Shopping
Around .wav
     Pre-gap length  0:00:02.25
     Peak level 91.2 %
     Extraction speed 3.7 X
     Track quality 99.9 %
     Test CRC 04E79DB7
     Copy CRC 04E79DB7
     Accurately ripped (confidence 6)  [8E8B91EB]
     Copy OK
Track  4
     Filename G:\demonoid\Amy Rigby - 2003 - Til The Wheels Fall Off\04 - Don't Ever
Change .wav
     Pre-gap length  0:00:03.01
     Peak level 82.2 %
     Extraction speed 4.9 X
     Track quality 100.0 %
     Test CRC 63AA476D
     Copy CRC 63AA476D
     Accurately ripped (confidence 6)  [91053B26]
     Copy OK
Track  5
     Filename G:\demonoid\Amy Rigby - 2003 - Til The Wheels Fall Off\05 - Are We Gonna
Ever Gonna Have Sex Again .wav
     Pre-gap length  0:00:00.85
     Peak level 85.1 %
     Extraction speed 3.6 X
     Track quality 99.9 %
     Test CRC 0111BCA8
     Copy CRC 0111BCA8
     Accurately ripped (confidence 6)  [A9692DB8]
     Copy OK
Track  6
     Filename G:\demonoid\Amy Rigby - 2003 - Til The Wheels Fall Off\06 - The Deal
.wav
     Pre-gap length  0:00:03.60
     Peak level 91.2 %
     Extraction speed 5.4 X
     Track quality 100.0 %
     Test CRC 423A827E
     Copy CRC 423A827E
     Accurately ripped (confidence 6)  [153B2AD8]
     Copy OK
Track  7
     Filename G:\demonoid\Amy Rigby - 2003 - Til The Wheels Fall Off\07 - O'Hare .wav
     Pre-gap length  0:00:01.74
     Peak level 85.1 %
     Extraction speed 5.7 X
     Track quality 100.0 %
     Test CRC 37EF6AC4
     Copy CRC 37EF6AC4
     Accurately ripped (confidence 6)  [19B2F8CC]
     Copy OK
Track  8
     Filename G:\demonoid\Amy Rigby - 2003 - Til The Wheels Fall Off\08 - How People
Are .wav
     Pre-gap length  0:00:00.66
     Peak level 91.2 %
     Extraction speed 4.5 X
     Track quality 99.9 %
     Test CRC E5B5B8CB
     Copy CRC E5B5B8CB
     Accurately ripped (confidence 6)  [F7E04FB2]
     Copy OK
Track  9
     Filename G:\demonoid\Amy Rigby - 2003 - Til The Wheels Fall Off\09 - Event The
Weak Survive .wav
     Pre-gap length  0:00:01.62
     Peak level 88.1 %
     Extraction speed 6.2 X
     Track quality 100.0 %
     Test CRC AE2527DE
     Copy CRC AE2527DE
     Accurately ripped (confidence 6)  [0E9E336B]
     Copy OK
Track 10
     Filename G:\demonoid\Amy Rigby - 2003 - Til The Wheels Fall Off\10 - Last Request
.wav
     Pre-gap length  0:00:02.14
     Peak level 91.2 %
     Extraction speed 5.7 X
     Track quality 100.0 %
     Test CRC 22B6921F
     Copy CRC 22B6921F
     Accurately ripped (confidence 6)  [7796A3ED]
     Copy OK
Track 11
     Filename G:\demonoid\Amy Rigby - 2003 - Til The Wheels Fall Off\11 - Here We Go
Again .wav
     Pre-gap length  0:00:01.81
     Peak level 91.2 %
     Extraction speed 6.4 X
     Track quality 100.0 %
     Test CRC A543161A
     Copy CRC A543161A
     Accurately ripped (confidence 6)  [2A7E2367]
     Copy OK
Track 12
     Filename G:\demonoid\Amy Rigby - 2003 - Til The Wheels Fall Off\12 - Breakup
Boots .wav
     Pre-gap length  0:00:02.14
     Peak level 82.2 %
     Extraction speed 6.6 X
     Track quality 100.0 %
     Test CRC 2F95D9BF
     Copy CRC 2F95D9BF
     Accurately ripped (confidence 6)  [C5C996A8]
     Copy OK
Track 13
     Filename G:\demonoid\Amy Rigby - 2003 - Til The Wheels Fall Off\13 - Believe in
You .wav
     Pre-gap length  0:00:00.66
     Peak level 88.1 %
     Extraction speed 6.7 X
     Track quality 100.0 %
     Test CRC FC17B331
     Copy CRC FC17B331
     Accurately ripped (confidence 5)  [DB4D5181]
     Copy OK
Track 14
     Filename G:\demonoid\Amy Rigby - 2003 - Til The Wheels Fall Off\14 - All The Way
To Heaven .wav
     Pre-gap length  0:00:02.66
     Peak level 78.5 %
     Extraction speed 7.2 X
     Track quality 100.0 %
     Test CRC FBBAFAC7
     Copy CRC FBBAFAC7
     Accurately ripped (confidence 5)  [F35D95AA]
     Copy OK
All tracks accurately ripped
No errors occurred
End of status report
==== Log checksum E8D0AA7C593261C4D8BCD3BB23DA354922AE53A72E70A7D6339AE3F0E6CB1AE4
====
Код:
REM GENRE "Alt Country"
REM DATE 2003
REM DISCID C50C300E
REM COMMENT "ExactAudioCopy v1.0b1"
PERFORMER "Amy Rigby"
TITLE "Til The Wheels Fall Off"
FILE "01 - Why Do I .wav" WAVE
  TRACK 01 AUDIO
    TITLE "Why Do I"
    PERFORMER "Amy Rigby"
    FLAGS DCP
    INDEX 01 00:00:00
  TRACK 02 AUDIO
    TITLE "Til The Wheels Fall Off"
    PERFORMER "Amy Rigby"
    FLAGS DCP
    INDEX 00 04:25:63
FILE "02 - Til The Wheels Fall Off .wav" WAVE
    INDEX 01 00:00:00
  TRACK 03 AUDIO
    TITLE "Shopping Around"
    PERFORMER "Amy Rigby"
    FLAGS DCP
    INDEX 00 03:26:72
FILE "03 - Shopping Around .wav" WAVE
    INDEX 01 00:00:00
  TRACK 04 AUDIO
    TITLE "Don't Ever Change"
    PERFORMER "Amy Rigby"
    FLAGS DCP
    INDEX 00 04:09:74
FILE "04 - Don't Ever Change .wav" WAVE
    INDEX 01 00:00:00
  TRACK 05 AUDIO
    TITLE "Are We Gonna Ever Gonna Have Sex Again?"
    PERFORMER "Amy Rigby"
    FLAGS DCP
    INDEX 00 03:38:05
FILE "05 - Are We Gonna Ever Gonna Have Sex Again .wav" WAVE
    INDEX 01 00:00:00
  TRACK 06 AUDIO
    TITLE "The Deal"
    PERFORMER "Amy Rigby"
    FLAGS DCP
    INDEX 00 02:49:05
FILE "06 - The Deal .wav" WAVE
    INDEX 01 00:00:00
  TRACK 07 AUDIO
    TITLE "O'Hare"
    PERFORMER "Amy Rigby"
    FLAGS DCP
    INDEX 00 03:48:09
FILE "07 - O'Hare .wav" WAVE
    INDEX 01 00:00:00
  TRACK 08 AUDIO
    TITLE "How People Are"
    PERFORMER "Amy Rigby"
    FLAGS DCP
    INDEX 00 04:10:60
FILE "08 - How People Are .wav" WAVE
    INDEX 01 00:00:00
  TRACK 09 AUDIO
    TITLE "Event The Weak Survive"
    PERFORMER "Amy Rigby"
    FLAGS DCP
    INDEX 00 04:51:44
FILE "09 - Event The Weak Survive .wav" WAVE
    INDEX 01 00:00:00
  TRACK 10 AUDIO
    TITLE "Last Request"
    PERFORMER "Amy Rigby"
    FLAGS DCP
    INDEX 00 03:52:37
FILE "10 - Last Request .wav" WAVE
    INDEX 01 00:00:00
  TRACK 11 AUDIO
    TITLE "Here We Go Again"
    PERFORMER "Amy Rigby"
    FLAGS DCP
    INDEX 00 02:02:43
FILE "11 - Here We Go Again .wav" WAVE
    INDEX 01 00:00:00
  TRACK 12 AUDIO
    TITLE "Breakup Boots"
    PERFORMER "Amy Rigby"
    FLAGS DCP
    INDEX 00 03:22:11
FILE "12 - Breakup Boots .wav" WAVE
    INDEX 01 00:00:00
  TRACK 13 AUDIO
    TITLE "Believe in You"
    PERFORMER "Amy Rigby"
    FLAGS DCP
    INDEX 00 03:20:55
FILE "13 - Believe in You .wav" WAVE
    INDEX 01 00:00:00
  TRACK 14 AUDIO
    TITLE "All The Way To Heaven"
    PERFORMER "Amy Rigby"
    FLAGS DCP
    INDEX 00 03:23:04
FILE "14 - All The Way To Heaven .wav" WAVE
    INDEX 01 00:00:00
Доп. информация: Американская певица, автор и исполнитель своих песен. Исполняет вполне приемлемые рок-баллады. В отдельных песнях напомнила Suzi Quattro, но в медленном ритме. Рекомендую прослушать, т.к. этот исполнительница пока мало известна на трекере.

Solo albums
1996. Diary of a Mod Housewife
1998. Middlescence
2000. The Sugar Tree
2002. 18 Again - An Anthology
2003. Til The Wheels Fall Off
2004. Faulkner, Dylan, Heinz and Me
2005. Little Fugitive
With Wreckless Eric
2008. Wreckless Eric & Amy Rigby
2010. Two-Way Family Favourites
2012. A Working Museum
Правила, инструкции, FAQ!!!
Торрент  Добавлен [26 мар 2019, 19:34] Скачать торрент Магнет ссылка
Скачать торрент
[ Размер 17.48 КБ / Просмотров 0 ]

Статус
Проверен 
 
Размер  1.01 ГБ
Приватный: Нет (DHT включён)
.torrent скачан  0
 


     Отправить личное сообщение
   
Страница 1 из 1
Показать сообщения за:  Поле сортировки  
Начать новую тему Ответить на тему


Сейчас этот форум просматривают: нет зарегистрированных пользователей и гости: 0


Вы не можете начинать темы
Вы не можете отвечать на сообщения
Вы не можете редактировать свои сообщения
Вы не можете удалять свои сообщения
Вы не можете добавлять вложения

Перейти:  
cron