Начать новую тему Ответить на тему
Статистика раздачи
Размер: 279.63 МБ | Добавлен: 26 мар 2019, 18:48 | Скачали: 0
Сидеров: 1  [0 байт/сек]    Личеров: 0  [0 байт/сек]
Пред. тема | След. тема 

Автор
Сообщение

СообщениеДобавлено: 26 мар 2019, 18:48 

Ответить с цитатой 

Amy Hef / AH
Жанр: Pop-Rock
Носитель: CD
Страна-производитель диска (релиза): Canada
Год издания: 2013
Издатель (лейбл): Gotham Records
Номер по каталогу: AH00069
Аудиокодек: FLAC (*.flac)
Тип рипа: tracks+.cue
Битрейт аудио: lossless
Продолжительность: 0:35:51.
Источник (релизер): clustert
Наличие сканов в содержимом раздачи: да
Треклист:
01. This Thing Between Us [0:03:26.48]
02. Lay Down With Me [0:03:05.07]
03. Creepin me out [0:03:18.49]
04. I Can't Wait [0:03:11.36]
05. Perfect [0:03:12.56]
06. Dumb It Down [0:03:31.64]
07. Don't [0:03:35.06]
08. Dance Ourselves Sober [0:03:05.05]
09. Ignorant Pig [0:03:08.11]
10. Still In Love [0:03:15.49]
11. Being Awesome [0:03:01.01]
Код:
Exact Audio Copy V1.0 beta 3 from 29. August 2011
Отчёт EAC об извлечении, выполненном 20. июня 2017, 19:09
 Amy Hef    / AH
Дисковод: ASUS    DRW-1814BLT   Adapter: 4  ID: 0
Режим чтения                 : Достоверность
Использование точного потока : Да
Отключение кэша аудио        : Да
Использование указателей C2  : Нет
Коррекция смещения при чтении                     : 6
Способность читать области Lead-in и Lead-out     : Нет
Заполнение пропущенных сэмплов тишиной            : Да
Удаление блоков с тишиной в начале и конце        : Нет
При вычислениях CRC использовались нулевые сэмплы : Да
Интерфейс                                         : Встроенный Win32-интерфейс для Win NT/2000
Обработка зазоров                                 : Добавлено к предыдущему треку
Выходной формат          : Пользовательский кодировщик
Выбранный битрейт        : 128 kBit/s
Качество                 : Высокий
Добавление ID3-тега      : Нет
Утилита сжатия           : C:\Program Files\Exact Audio Copy\Flac\flac.exe
Дополнительные параметры :  -V -8 -T "Genre=%genre%" -T "Artist=%artist%" -T "Title=%title%" -T "Album=%albumtitle%" -T "Date=%year%" -T "Tracknumber=%tracknr%" -T "Comment=EAC1.0b2 FLAC -8" %source%
TOC извлечённого CD
     Трек |   Старт  | Длительность | Начальный сектор | Конечный сектор
    ---------------------------------------------------------------------
       1  |  0:00.00 |    3:26.48   |           0      |      15497
       2  |  3:26.48 |    3:05.07   |       15498      |      29379
       3  |  6:31.55 |    3:18.49   |       29380      |      44278
       4  |  9:50.29 |    3:11.36   |       44279      |      58639
       5  | 13:01.65 |    3:12.56   |       58640      |      73095
       6  | 16:14.46 |    3:31.64   |       73096      |      88984
       7  | 19:46.35 |    3:35.06   |       88985      |     105115
       8  | 23:21.41 |    3:05.05   |      105116      |     118995
       9  | 26:26.46 |    3:08.11   |      118996      |     133106
      10  | 29:34.57 |    3:15.49   |      133107      |     147780
      11  | 32:50.31 |    3:01.01   |      147781      |     161356
Трек  1
     Имя файла R:\Раздача 74\Amy Hef - 2013 - AH\01 This Thing Between Us .wav
     Длина предзазора  0:00:02.00
     Пиковый уровень 100.0 %
     Скорость извлечения 4.9 X
     Качество трека 100.0 %
     CRC теста DCA327DF
     CRC копии DCA327DF
     Трек не обнаружен в базе AccurateRip
     Копирование... OK
Трек  2
     Имя файла R:\Раздача 74\Amy Hef - 2013 - AH\02 Lay Down With Me .wav
     Длина предзазора  0:00:00.37
     Пиковый уровень 100.0 %
     Скорость извлечения 5.3 X
     Качество трека 100.0 %
     CRC теста 2041D217
     CRC копии 2041D217
     Трек не обнаружен в базе AccurateRip
     Копирование... OK
Трек  3
     Имя файла R:\Раздача 74\Amy Hef - 2013 - AH\03 Creepin me out .wav
     Длина предзазора  0:00:00.37
     Пиковый уровень 100.0 %
     Скорость извлечения 5.8 X
     Качество трека 100.0 %
     CRC теста B94303B6
     CRC копии B94303B6
     Трек не обнаружен в базе AccurateRip
     Копирование... OK
Трек  4
     Имя файла R:\Раздача 74\Amy Hef - 2013 - AH\04 I Can't Wait .wav
     Длина предзазора  0:00:00.37
     Пиковый уровень 100.0 %
     Скорость извлечения 6.1 X
     Качество трека 100.0 %
     CRC теста D692C8C4
     CRC копии D692C8C4
     Трек не обнаружен в базе AccurateRip
     Копирование... OK
Трек  5
     Имя файла R:\Раздача 74\Amy Hef - 2013 - AH\05 Perfect .wav
     Длина предзазора  0:00:00.37
     Пиковый уровень 100.0 %
     Скорость извлечения 6.4 X
     Качество трека 100.0 %
     CRC теста B21B7F83
     CRC копии B21B7F83
     Трек не обнаружен в базе AccurateRip
     Копирование... OK
Трек  6
     Имя файла R:\Раздача 74\Amy Hef - 2013 - AH\06 Dumb It Down .wav
     Длина предзазора  0:00:00.37
     Пиковый уровень 100.0 %
     Скорость извлечения 6.9 X
     Качество трека 100.0 %
     CRC теста D229DF36
     CRC копии D229DF36
     Трек не обнаружен в базе AccurateRip
     Копирование... OK
Трек  7
     Имя файла R:\Раздача 74\Amy Hef - 2013 - AH\07 Don't .wav
     Длина предзазора  0:00:00.37
     Пиковый уровень 100.0 %
     Скорость извлечения 7.2 X
     Качество трека 100.0 %
     CRC теста 883A1DB6
     CRC копии 883A1DB6
     Трек не обнаружен в базе AccurateRip
     Копирование... OK
Трек  8
     Имя файла R:\Раздача 74\Amy Hef - 2013 - AH\08 Dance Ourselves Sober .wav
     Длина предзазора  0:00:00.37
     Пиковый уровень 100.0 %
     Скорость извлечения 7.4 X
     Качество трека 100.0 %
     CRC теста CFE4B07B
     CRC копии CFE4B07B
     Трек не обнаружен в базе AccurateRip
     Копирование... OK
Трек  9
     Имя файла R:\Раздача 74\Amy Hef - 2013 - AH\09 Ignorant Pig .wav
     Длина предзазора  0:00:00.37
     Пиковый уровень 100.0 %
     Скорость извлечения 7.6 X
     Качество трека 100.0 %
     CRC теста 8928FEA5
     CRC копии 8928FEA5
     Трек не обнаружен в базе AccurateRip
     Копирование... OK
Трек 10
     Имя файла R:\Раздача 74\Amy Hef - 2013 - AH\10 Still In Love .wav
     Длина предзазора  0:00:00.37
     Пиковый уровень 100.0 %
     Скорость извлечения 7.9 X
     Качество трека 100.0 %
     CRC теста F988221F
     CRC копии F988221F
     Трек не обнаружен в базе AccurateRip
     Копирование... OK
Трек 11
     Имя файла R:\Раздача 74\Amy Hef - 2013 - AH\11 Being Awesome .wav
     Длина предзазора  0:00:00.37
     Пиковый уровень 100.0 %
     Скорость извлечения 7.7 X
     Качество трека 100.0 %
     CRC теста 414A2B2D
     CRC копии 414A2B2D
     Трек не обнаружен в базе AccurateRip
     Копирование... OK
Ни одного трека нет в базе AccurateRip
Ошибок не произошло
Конец отчёта
==== Контрольная сумма отчёта 2C33E9CD29C2944E17774521924FAB00655699581375BB8AA8110EBD0424BE2A ====
Код:
REM GENRE Pop
REM DATE 2013
REM DISCID AB08670B
REM COMMENT "ExactAudioCopy v1.0b3"
PERFORMER " Amy Hef   "
TITLE "AH"
FILE "01 This Thing Between Us .wav" WAVE
  TRACK 01 AUDIO
    TITLE "This Thing Between Us"
    PERFORMER " Amy Hef   "
    INDEX 01 00:00:00
  TRACK 02 AUDIO
    TITLE "Lay Down With Me"
    PERFORMER " Amy Hef   "
    INDEX 00 03:26:11
FILE "02 Lay Down With Me .wav" WAVE
    INDEX 01 00:00:00
  TRACK 03 AUDIO
    TITLE "Creepin me out"
    PERFORMER " Amy Hef   "
    INDEX 00 03:04:45
FILE "03 Creepin me out .wav" WAVE
    INDEX 01 00:00:00
  TRACK 04 AUDIO
    TITLE "I Can't Wait"
    PERFORMER " Amy Hef   "
    INDEX 00 03:18:12
FILE "04 I Can't Wait .wav" WAVE
    INDEX 01 00:00:00
  TRACK 05 AUDIO
    TITLE "Perfect"
    PERFORMER " Amy Hef   "
    INDEX 00 03:10:74
FILE "05 Perfect .wav" WAVE
    INDEX 01 00:00:00
  TRACK 06 AUDIO
    TITLE "Dumb It Down"
    PERFORMER " Amy Hef   "
    INDEX 00 03:12:19
FILE "06 Dumb It Down .wav" WAVE
    INDEX 01 00:00:00
  TRACK 07 AUDIO
    TITLE "Don't"
    PERFORMER " Amy Hef   "
    INDEX 00 03:31:27
FILE "07 Don't .wav" WAVE
    INDEX 01 00:00:00
  TRACK 08 AUDIO
    TITLE "Dance Ourselves Sober "
    PERFORMER " Amy Hef   "
    INDEX 00 03:34:44
FILE "08 Dance Ourselves Sober .wav" WAVE
    INDEX 01 00:00:00
  TRACK 09 AUDIO
    TITLE "Ignorant Pig"
    PERFORMER " Amy Hef   "
    INDEX 00 03:04:43
FILE "09 Ignorant Pig .wav" WAVE
    INDEX 01 00:00:00
  TRACK 10 AUDIO
    TITLE "Still In Love"
    PERFORMER " Amy Hef   "
    INDEX 00 03:07:49
FILE "10 Still In Love .wav" WAVE
    INDEX 01 00:00:00
  TRACK 11 AUDIO
    TITLE "Being Awesome"
    PERFORMER " Amy Hef   "
    INDEX 00 03:15:12
FILE "11 Being Awesome .wav" WAVE
    INDEX 01 00:00:00
Правила, инструкции, FAQ!!!
Торрент  Добавлен [26 мар 2019, 18:48] Скачать торрент Магнет ссылка
Скачать торрент
[ Размер 12.33 КБ / Просмотров 0 ]

Статус
Проверен 
 
Размер  279.63 МБ
Приватный: Нет (DHT включён)
.torrent скачан  0
 


     Отправить личное сообщение
   
Страница 1 из 1
Показать сообщения за:  Поле сортировки  
Начать новую тему Ответить на тему


Сейчас этот форум просматривают: нет зарегистрированных пользователей и гости: 0


Вы не можете начинать темы
Вы не можете отвечать на сообщения
Вы не можете редактировать свои сообщения
Вы не можете удалять свои сообщения
Вы не можете добавлять вложения

Перейти:  
cron