Начать новую тему Ответить на тему
Статистика раздачи
Размер: 279.29 МБ | Добавлен: 26 мар 2019, 18:41 | Скачали: 0
Сидеров: 0  [0 байт/сек]    Личеров: 0  [0 байт/сек]
Пред. тема | След. тема 

Автор
Сообщение

СообщениеДобавлено: 26 мар 2019, 18:41 

Ответить с цитатой 

Amie Miriello - I Came Around
Жанр: Pop-Rock
Год издания диска: 2008
Страна: USA
Аудио кодек: FLAC (*.flac)
Тип рипа: tracks+.cue
Битрейт аудио: lossless
Продолжительность: 00:42:02
Источник (релизер): what.cd (SixthStreet)
Наличие сканов в содержимом раздачи: нет
Треклист:
01. I Came Around (4:03)
02. Pictures (3:44)
03. Coldfront (3:35)
04. Brand New (3:37)
05. Snow (3:51)
06. Gray (4:26)
07. Beauty Of Goodbye (3:36)
08. Mother Cries Wolf (3:20)
09. Who You Really Are (3:45)
10. Drifter (3:34)
11. Hey (4:33)
Код:
Exact Audio Copy V0.99 prebeta 5 from 4. May 2009
EAC extraction logfile from 7. October 2009, 19:31
Amie Miriello / I Came Around
Used drive  : TSSTcorpCDDVDW SH-S203N   Adapter: 1  ID: 0
Read mode               : Secure
Utilize accurate stream : Yes
Defeat audio cache      : Yes
Make use of C2 pointers : No
Read offset correction                      : 6
Overread into Lead-In and Lead-Out          : No
Fill up missing offset samples with silence : Yes
Delete leading and trailing silent blocks   : No
Null samples used in CRC calculations       : Yes
Used interface                              : Native Win32 interface for Win NT & 2000
Gap handling                                : Appended to previous track
Used output format              : User Defined Encoder
Selected bitrate                : 128 kBit/s
Quality                         : High
Add ID3 tag                     : No
Command line compressor         : C:\Program Files\Exact Audio Copy\Flac\flac.exe
Additional command line options : -V -8 -T "artist=%a" -T "title=%t" -T "album=%g" -T "date=%y" -T "tracknumber=%n" -T "genre=%m" %s
TOC of the extracted CD
     Track |   Start  |  Length  | Start sector | End sector
    ---------------------------------------------------------
        1  |  0:00.00 |  4:03.06 |         0    |    18230
        2  |  4:03.06 |  3:43.61 |     18231    |    35016
        3  |  7:46.67 |  3:34.47 |     35017    |    51113
        4  | 11:21.39 |  3:36.47 |     51114    |    67360
        5  | 14:58.11 |  3:51.29 |     67361    |    84714
        6  | 18:49.40 |  4:26.35 |     84715    |   104699
        7  | 23:16.00 |  3:35.40 |    104700    |   120864
        8  | 26:51.40 |  3:20.04 |    120865    |   135868
        9  | 30:11.44 |  3:44.59 |    135869    |   152727
       10  | 33:56.28 |  3:33.74 |    152728    |   168776
       11  | 37:30.27 |  4:32.44 |    168777    |   189220
Track  1
     Filename C:\EAC\Amie Miriello - I Came Around\01 - I Came Around.wav
     Pre-gap length  0:00:02.00
     Peak level 99.8 %
     Track quality 99.9 %
     Test CRC 52729662
     Copy CRC 52729662
     Track not present in AccurateRip database
     Copy OK
Track  2
     Filename C:\EAC\Amie Miriello - I Came Around\02 - Pictures.wav
     Peak level 99.8 %
     Track quality 99.9 %
     Test CRC 1075D6E0
     Copy CRC 1075D6E0
     Track not present in AccurateRip database
     Copy OK
Track  3
     Filename C:\EAC\Amie Miriello - I Came Around\03 - Coldfront.wav
     Peak level 99.8 %
     Track quality 100.0 %
     Test CRC 269E3994
     Copy CRC 269E3994
     Track not present in AccurateRip database
     Copy OK
Track  4
     Filename C:\EAC\Amie Miriello - I Came Around\04 - Brand New.wav
     Peak level 99.8 %
     Track quality 100.0 %
     Test CRC B5C5A107
     Copy CRC B5C5A107
     Track not present in AccurateRip database
     Copy OK
Track  5
     Filename C:\EAC\Amie Miriello - I Came Around\05 - Snow.wav
     Peak level 99.8 %
     Track quality 100.0 %
     Test CRC 49C168EA
     Copy CRC 49C168EA
     Track not present in AccurateRip database
     Copy OK
Track  6
     Filename C:\EAC\Amie Miriello - I Came Around\06 - Gray.wav
     Peak level 99.8 %
     Track quality 100.0 %
     Test CRC DE13D655
     Copy CRC DE13D655
     Track not present in AccurateRip database
     Copy OK
Track  7
     Filename C:\EAC\Amie Miriello - I Came Around\07 - Beauty Of Goodbye.wav
     Peak level 99.8 %
     Track quality 99.9 %
     Test CRC 0E740E9F
     Copy CRC 0E740E9F
     Track not present in AccurateRip database
     Copy OK
Track  8
     Filename C:\EAC\Amie Miriello - I Came Around\08 - Mother Cries Wolf.wav
     Peak level 99.8 %
     Track quality 100.0 %
     Test CRC 02BBAD58
     Copy CRC 02BBAD58
     Track not present in AccurateRip database
     Copy OK
Track  9
     Filename C:\EAC\Amie Miriello - I Came Around\09 - Who You Really Are.wav
     Peak level 94.2 %
     Track quality 99.9 %
     Test CRC 3EE3EDF3
     Copy CRC 3EE3EDF3
     Track not present in AccurateRip database
     Copy OK
Track 10
     Filename C:\EAC\Amie Miriello - I Came Around\10 - Drifter.wav
     Peak level 99.8 %
     Track quality 100.0 %
     Test CRC 23073946
     Copy CRC 23073946
     Track not present in AccurateRip database
     Copy OK
Track 11
     Filename C:\EAC\Amie Miriello - I Came Around\11 - Hey.wav
     Pre-gap length  0:00:01.81
     Peak level 99.8 %
     Track quality 100.0 %
     Test CRC B3DB4B80
     Copy CRC B3DB4B80
     Track not present in AccurateRip database
     Copy OK
None of the tracks are present in the AccurateRip database
No errors occurred
End of status report
Код:
REM GENRE Pop
REM DATE 2008
REM DISCID 8409DA0B
REM COMMENT "ExactAudioCopy v0.99pb5"
FILE "01 - I Came Around.wav" WAVE
  TRACK 01 AUDIO
    INDEX 01 00:00:00
FILE "02 - Pictures.wav" WAVE
  TRACK 02 AUDIO
    INDEX 01 00:00:00
FILE "03 - Coldfront.wav" WAVE
  TRACK 03 AUDIO
    INDEX 01 00:00:00
FILE "04 - Brand New.wav" WAVE
  TRACK 04 AUDIO
    INDEX 01 00:00:00
FILE "05 - Snow.wav" WAVE
  TRACK 05 AUDIO
    INDEX 01 00:00:00
FILE "06 - Gray.wav" WAVE
  TRACK 06 AUDIO
    INDEX 01 00:00:00
FILE "07 - Beauty Of Goodbye.wav" WAVE
  TRACK 07 AUDIO
    INDEX 01 00:00:00
FILE "08 - Mother Cries Wolf.wav" WAVE
  TRACK 08 AUDIO
    INDEX 01 00:00:00
FILE "09 - Who You Really Are.wav" WAVE
  TRACK 09 AUDIO
    INDEX 01 00:00:00
FILE "10 - Drifter.wav" WAVE
  TRACK 10 AUDIO
    INDEX 01 00:00:00
  TRACK 11 AUDIO
    INDEX 00 03:32:13
FILE "11 - Hey.wav" WAVE
    INDEX 01 00:00:00
Код:
AUDIOCHECKER v2.0 beta (build 457) - by Dester - opdester@freemail.hu
~~~~~~~~~~~~~~~~~~~~~~~~~~~~~~~~~~
Started at: понедельник, 18. 04. 2011. - 19:40.30
11 files found
01 -===- G:\Music\Amie Miriello - I Came Around\01 - I Came Around.flac
  Extracted successfully
  Conclusion: this track is CDDA with probability 99%
  Tempfile successfully deleted.
02 -===- G:\Music\Amie Miriello - I Came Around\02 - Pictures.flac
  Extracted successfully
  Conclusion: this track is CDDA with probability 100%
  Tempfile successfully deleted.
03 -===- G:\Music\Amie Miriello - I Came Around\03 - Coldfront.flac
  Extracted successfully
  Conclusion: this track is CDDA with probability 99%
  Tempfile successfully deleted.
04 -===- G:\Music\Amie Miriello - I Came Around\04 - Brand New.flac
  Extracted successfully
  Conclusion: this track is CDDA with probability 99%
  Tempfile successfully deleted.
05 -===- G:\Music\Amie Miriello - I Came Around\05 - Snow.flac
  Extracted successfully
  Conclusion: this track is CDDA with probability 100%
  Tempfile successfully deleted.
06 -===- G:\Music\Amie Miriello - I Came Around\06 - Gray.flac
  Extracted successfully
  Conclusion: this track is CDDA with probability 100%
  Tempfile successfully deleted.
07 -===- G:\Music\Amie Miriello - I Came Around\07 - Beauty Of Goodbye.flac
  Extracted successfully
  Conclusion: this track is CDDA with probability 100%
  Tempfile successfully deleted.
08 -===- G:\Music\Amie Miriello - I Came Around\08 - Mother Cries Wolf.flac
  Extracted successfully
  Conclusion: this track is CDDA with probability 99%
  Tempfile successfully deleted.
09 -===- G:\Music\Amie Miriello - I Came Around\09 - Who You Really Are.flac
  Extracted successfully
  Conclusion: this track is CDDA with probability 99%
  Tempfile successfully deleted.
10 -===- G:\Music\Amie Miriello - I Came Around\10 - Drifter.flac
  Extracted successfully
  Conclusion: this track is CDDA with probability 100%
  Tempfile successfully deleted.
11 -===- G:\Music\Amie Miriello - I Came Around\11 - Hey.flac
  Extracted successfully
  Conclusion: this track is CDDA with probability 100%
  Tempfile successfully deleted.
Finished at: понедельник, 18. 04. 2011. - 19:57.13 (operation time: 0:16.42)
Правила, инструкции, FAQ!!!
Торрент  Добавлен [26 мар 2019, 18:41] Скачать торрент Магнет ссылка
Скачать торрент
[ Размер 23.65 КБ / Просмотров 2 ]

Статус
Проверен 
 
Размер  279.29 МБ
Приватный: Нет (DHT включён)
.torrent скачан  0
 


     Отправить личное сообщение
   
Страница 1 из 1
Показать сообщения за:  Поле сортировки  
Начать новую тему Ответить на тему


Сейчас этот форум просматривают: нет зарегистрированных пользователей и гости: 0


Вы не можете начинать темы
Вы не можете отвечать на сообщения
Вы не можете редактировать свои сообщения
Вы не можете удалять свои сообщения
Вы не можете добавлять вложения

Перейти:  
cron