Начать новую тему Ответить на тему
Статистика раздачи
Размер: 300.92 МБ | Добавлен: 26 мар 2019, 20:18 | Скачали: 0
Сидеров: 0  [0 байт/сек]    Личеров: 0  [0 байт/сек]
Пред. тема | След. тема 

Автор
Сообщение

СообщениеДобавлено: 26 мар 2019, 20:18 

Ответить с цитатой 

Voice Of The Beehive / Let It Bee
Жанр: Pop Rock, Alternative
Носитель: CD
Страна-производитель диска (релиза): Europe
Год издания: 1988
Издатель (лейбл): London Records
Номер по каталогу: 828100.2
Страна исполнителя (группы): USA/UK
Аудиокодек: FLAC (*.flac)
Тип рипа: tracks+.cue
Битрейт аудио: lossless
Продолжительность: 38:21
Источник (релизер): Artmuss
Наличие сканов в содержимом раздачи: да
Треклист:
01. Beat Of Love
02. Sorrow Floats
03. Don't Call Me Baby
04. Man In The Moon
05. What You Have Is Enough
06. Oh Love
07. I Walk The Earth
08. Trust Me
09. I Say Nothing
10. There's A Barbarian In The Back Of My Car
11. Just A City
Код:
Exact Audio Copy V1.1 from 23. June 2015
EAC extraction logfile from 7. July 2016, 22:07
Voice Of The Beehive / Let It Bee
Used drive  : TSSTcorpCDDVDW SH-224DB   Adapter: 1  ID: 0
Read mode               : Secure
Utilize accurate stream : Yes
Defeat audio cache      : Yes
Make use of C2 pointers : No
Read offset correction                      : 6
Overread into Lead-In and Lead-Out          : No
Fill up missing offset samples with silence : Yes
Delete leading and trailing silent blocks   : No
Null samples used in CRC calculations       : Yes
Used interface                              : Native Win32 interface for Win NT & 2000
Gap handling                                : Appended to previous track
Used output format              : User Defined Encoder
Selected bitrate                : 1024 kBit/s
Quality                         : High
Add ID3 tag                     : No
Command line compressor         : C:\Program Files (x86)\Exact Audio Copy\Flac\flac.exe
Additional command line options : -8 -V -T "ARTIST=%artist%" -T "TITLE=%title%" -T "ALBUM=%albumtitle%" -T "DATE=%year%" -T "TRACKNUMBER=%tracknr%" -T "TOTALTRACKS=%numtracks%" -T "GENRE=%genre%" -T "ALBUMARTIST=%albumartist%" -T "ALBUM ARTIST=%albumartist%" -T "COMMENT=EAC Secure Mode, Test & Copy, AccurateRip, FLAC -8" %source%
TOC of the extracted CD
     Track |   Start  |  Length  | Start sector | End sector
    ---------------------------------------------------------
        1  |  0:00.33 |  4:08.00 |        33    |    18632
        2  |  4:08.33 |  4:23.27 |     18633    |    38384
        3  |  8:31.60 |  3:11.55 |     38385    |    52764
        4  | 11:43.40 |  3:16.00 |     52765    |    67464
        5  | 14:59.40 |  2:38.13 |     67465    |    79327
        6  | 17:37.53 |  2:59.67 |     79328    |    92819
        7  | 20:37.45 |  3:42.73 |     92820    |   109542
        8  | 24:20.43 |  3:22.32 |    109543    |   124724
        9  | 27:43.00 |  3:32.43 |    124725    |   140667
       10  | 31:15.43 |  2:38.72 |    140668    |   152589
       11  | 33:54.40 |  4:27.68 |    152590    |   172682
Track  1
     Filename C:\Users\biafr_000\Music\Voice Of The Beehive - Let It Bee (1988) [FLAC]\01 - Beat Of Love.wav
     Pre-gap length  0:00:02.33
     Peak level 99.2 %
     Extraction speed 1.8 X
     Track quality 99.9 %
     Test CRC D96B877B
     Copy CRC D96B877B
     Accurately ripped (confidence 25)  [52D04DF9]  (AR v2)
     Copy OK
Track  2
     Filename C:\Users\biafr_000\Music\Voice Of The Beehive - Let It Bee (1988) [FLAC]\02 - Sorrow Floats.wav
     Pre-gap length  0:00:03.28
     Peak level 100.0 %
     Extraction speed 2.0 X
     Track quality 100.0 %
     Test CRC B49DBF85
     Copy CRC B49DBF85
     Accurately ripped (confidence 25)  [8E8868CF]  (AR v2)
     Copy OK
Track  3
     Filename C:\Users\biafr_000\Music\Voice Of The Beehive - Let It Bee (1988) [FLAC]\03 - Don't Call Me Baby.wav
     Pre-gap length  0:00:04.52
     Peak level 100.0 %
     Extraction speed 2.0 X
     Track quality 100.0 %
     Test CRC 9DA8187E
     Copy CRC 9DA8187E
     Accurately ripped (confidence 25)  [551D9935]  (AR v2)
     Copy OK
Track  4
     Filename C:\Users\biafr_000\Music\Voice Of The Beehive - Let It Bee (1988) [FLAC]\04 - Man In The Moon.wav
     Pre-gap length  0:00:03.57
     Peak level 98.0 %
     Extraction speed 2.0 X
     Track quality 100.0 %
     Test CRC 107BF4C1
     Copy CRC 107BF4C1
     Accurately ripped (confidence 25)  [948C71B3]  (AR v2)
     Copy OK
Track  5
     Filename C:\Users\biafr_000\Music\Voice Of The Beehive - Let It Bee (1988) [FLAC]\05 - What You Have Is Enough.wav
     Pre-gap length  0:00:02.50
     Peak level 100.0 %
     Extraction speed 1.9 X
     Track quality 100.0 %
     Test CRC 1A98BC62
     Copy CRC 1A98BC62
     Accurately ripped (confidence 25)  [9FDE9AD3]  (AR v2)
     Copy OK
Track  6
     Filename C:\Users\biafr_000\Music\Voice Of The Beehive - Let It Bee (1988) [FLAC]\06 - Oh Love.wav
     Pre-gap length  0:00:02.73
     Peak level 98.2 %
     Extraction speed 1.6 X
     Track quality 99.9 %
     Test CRC FB334582
     Copy CRC FB334582
     Accurately ripped (confidence 25)  [178E8EF8]  (AR v2)
     Copy OK
Track  7
     Filename C:\Users\biafr_000\Music\Voice Of The Beehive - Let It Bee (1988) [FLAC]\07 - I Walk The Earth.wav
     Pre-gap length  0:00:03.12
     Peak level 100.0 %
     Extraction speed 2.0 X
     Track quality 100.0 %
     Test CRC 51C68B83
     Copy CRC 51C68B83
     Accurately ripped (confidence 25)  [408A20B0]  (AR v2)
     Copy OK
Track  8
     Filename C:\Users\biafr_000\Music\Voice Of The Beehive - Let It Bee (1988) [FLAC]\08 - Trust Me.wav
     Pre-gap length  0:00:01.60
     Peak level 100.0 %
     Extraction speed 2.0 X
     Track quality 100.0 %
     Test CRC 1BA17DB8
     Copy CRC 1BA17DB8
     Accurately ripped (confidence 25)  [19623C86]  (AR v2)
     Copy OK
Track  9
     Filename C:\Users\biafr_000\Music\Voice Of The Beehive - Let It Bee (1988) [FLAC]\09 - I Say Nothing.wav
     Pre-gap length  0:00:02.72
     Peak level 100.0 %
     Extraction speed 2.0 X
     Track quality 100.0 %
     Test CRC A3C23F6B
     Copy CRC A3C23F6B
     Accurately ripped (confidence 25)  [094C4A80]  (AR v2)
     Copy OK
Track 10
     Filename C:\Users\biafr_000\Music\Voice Of The Beehive - Let It Bee (1988) [FLAC]\10 - There's A Barbarian In The Back Of My Car.wav
     Pre-gap length  0:00:05.15
     Peak level 100.0 %
     Extraction speed 1.9 X
     Track quality 100.0 %
     Test CRC 71D0BB2E
     Copy CRC 71D0BB2E
     Accurately ripped (confidence 25)  [4658B31F]  (AR v2)
     Copy OK
Track 11
     Filename C:\Users\biafr_000\Music\Voice Of The Beehive - Let It Bee (1988) [FLAC]\11 - Just A City.wav
     Pre-gap length  0:00:03.07
     Peak level 100.0 %
     Extraction speed 1.8 X
     Track quality 99.9 %
     Test CRC 40248753
     Copy CRC 40248753
     Accurately ripped (confidence 25)  [0DED0F38]  (AR v2)
     Copy OK
All tracks accurately ripped
No errors occurred
End of status report
---- CUETools DB Plugin V2.1.6
[CTDB TOCID: kr3r8enWz4opRl.xHNhYx3Lp4w0-] found
Submit result: kr3r8enWz4opRl.xHNhYx3Lp4w0- has been confirmed
Track | CTDB Status
  1   | (18/19) Accurately ripped
  2   | (17/19) Accurately ripped
  3   | (18/19) Accurately ripped
  4   | (18/19) Accurately ripped
  5   | (18/19) Accurately ripped
  6   | (18/19) Accurately ripped
  7   | (18/19) Accurately ripped
  8   | (18/19) Accurately ripped
  9   | (18/19) Accurately ripped
 10   | (18/19) Accurately ripped
 11   | (18/19) Accurately ripped
==== Log checksum C11B8634D5CE908D928BE8B28860B6366CE56EE0B772D53ACACEA71607352A03 ====
Код:
REM GENRE "Alt. Rock"
REM DATE 1988
REM DISCID 8708FE0B
REM COMMENT "ExactAudioCopy v1.1"
PERFORMER "Voice Of The Beehive"
TITLE "Let It Bee"
FILE "01 - Beat Of Love.wav" WAVE
  TRACK 01 AUDIO
    TITLE "Beat Of Love"
    PERFORMER "Voice Of The Beehive"
    PREGAP 00:00:33
    INDEX 01 00:00:00
  TRACK 02 AUDIO
    TITLE "Sorrow Floats"
    PERFORMER "Voice Of The Beehive"
    INDEX 00 04:04:47
FILE "02 - Sorrow Floats.wav" WAVE
    INDEX 01 00:00:00
  TRACK 03 AUDIO
    TITLE "Don't Call Me Baby"
    PERFORMER "Voice Of The Beehive"
    INDEX 00 04:18:50
FILE "03 - Don't Call Me Baby.wav" WAVE
    INDEX 01 00:00:00
  TRACK 04 AUDIO
    TITLE "Man In The Moon"
    PERFORMER "Voice Of The Beehive"
    INDEX 00 03:07:73
FILE "04 - Man In The Moon.wav" WAVE
    INDEX 01 00:00:00
  TRACK 05 AUDIO
    TITLE "What You Have Is Enough"
    PERFORMER "Voice Of The Beehive"
    INDEX 00 03:13:25
FILE "05 - What You Have Is Enough.wav" WAVE
    INDEX 01 00:00:00
  TRACK 06 AUDIO
    TITLE "Oh Love"
    PERFORMER "Voice Of The Beehive"
    INDEX 00 02:35:15
FILE "06 - Oh Love.wav" WAVE
    INDEX 01 00:00:00
  TRACK 07 AUDIO
    TITLE "I Walk The Earth"
    PERFORMER "Voice Of The Beehive"
    INDEX 00 02:56:55
FILE "07 - I Walk The Earth.wav" WAVE
    INDEX 01 00:00:00
  TRACK 08 AUDIO
    TITLE "Trust Me"
    PERFORMER "Voice Of The Beehive"
    INDEX 00 03:41:13
FILE "08 - Trust Me.wav" WAVE
    INDEX 01 00:00:00
  TRACK 09 AUDIO
    TITLE "I Say Nothing"
    PERFORMER "Voice Of The Beehive"
    INDEX 00 03:19:35
FILE "09 - I Say Nothing.wav" WAVE
    INDEX 01 00:00:00
  TRACK 10 AUDIO
    TITLE "There's A Barbarian In The Back Of My Car"
    PERFORMER "Voice Of The Beehive"
    INDEX 00 03:27:28
FILE "10 - There's A Barbarian In The Back Of My Car.wav" WAVE
    INDEX 01 00:00:00
  TRACK 11 AUDIO
    TITLE "Just A City"
    PERFORMER "Voice Of The Beehive"
    INDEX 00 02:35:65
FILE "11 - Just A City.wav" WAVE
    INDEX 01 00:00:00
Код:
AUDIOCHECKER v2.0 beta (build 457) - by Dester - opdester@freemail.hu
~~~~~~~~~~~~~~~~~~~~~~~~~~~~~~~~~~
Started at: среда, 20. 06. 2018. - 17:58.54
11 files found
01 -===- M:\Voice Of The Beehive\(1988) Let It Bee\01 - Beat Of Love.flac
  Extracted successfully
  Conclusion: this track is CDDA with probability 100%
  Tempfile successfully deleted.
02 -===- M:\Voice Of The Beehive\(1988) Let It Bee\02 - Sorrow Floats.flac
  Extracted successfully
  Conclusion: this track is CDDA with probability 100%
  Tempfile successfully deleted.
03 -===- M:\Voice Of The Beehive\(1988) Let It Bee\03 - Don't Call Me Baby.flac
  Extracted successfully
  Conclusion: this track is CDDA with probability 100%
  Tempfile successfully deleted.
04 -===- M:\Voice Of The Beehive\(1988) Let It Bee\04 - Man In The Moon.flac
  Extracted successfully
  Conclusion: this track is CDDA with probability 100%
  Tempfile successfully deleted.
05 -===- M:\Voice Of The Beehive\(1988) Let It Bee\05 - What You Have Is Enough.flac
  Extracted successfully
  Conclusion: this track is MPEG with probability 95%
  Tempfile successfully deleted.
06 -===- M:\Voice Of The Beehive\(1988) Let It Bee\06 - Oh Love.flac
  Extracted successfully
  Conclusion: this track is CDDA with probability 100%
  Tempfile successfully deleted.
07 -===- M:\Voice Of The Beehive\(1988) Let It Bee\07 - I Walk The Earth.flac
  Extracted successfully
  Conclusion: this track is MPEG with probability 95%
  Tempfile successfully deleted.
08 -===- M:\Voice Of The Beehive\(1988) Let It Bee\08 - Trust Me.flac
  Extracted successfully
  Conclusion: this track is CDDA with probability 100%
  Tempfile successfully deleted.
09 -===- M:\Voice Of The Beehive\(1988) Let It Bee\09 - I Say Nothing.flac
  Extracted successfully
  Conclusion: this track is CDDA with probability 100%
  Tempfile successfully deleted.
10 -===- M:\Voice Of The Beehive\(1988) Let It Bee\10 - There's A Barbarian In The Back Of My Car.flac
  Extracted successfully
  Conclusion: this track is CDDA with probability 100%
  Tempfile successfully deleted.
11 -===- M:\Voice Of The Beehive\(1988) Let It Bee\11 - Just A City.flac
  Extracted successfully
  Conclusion: this track is CDDA with probability 100%
  Tempfile successfully deleted.
Finished at: среда, 20. 06. 2018. - 18:01.22 (operation time: 0:02.28)
Правила, инструкции, FAQ!!!
Торрент  Добавлен [26 мар 2019, 20:18] Скачать торрент Магнет ссылка
Скачать торрент
[ Размер 13.75 КБ / Просмотров 1 ]

Статус
Проверен 
 
Размер  300.92 МБ
Приватный: Нет (DHT включён)
.torrent скачан  0
 


     Отправить личное сообщение
   
Страница 1 из 1
Показать сообщения за:  Поле сортировки  
Начать новую тему Ответить на тему


Сейчас этот форум просматривают: нет зарегистрированных пользователей и гости: 0


Вы не можете начинать темы
Вы не можете отвечать на сообщения
Вы не можете редактировать свои сообщения
Вы не можете удалять свои сообщения
Вы не можете добавлять вложения

Перейти:  
cron