Начать новую тему Ответить на тему
Статистика раздачи
Размер: 324.82 МБ | Добавлен: 26 мар 2019, 18:51 | Скачали: 0
Сидеров: 0  [0 байт/сек]    Личеров: 0  [0 байт/сек]
Пред. тема | След. тема 

Автор
Сообщение

СообщениеДобавлено: 26 мар 2019, 18:51 

Ответить с цитатой 

Something Corporate / Ready... Break
Жанр: Pop-Rock, Alternative
Год издания: 2000
Аудиокодек: FLAC (*.flac)
Тип рипа: tracks+.cue
Битрейт аудио: lossless
Продолжительность: 51:40
Источник (релизер): web
Наличие сканов в содержимом раздачи: нет
Треклист:
01. Straw Dog
02. Mulligan Goes To War
03. Drunk Girl
04. Plucked
05. When It Goes Down
06. Babies Of The 80's
07. Cavanaugh Park
08. If I Die
09. Ben Franklin's Kite
10. Inside The Pocket
11. Konstantine (Live)
Код:
Exact Audio Copy V0.99 prebeta 5 from 4. May 2009
EAC extraction logfile from 6. September 2009, 19:54
Something Corporate / Ready Break
Used drive  : Optiarc DVD RW AD-7240S   Adapter: 4  ID: 0
Read mode               : Secure
Utilize accurate stream : Yes
Defeat audio cache      : Yes
Make use of C2 pointers : No
Read offset correction                      : 48
Overread into Lead-In and Lead-Out          : No
Fill up missing offset samples with silence : Yes
Delete leading and trailing silent blocks   : No
Null samples used in CRC calculations       : Yes
Used interface                              : Native Win32 interface for Win NT & 2000
Gap handling                                : Appended to previous track
Used output format              : User Defined Encoder
Selected bitrate                : 320 kBit/s
Quality                         : High
Add ID3 tag                     : No
Command line compressor         : C:\Program Files (x86)\Exact Audio Copy\Flac\flac.exe
Additional command line options : -V -8 -T "artist=%a" -T "title=%t" -T "album=%g" -T "date=%y" -T "tracknumber=%n" -T "genre=%m" %s
TOC of the extracted CD
     Track |   Start  |  Length  | Start sector | End sector
    ---------------------------------------------------------
        1  |  0:00.00 |  3:31.20 |         0    |    15844
        2  |  3:31.20 |  3:38.10 |     15845    |    32204
        3  |  7:09.30 |  4:12.65 |     32205    |    51169
        4  | 11:22.20 |  4:40.15 |     51170    |    72184
        5  | 16:02.35 |  5:51.70 |     72185    |    98579
        6  | 21:54.30 |  3:29.10 |     98580    |   114264
        7  | 25:23.40 |  4:12.32 |    114265    |   133196
        8  | 29:35.72 |  4:15.70 |    133197    |   152391
        9  | 33:51.67 |  4:18.23 |    152392    |   171764
       10  | 38:10.15 |  2:59.02 |    171765    |   185191
       11  | 41:09.17 | 10:30.30 |    185192    |   232471
Track  1
     Filename C:\FLAC Rips\Something Corporate\Ready Break\01 - Something Corporate - Straw Dog.wav
     Pre-gap length  0:00:02.00
     Peak level 98.8 %
     Track quality 100.0 %
     Test CRC 8036989A
     Copy CRC 8036989A
     Cannot be verified as accurate (confidence 1)  [D3979FFF], AccurateRip returned [3F21B61A]
     Copy OK
Track  2
     Filename C:\FLAC Rips\Something Corporate\Ready Break\02 - Something Corporate - Mulligan Goes To War.wav
     Peak level 98.8 %
     Track quality 99.9 %
     Test CRC 4EC0D973
     Copy CRC 4EC0D973
     Cannot be verified as accurate (confidence 1)  [14F18D2B], AccurateRip returned [6E56F400]
     Copy OK
Track  3
     Filename C:\FLAC Rips\Something Corporate\Ready Break\03 - Something Corporate - Drunk Girl.wav
     Peak level 100.0 %
     Track quality 100.0 %
     Test CRC F911A8E7
     Copy CRC F911A8E7
     Cannot be verified as accurate (confidence 1)  [F3737712], AccurateRip returned [C4854C13]
     Copy OK
Track  4
     Filename C:\FLAC Rips\Something Corporate\Ready Break\04 - Something Corporate - Plucked.wav
     Pre-gap length  0:00:01.26
     Peak level 98.8 %
     Track quality 100.0 %
     Test CRC F660779F
     Copy CRC F660779F
     Cannot be verified as accurate (confidence 1)  [7CD0F0B1], AccurateRip returned [2D2C8849]
     Copy OK
Track  5
     Filename C:\FLAC Rips\Something Corporate\Ready Break\05 - Something Corporate - When It Goes Down.wav
     Pre-gap length  0:00:01.70
     Peak level 94.4 %
     Track quality 100.0 %
     Test CRC A80610E7
     Copy CRC A80610E7
     Cannot be verified as accurate (confidence 1)  [9A232D25], AccurateRip returned [8F1E73A1]
     Copy OK
Track  6
     Filename C:\FLAC Rips\Something Corporate\Ready Break\06 - Something Corporate - Babies Of The 80s.wav
     Peak level 98.8 %
     Track quality 100.0 %
     Test CRC DADACDAB
     Copy CRC DADACDAB
     Cannot be verified as accurate (confidence 1)  [A248BDF1], AccurateRip returned [69428D16]
     Copy OK
Track  7
     Filename C:\FLAC Rips\Something Corporate\Ready Break\07 - Something Corporate - Cavanaugh Park.wav
     Pre-gap length  0:00:02.37
     Peak level 98.8 %
     Track quality 100.0 %
     Test CRC 2A23567F
     Copy CRC 2A23567F
     Cannot be verified as accurate (confidence 1)  [E8EB9718], AccurateRip returned [17D1B152]
     Copy OK
Track  8
     Filename C:\FLAC Rips\Something Corporate\Ready Break\08 - Something Corporate - If I Die.wav
     Pre-gap length  0:00:01.26
     Peak level 98.8 %
     Track quality 100.0 %
     Test CRC 3782F4B4
     Copy CRC 3782F4B4
     Cannot be verified as accurate (confidence 1)  [02CFF29F], AccurateRip returned [D5DB12D4]
     Copy OK
Track  9
     Filename C:\FLAC Rips\Something Corporate\Ready Break\09 - Something Corporate - Ben Franklins Kite.wav
     Peak level 99.5 %
     Track quality 100.0 %
     Test CRC AEC2F676
     Copy CRC AEC2F676
     Cannot be verified as accurate (confidence 1)  [5A14C0F4], AccurateRip returned [C9EB8FB1]
     Copy OK
Track 10
     Filename C:\FLAC Rips\Something Corporate\Ready Break\10 - Something Corporate - Inside The Pocket.wav
     Pre-gap length  0:00:03.50
     Peak level 98.8 %
     Track quality 100.0 %
     Test CRC D8FA5DED
     Copy CRC D8FA5DED
     Cannot be verified as accurate (confidence 1)  [A43A5D70], AccurateRip returned [251A5BF0]
     Copy OK
Track 11
     Filename C:\FLAC Rips\Something Corporate\Ready Break\11 - Something Corporate - Konstantine (Live).wav
     Peak level 98.8 %
     Track quality 100.0 %
     Test CRC 1C35E333
     Copy CRC 1C35E333
     Track not present in AccurateRip database
     Copy OK
10 track(s) could not be verified as accurate
 1 track(s) not present in the AccurateRip database
No tracks could be verified as accurate
You may have a different pressing from the one(s) in the database
No errors occurred
End of status report
Код:
REM GENRE "Alt. Rock"
REM DATE 2000
REM DISCID 880C1B0B
REM COMMENT "ExactAudioCopy v0.99pb5"
FILE "Something Corporate\Ready Break\01 - Something Corporate - Straw Dog.wav" WAVE
  TRACK 01 AUDIO
    INDEX 01 00:00:00
FILE "Something Corporate\Ready Break\02 - Something Corporate - Mulligan Goes To War.wav" WAVE
  TRACK 02 AUDIO
    INDEX 01 00:00:00
FILE "Something Corporate\Ready Break\03 - Something Corporate - Drunk Girl.wav" WAVE
  TRACK 03 AUDIO
    INDEX 01 00:00:00
  TRACK 04 AUDIO
    INDEX 00 04:11:45
FILE "Something Corporate\Ready Break\04 - Something Corporate - Plucked.wav" WAVE
    INDEX 01 00:00:00
  TRACK 05 AUDIO
    INDEX 00 04:38:37
FILE "Something Corporate\Ready Break\05 - Something Corporate - When It Goes Down.wav" WAVE
    INDEX 01 00:00:00
FILE "Something Corporate\Ready Break\06 - Something Corporate - Babies Of The 80s.wav" WAVE
  TRACK 06 AUDIO
    INDEX 01 00:00:00
  TRACK 07 AUDIO
    INDEX 00 03:26:57
FILE "Something Corporate\Ready Break\07 - Something Corporate - Cavanaugh Park.wav" WAVE
    INDEX 01 00:00:00
  TRACK 08 AUDIO
    INDEX 00 04:11:12
FILE "Something Corporate\Ready Break\08 - Something Corporate - If I Die.wav" WAVE
    INDEX 01 00:00:00
FILE "Something Corporate\Ready Break\09 - Something Corporate - Ben Franklins Kite.wav" WAVE
  TRACK 09 AUDIO
    INDEX 01 00:00:00
  TRACK 10 AUDIO
    INDEX 00 04:14:60
FILE "Something Corporate\Ready Break\10 - Something Corporate - Inside The Pocket.wav" WAVE
    INDEX 01 00:00:00
FILE "Something Corporate\Ready Break\11 - Something Corporate - Konstantine (Live).wav" WAVE
  TRACK 11 AUDIO
    INDEX 01 00:00:00
Правила, инструкции, FAQ!!!
Торрент  Добавлен [26 мар 2019, 18:51] Скачать торрент Магнет ссылка
Скачать торрент
[ Размер 14.04 КБ / Просмотров 0 ]

Статус
Проверен 
 
Размер  324.82 МБ
Приватный: Нет (DHT включён)
.torrent скачан  0
 


     Отправить личное сообщение
   
Страница 1 из 1
Показать сообщения за:  Поле сортировки  
Начать новую тему Ответить на тему


Сейчас этот форум просматривают: нет зарегистрированных пользователей и гости: 0


Вы не можете начинать темы
Вы не можете отвечать на сообщения
Вы не можете редактировать свои сообщения
Вы не можете удалять свои сообщения
Вы не можете добавлять вложения

Перейти:  
cron