Начать новую тему Ответить на тему
Статистика раздачи
Размер: 373.49 МБ | Добавлен: 26 мар 2019, 19:38 | Скачали: 0
Сидеров: 0  [0 байт/сек]    Личеров: 0  [0 байт/сек]
Пред. тема | След. тема 

Автор
Сообщение

СообщениеДобавлено: 26 мар 2019, 19:38 

Ответить с цитатой 

You Pretty Thing / Tune In
Жанр: Pop Rock, Alternative Rock
Носитель: CD
Страна-производитель диска (релиза): EU
Год издания: 2007
Издатель (лейбл): Bon Voyage Records - Bon 002
Номер по каталогу: LC00697
Страна исполнителя (группы): Germany
Аудиокодек: FLAC (*.flac)
Тип рипа: image+.cue
Битрейт аудио: lossless
Продолжительность: 00:45:44
Источник (релизер): lav13
Наличие сканов в содержимом раздачи: да
Треклист:
1. Push It 3:56
2. U Pretty Thing 3:59
3. The Silencer (Burn Baby Burn) 4:02
4. Get Down Pussy 3:59
5. Breakable 4:17
6. I LIke You 4:57
7. I'm Gonna Get You 4:14
8. Bang Bang Betty 3:57
9. Turn On, Tune In 3:42
10. The Sweetest Betrayal 3:46
11. Push It (Bedroom Mix) 4:33
Код:
Exact Audio Copy V1.1 from 23. June 2015
EAC extraction logfile from 30. December 2016, 11:29
You Pretty Thing / Tune In
Used drive  : Optiarc DVD RW AD-5280S   Adapter: 1  ID: 0
Read mode               : Secure
Utilize accurate stream : Yes
Defeat audio cache      : Yes
Make use of C2 pointers : No
Read offset correction                      : 48
Overread into Lead-In and Lead-Out          : No
Fill up missing offset samples with silence : Yes
Delete leading and trailing silent blocks   : No
Null samples used in CRC calculations       : Yes
Used interface                              : Native Win32 interface for Win NT & 2000
Used output format              : User Defined Encoder
Selected bitrate                : 896 kBit/s
Quality                         : High
Add ID3 tag                     : No
Command line compressor         : C:\Program Files (x86)\Exact Audio Copy\Flac\flac.exe
Additional command line options : -V -8 -T "Date=%year%" -T "Genre=%genre%" %source%
TOC of the extracted CD
     Track |   Start  |  Length  | Start sector | End sector
    ---------------------------------------------------------
        1  |  0:00.00 |  3:57.41 |         0    |    17815
        2  |  3:57.41 |  4:00.31 |     17816    |    35846
        3  |  7:57.72 |  4:04.62 |     35847    |    54208
        4  | 12:02.59 |  4:02.09 |     54209    |    72367
        5  | 16:04.68 |  4:19.25 |     72368    |    91817
        6  | 20:24.18 |  4:57.45 |     91818    |   114137
        7  | 25:21.63 |  4:16.53 |    114138    |   133390
        8  | 29:38.41 |  3:59.36 |    133391    |   151351
        9  | 33:38.02 |  3:44.14 |    151352    |   168165
       10  | 37:22.16 |  3:47.43 |    168166    |   185233
       11  | 41:09.59 |  4:33.57 |    185234    |   205765
Range status and errors
Selected range
     Filename F:\МУЗЫКА\You Pretty Thing - Tune In\You Pretty Thing - Tune In.wav
     Peak level 93.3 %
     Extraction speed 7.2 X
     Range quality 100.0 %
     Test CRC 7BDBCD13
     Copy CRC 7BDBCD13
     Copy OK
No errors occurred
AccurateRip summary
Track  1  accurately ripped (confidence 2)  [86E8C700]  (AR v1)
Track  2  accurately ripped (confidence 2)  [2C46521F]  (AR v1)
Track  3  accurately ripped (confidence 2)  [0297B50F]  (AR v1)
Track  4  accurately ripped (confidence 2)  [E5AD42C8]  (AR v1)
Track  5  accurately ripped (confidence 2)  [80B90B89]  (AR v1)
Track  6  accurately ripped (confidence 2)  [A09FC737]  (AR v1)
Track  7  accurately ripped (confidence 2)  [68D68128]  (AR v1)
Track  8  accurately ripped (confidence 2)  [9397769B]  (AR v1)
Track  9  accurately ripped (confidence 2)  [3A765DB8]  (AR v1)
Track 10  accurately ripped (confidence 2)  [F8E85568]  (AR v1)
Track 11  accurately ripped (confidence 2)  [20EFF89E]  (AR v1)
All tracks accurately ripped
End of status report
---- CUETools DB Plugin V2.1.6
[CTDB TOCID: Gl4JDKDxOtySwfxWUDrZ8cagpHY-] disk not present in database
Submit result: Gl4JDKDxOtySwfxWUDrZ8cagpHY- has been uploaded
==== Log checksum 3CCCEDCA659A13C941DA5FB251C4143E14C5B4D0E32D5B7CFCE2FD1E952F1BAB ====
Jayney Klimek (Bankstatement, The Other Ones) - Vocals
Andreas Schwarz-Ruszczynski (The Other Ones) - Guitar
Правила, инструкции, FAQ!!!
Торрент  Добавлен [26 мар 2019, 19:38] Скачать торрент Магнет ссылка
Скачать торрент
[ Размер 15.58 КБ / Просмотров 1 ]

Статус
Проверен 
 
Размер  373.49 МБ
Приватный: Нет (DHT включён)
.torrent скачан  0
 


     Отправить личное сообщение
   
Страница 1 из 1
Показать сообщения за:  Поле сортировки  
Начать новую тему Ответить на тему


Сейчас этот форум просматривают: нет зарегистрированных пользователей и гости: 0


Вы не можете начинать темы
Вы не можете отвечать на сообщения
Вы не можете редактировать свои сообщения
Вы не можете удалять свои сообщения
Вы не можете добавлять вложения

Перейти:  
cron