Начать новую тему Ответить на тему
Статистика раздачи
Размер: 267.65 МБ | Добавлен: 28 апр 2020, 19:50 | Скачали: 0
Сидеров: 0  [0 байт/сек]    Личеров: 0  [0 байт/сек]
Пред. тема | След. тема 

Автор
Сообщение

СообщениеДобавлено: 28 апр 2020, 19:50 

Ответить с цитатой 

Do-Re-Mi / The Happiest Place In Town
Жанр: Pop Rock/Alternative Rock
Носитель: CD
Страна-производитель диска (релиза): UK
Год издания: 1988
Издатель (лейбл): Virgin
Номер по каталогу: CDV 2467
Страна исполнителя (группы): Australia
Аудиокодек: FLAC (*.flac)
Тип рипа: tracks+.cue
Продолжительность: 00:39:35
Источник: private tracker
Наличие сканов в содержимом раздачи: да

Треклист:
01. Haunt You
02. King Of Moomba
03. Adultery
04. Valentines Day
05. Take Me Anywhere
06. Heads Will Roll
07. Disneyland
08. Wild And Blue
09. Desert Song
10. Friends Like You
11. That Hanging Business
12. Happiest Place In Town
Код:
Exact Audio Copy V1.0 beta 3 from 29. August 2011
EAC extraction logfile from 23. October 2016, 13:10
Do-Ré-Mi / The Happiest Place In Town {Virgin,CDV 2467}
Used drive  : HL-DT-STDVDRAM GP50NB40   Adapter: 3  ID: 3
Read mode               : Secure
Utilize accurate stream : Yes
Defeat audio cache      : Yes
Make use of C2 pointers : No
Read offset correction                      : 6
Overread into Lead-In and Lead-Out          : No
Fill up missing offset samples with silence : Yes
Delete leading and trailing silent blocks   : No
Null samples used in CRC calculations       : Yes
Used interface                              : Native Win32 interface for Win NT & 2000
Gap handling                                : Appended to previous track
Used output format              : User Defined Encoder
Selected bitrate                : 1024 kBit/s
Quality                         : High
Add ID3 tag                     : No
Command line compressor         : C:\Program Files (x86)\Exact Audio Copy\Flac\flac.exe
Additional command line options : -8 -V -T "ARTIST=%artist%" -T "TITLE=%title%" -T "ALBUM=%albumtitle%" -T "DATE=%year%" -T "TRACKNUMBER=%tracknr%" -T "GENRE=%genre%" -T "COMMENT=%comment%" -T "BAND=%albuminterpret%" -T "ALBUMARTIST=%albuminterpret%" -T "COMPOSER=%composer%" %haslyrics%--tag-from-file=LYRICS="%lyricsfile%"%haslyrics% -T "DISCNUMBER=%cdnumber%" -T "TOTALDISCS=%totalcds%" -T "TOTALTRACKS=%numtracks%" %hascover%--picture="%coverfile%"%hascover% %source% -o %dest%
TOC of the extracted CD
     Track |   Start  |  Length  | Start sector | End sector
    ---------------------------------------------------------
        1  |  0:00.50 |  2:59.35 |        50    |    13509
        2  |  3:00.10 |  3:17.22 |     13510    |    28306
        3  |  6:17.32 |  4:10.03 |     28307    |    47059
        4  | 10:27.35 |  3:28.00 |     47060    |    62659
        5  | 13:55.35 |  3:29.02 |     62660    |    78336
        6  | 17:24.37 |  3:20.13 |     78337    |    93349
        7  | 20:44.50 |  3:11.70 |     93350    |   107744
        8  | 23:56.45 |  3:34.47 |    107745    |   123841
        9  | 27:31.17 |  3:21.10 |    123842    |   138926
       10  | 30:52.27 |  3:00.65 |    138927    |   152491
       11  | 33:53.17 |  2:56.03 |    152492    |   165694
       12  | 36:49.20 |  2:46.47 |    165695    |   178191
Track  1
     Filename D:\EACrips\The Happiest Place In Town {Virgin,CDV 2467}\01 Haunt You.wav
     Pre-gap length  0:00:02.66
     Peak level 100.0 %
     Extraction speed 1.1 X
     Track quality 100.0 %
     Test CRC 1EEE77FE
     Copy CRC 1EEE77FE
     Accurately ripped (confidence 7)  [6EE1AFBE]  (AR v2)
     Copy OK
Track  2
     Filename D:\EACrips\The Happiest Place In Town {Virgin,CDV 2467}\02 King Of Moomba.wav
     Peak level 100.0 %
     Extraction speed 1.2 X
     Track quality 100.0 %
     Test CRC D684C1D9
     Copy CRC D684C1D9
     Accurately ripped (confidence 7)  [ACC32B80]  (AR v2)
     Copy OK
Track  3
     Filename D:\EACrips\The Happiest Place In Town {Virgin,CDV 2467}\03 Adultery.wav
     Peak level 91.7 %
     Extraction speed 1.4 X
     Track quality 100.0 %
     Test CRC C4D51B10
     Copy CRC C4D51B10
     Accurately ripped (confidence 7)  [74A1260A]  (AR v2)
     Copy OK
Track  4
     Filename D:\EACrips\The Happiest Place In Town {Virgin,CDV 2467}\04 Valentine's Day.wav
     Peak level 85.6 %
     Extraction speed 1.4 X
     Track quality 100.0 %
     Test CRC F7B07852
     Copy CRC F7B07852
     Accurately ripped (confidence 7)  [7822E482]  (AR v2)
     Copy OK
Track  5
     Filename D:\EACrips\The Happiest Place In Town {Virgin,CDV 2467}\05 Take Me Anywhere.wav
     Peak level 74.2 %
     Extraction speed 1.5 X
     Track quality 100.0 %
     Test CRC 3788A97E
     Copy CRC 3788A97E
     Accurately ripped (confidence 7)  [D883A0EA]  (AR v2)
     Copy OK
Track  6
     Filename D:\EACrips\The Happiest Place In Town {Virgin,CDV 2467}\06 Heads Will Roll.wav
     Peak level 71.0 %
     Extraction speed 1.4 X
     Track quality 99.9 %
     Test CRC B122A4AA
     Copy CRC B122A4AA
     Accurately ripped (confidence 7)  [053F1062]  (AR v2)
     Copy OK
Track  7
     Filename D:\EACrips\The Happiest Place In Town {Virgin,CDV 2467}\07 Disneyland.wav
     Peak level 100.0 %
     Extraction speed 1.7 X
     Track quality 100.0 %
     Test CRC C64C926D
     Copy CRC C64C926D
     Accurately ripped (confidence 7)  [ED971C57]  (AR v2)
     Copy OK
Track  8
     Filename D:\EACrips\The Happiest Place In Town {Virgin,CDV 2467}\08 Wild And Blue.wav
     Peak level 100.0 %
     Extraction speed 1.8 X
     Track quality 100.0 %
     Test CRC CF5371E0
     Copy CRC CF5371E0
     Accurately ripped (confidence 7)  [8A00DBDD]  (AR v2)
     Copy OK
Track  9
     Filename D:\EACrips\The Happiest Place In Town {Virgin,CDV 2467}\09 Desert Song.wav
     Peak level 100.0 %
     Extraction speed 1.8 X
     Track quality 100.0 %
     Test CRC 7B9EB871
     Copy CRC 7B9EB871
     Accurately ripped (confidence 7)  [DF4DBB6D]  (AR v2)
     Copy OK
Track 10
     Filename D:\EACrips\The Happiest Place In Town {Virgin,CDV 2467}\10 Friends Like You.wav
     Peak level 100.0 %
     Extraction speed 1.8 X
     Track quality 100.0 %
     Test CRC 5F5A2432
     Copy CRC 5F5A2432
     Accurately ripped (confidence 7)  [2E7074FA]  (AR v2)
     Copy OK
Track 11
     Filename D:\EACrips\The Happiest Place In Town {Virgin,CDV 2467}\11 That Hanging Business.wav
     Peak level 100.0 %
     Extraction speed 1.9 X
     Track quality 100.0 %
     Test CRC DF645569
     Copy CRC DF645569
     Accurately ripped (confidence 7)  [2454EA71]  (AR v2)
     Copy OK
Track 12
     Filename D:\EACrips\The Happiest Place In Town {Virgin,CDV 2467}\12 The Happiest Place In Town.wav
     Peak level 55.8 %
     Extraction speed 1.6 X
     Track quality 99.9 %
     Test CRC 0269179B
     Copy CRC 0269179B
     Accurately ripped (confidence 7)  [08F64271]  (AR v2)
     Copy OK
All tracks accurately ripped
No errors occurred
End of status report
==== Log checksum 996367F6201452F5A0B4C7C5E0163783F44F45EC8501D0F16B0DFAA0562D9714 ====
Код:
REM GENRE Pop
REM DATE 1988
REM DISCID 9C09470C
REM COMMENT "ExactAudioCopy v1.0b3"
CATALOG 5012981246723
PERFORMER "Do-Re-Mi"
TITLE "The Happiest Place In Town"
FILE "01 Haunt You.wav" WAVE
  TRACK 01 AUDIO
    TITLE "Haunt You"
    PERFORMER "Do-Re-Mi"
    PREGAP 00:00:50
    INDEX 01 00:00:00
FILE "02 King Of Moomba.wav" WAVE
  TRACK 02 AUDIO
    TITLE "King Of Moomba"
    PERFORMER "Do-Re-Mi"
    INDEX 01 00:00:00
FILE "03 Adultery.wav" WAVE
  TRACK 03 AUDIO
    TITLE "Adultery"
    PERFORMER "Do-Re-Mi"
    INDEX 01 00:00:00
FILE "04 Valentine's Day.wav" WAVE
  TRACK 04 AUDIO
    TITLE "Valentine's Day"
    PERFORMER "Do-Re-Mi"
    INDEX 01 00:00:00
FILE "05 Take Me Anywhere.wav" WAVE
  TRACK 05 AUDIO
    TITLE "Take Me Anywhere"
    PERFORMER "Do-Re-Mi"
    INDEX 01 00:00:00
FILE "06 Heads Will Roll.wav" WAVE
  TRACK 06 AUDIO
    TITLE "Heads Will Roll"
    PERFORMER "Do-Re-Mi"
    INDEX 01 00:00:00
FILE "07 Disneyland.wav" WAVE
  TRACK 07 AUDIO
    TITLE "Disneyland"
    PERFORMER "Do-Re-Mi"
    INDEX 01 00:00:00
FILE "08 Wild And Blue.wav" WAVE
  TRACK 08 AUDIO
    TITLE "Wild And Blue"
    PERFORMER "Do-Re-Mi"
    INDEX 01 00:00:00
FILE "09 Desert Song.wav" WAVE
  TRACK 09 AUDIO
    TITLE "Desert Song"
    PERFORMER "Do-Re-Mi"
    INDEX 01 00:00:00
FILE "10 Friends Like You.wav" WAVE
  TRACK 10 AUDIO
    TITLE "Friends Like You"
    PERFORMER "Do-Re-Mi"
    INDEX 01 00:00:00
FILE "11 That Hanging Business.wav" WAVE
  TRACK 11 AUDIO
    TITLE "That Hanging Business"
    PERFORMER "Do-Re-Mi"
    INDEX 01 00:00:00
FILE "12 The Happiest Place In Town.wav" WAVE
  TRACK 12 AUDIO
    TITLE "The Happiest Place In Town"
    PERFORMER "Do-Re-Mi"
    INDEX 01 00:00:00
Код:
[CUETools log; Date: 29.03.2020 10:38:44; Version: 2.1.5]
Pregap length 00:00:50.
[CTDB TOCID: g1sXfhYTrlwXYbBX3v18KJqXroY-] found.
Track | CTDB Status
  1   | (15/15) Accurately ripped
  2   | (15/15) Accurately ripped
  3   | (15/15) Accurately ripped
  4   | (15/15) Accurately ripped
  5   | (14/15) Accurately ripped
  6   | (15/15) Accurately ripped
  7   | (15/15) Accurately ripped
  8   | (15/15) Accurately ripped
  9   | (15/15) Accurately ripped
 10   | (15/15) Accurately ripped
 11   | (15/15) Accurately ripped
 12   | (14/15) Accurately ripped
[AccurateRip ID: 00122917-00a92503-9c09470c] found.
Track   [  CRC   |   V2   ] Status
 01     [1bdb2d6e|6ee1afbe] (09+09/18) Accurately ripped
 02     [bb321fc5|acc32b80] (09+09/18) Accurately ripped
 03     [2def47a2|74a1260a] (10+09/19) Accurately ripped
 04     [76f9299b|7822e482] (09+09/18) Accurately ripped
 05     [0333186e|d883a0ea] (09+09/18) Accurately ripped
 06     [2d307104|053f1062] (09+09/18) Accurately ripped
 07     [58c510e5|ed971c57] (09+09/18) Accurately ripped
 08     [10a7becb|8a00dbdd] (09+09/18) Accurately ripped
 09     [e236d138|df4dbb6d] (09+08/17) Accurately ripped
 10     [fc789862|2e7074fa] (09+09/18) Accurately ripped
 11     [5d77d76b|2454ea71] (09+08/17) Accurately ripped
 12     [bbf305a8|08f64271] (07+08/15) Accurately ripped
Track Peak [ CRC32  ] [W/O NULL] [  LOG   ]
 --  100,0 [1BC232F5] [E5631A0B]
 01  100,0 [1EEE77FE] [8CA783A6]   CRC32
 02  100,0 [D684C1D9] [473AD0A1]   CRC32
 03   91,7 [C4D51B10] [4AA72311]   CRC32
 04   85,6 [F7B07852] [508BFD9D]   CRC32
 05   74,2 [3788A97E] [DE622133]   CRC32
 06   71,0 [B122A4AA] [07779669]   CRC32
 07  100,0 [C64C926D] [2341EECD]   CRC32
 08  100,0 [CF5371E0] [C32629C4]   CRC32
 09  100,0 [7B9EB871] [FBFB55BD]   CRC32
 10  100,0 [5F5A2432] [F1F1F879]   CRC32
 11  100,0 [DF645569] [51E45755]   CRC32
 12   55,8 [0269179B] [9D36E7AC]   CRC32
Правила, инструкции, FAQ!!!
Торрент  Добавлен [28 апр 2020, 19:50] Скачать торрент Магнет ссылка
Скачать торрент
[ Размер 12.03 КБ / Просмотров 4 ]

Статус
Проверен 
 
Размер  267.65 МБ
Приватный: Нет (DHT включён)
.torrent скачан  0
 


     Отправить личное сообщение
   
Страница 1 из 1
Показать сообщения за:  Поле сортировки  
Начать новую тему Ответить на тему


Сейчас этот форум просматривают: нет зарегистрированных пользователей и гости: 0


Вы не можете начинать темы
Вы не можете отвечать на сообщения
Вы не можете редактировать свои сообщения
Вы не можете удалять свои сообщения
Вы не можете добавлять вложения

Перейти:  
cron