Начать новую тему Ответить на тему
Статистика раздачи
Размер: 338.49 МБ | Добавлен: 26 мар 2019, 19:33 | Скачали: 0
Сидеров: 0  [0 байт/сек]    Личеров: 0  [0 байт/сек]
Пред. тема | След. тема 

Автор
Сообщение

СообщениеДобавлено: 26 мар 2019, 19:33 

Ответить с цитатой 

James Walsh / Turning Point
Жанр: Pop Rock, Alternative Rock
Носитель: CD
Страна-производитель диска: UK
Год издания: 2014
Издатель (лейбл): Solo Records
Номер по каталогу: SOLOCD1
Страна: England
Аудиокодек: FLAC (*.flac)
Тип рипа: image+.cue
Битрейт аудио: lossless
Продолжительность: 00:46:42
Источник (релизер): Собственный
Наличие сканов в содержимом раздачи: да (JPG, 300dpi, 39Mb)

Об издании: Второй сольный альбом вокалиста автора песен и фронтмена группы Starsailor.

Треклист:
01. Turning Point - 3:17
02. Better Part Of Me - 3:38
03. Empire - 3:42
04. That Man - 4:13
05. Firing Line (ft. Suzanne Vega) - 4:22
06. Broken You - 3:57
07. We Could Try - 4:24
08. Fading Grace - 3:29
09. If I Had The Words - 4:19
10. Isabel - 4:06
11. Better Luck Next Time - 3:38
12. Better Part Of Me (ft. Carice Van Houten) - 3:37

Код:
Exact Audio Copy V1.0 beta 3 from 29. August 2011
EAC extraction logfile from 10. May 2014, 15:39
James Walsh / Turning Point
Used drive  : ATAPI   iHAS124   B   Adapter: 1  ID: 0
Read mode               : Secure
Utilize accurate stream : Yes
Defeat audio cache      : Yes
Make use of C2 pointers : No
Read offset correction                      : 6
Overread into Lead-In and Lead-Out          : No
Fill up missing offset samples with silence : Yes
Delete leading and trailing silent blocks   : No
Null samples used in CRC calculations       : Yes
Used interface                              : Installed external ASPI interface
Used output format              : User Defined Encoder
Selected bitrate                : 128 kBit/s
Quality                         : High
Add ID3 tag                     : Yes
Command line compressor         : C:\Program Files (x86)\Exact Audio Copy\Flac\flac.exe
Additional command line options : -V -8 %source%
TOC of the extracted CD
     Track |   Start  |  Length  | Start sector | End sector
    ---------------------------------------------------------
        1  |  0:00.00 |  3:17.21 |         0    |    14795
        2  |  3:17.21 |  3:37.69 |     14796    |    31139
        3  |  6:55.15 |  3:42.09 |     31140    |    47798
        4  | 10:37.24 |  4:12.45 |     47799    |    66743
        5  | 14:49.69 |  4:22.20 |     66744    |    86413
        6  | 19:12.14 |  3:57.25 |     86414    |   104213
        7  | 23:09.39 |  4:23.43 |    104214    |   123981
        8  | 27:33.07 |  3:28.61 |    123982    |   139642
        9  | 31:01.68 |  4:19.22 |    139643    |   159089
       10  | 35:21.15 |  4:06.36 |    159090    |   177575
       11  | 39:27.51 |  3:37.50 |    177576    |   193900
       12  | 43:05.26 |  3:36.38 |    193901    |   210138
Range status and errors
Selected range
     Filename G:\CD\James Walsh - Turning Point.wav
     Peak level 100.0 %
     Extraction speed 7.7 X
     Range quality 100.0 %
     Test CRC 7AC9DFD3
     Copy CRC 7AC9DFD3
     Copy OK
No errors occurred
AccurateRip summary
Track  1  accurately ripped (confidence 1)  [E4C03E28]  (AR v2)
Track  2  accurately ripped (confidence 1)  [EDDF3039]  (AR v2)
Track  3  accurately ripped (confidence 1)  [A6E770D9]  (AR v2)
Track  4  accurately ripped (confidence 1)  [DD3E1D48]  (AR v2)
Track  5  accurately ripped (confidence 1)  [89994676]  (AR v2)
Track  6  accurately ripped (confidence 1)  [E9DE3AEF]  (AR v2)
Track  7  accurately ripped (confidence 1)  [6A887738]  (AR v2)
Track  8  accurately ripped (confidence 1)  [CB4C6EED]  (AR v2)
Track  9  accurately ripped (confidence 1)  [8F92F4DD]  (AR v2)
Track 10  accurately ripped (confidence 1)  [B76C659E]  (AR v2)
Track 11  accurately ripped (confidence 1)  [AF3D6AED]  (AR v2)
Track 12  accurately ripped (confidence 1)  [CD25801F]  (AR v2)
All tracks accurately ripped
End of status report
---- CUETools DB Plugin V2.1.3
[CTDB TOCID: BIn48tR6DbNfX1bmrH5s8uzxHu4-] disk not present in database, Submit result: BIn48tR6DbNfX1bmrH5s8uzxHu4- has been uploaded
==== Log checksum 64A160BCE10276450AB482E2B3767F957103D25BEAA49F9A005936FD70818E1D ====
Код:
REM GENRE "Pop Rock"
REM DATE 2014
REM DISCID B30AF10C
REM COMMENT "ExactAudioCopy v1.0b3"
CATALOG 5037300788944
PERFORMER "James Walsh"
TITLE "Turning Point"
FILE "James Walsh - Turning Point.flac" WAVE
  TRACK 01 AUDIO
    TITLE "Turning Point"
    PERFORMER "James Walsh"
    ISRC GBXJ41400001
    INDEX 01 00:00:00
  TRACK 02 AUDIO
    TITLE "Better Part Of Me"
    PERFORMER "James Walsh"
    ISRC GBXJ41400003
    INDEX 00 03:16:10
    INDEX 01 03:17:21
  TRACK 03 AUDIO
    TITLE "Empire"
    PERFORMER "James Walsh"
    ISRC GBXJ41400004
    INDEX 00 06:53:63
    INDEX 01 06:55:15
  TRACK 04 AUDIO
    TITLE "That Man"
    PERFORMER "James Walsh"
    ISRC GBXJ41400005
    INDEX 00 10:35:54
    INDEX 01 10:37:24
  TRACK 05 AUDIO
    TITLE "Firing Line (ft. Suzanne Vega)"
    PERFORMER "James Walsh"
    ISRC GBXJ41400006
    INDEX 00 14:49:66
    INDEX 01 14:49:69
  TRACK 06 AUDIO
    TITLE "Broken You"
    PERFORMER "James Walsh"
    ISRC GBXJ41400007
    INDEX 00 19:09:44
    INDEX 01 19:12:14
  TRACK 07 AUDIO
    TITLE "We Could Try"
    PERFORMER "James Walsh"
    ISRC GBXJ41400002
    INDEX 00 23:08:45
    INDEX 01 23:09:39
  TRACK 08 AUDIO
    TITLE "Fading Grace"
    PERFORMER "James Walsh"
    ISRC GBXJ41400008
    INDEX 00 27:31:16
    INDEX 01 27:33:07
  TRACK 09 AUDIO
    TITLE "If I Had The Words"
    PERFORMER "James Walsh"
    ISRC GBXJ41400009
    INDEX 00 30:59:57
    INDEX 01 31:01:68
  TRACK 10 AUDIO
    TITLE "Isabel"
    PERFORMER "James Walsh"
    ISRC GBXJ41400010
    INDEX 00 35:17:43
    INDEX 01 35:21:15
  TRACK 11 AUDIO
    TITLE "Better Luck Next Time"
    PERFORMER "James Walsh"
    ISRC GBXJ41400011
    INDEX 00 39:26:00
    INDEX 01 39:27:51
  TRACK 12 AUDIO
    TITLE "Better Part Of Me (ft. Carice Van Houten)"
    PERFORMER "James Walsh"
    ISRC GBXJ41400013
    INDEX 00 43:03:56
    INDEX 01 43:05:26

Правила, инструкции, FAQ!!!
Торрент  Добавлен [26 мар 2019, 19:33] Скачать торрент Магнет ссылка
Скачать торрент
[ Размер 4.37 КБ / Просмотров 4 ]

Статус
Проверен 
 
Размер  338.49 МБ
Приватный: Нет (DHT включён)
.torrent скачан  0
 


     Отправить личное сообщение
   
Страница 1 из 1
Показать сообщения за:  Поле сортировки  
Начать новую тему Ответить на тему


Сейчас этот форум просматривают: нет зарегистрированных пользователей и гости: 0


Вы не можете начинать темы
Вы не можете отвечать на сообщения
Вы не можете редактировать свои сообщения
Вы не можете удалять свои сообщения
Вы не можете добавлять вложения

Перейти:  
cron