Начать новую тему Ответить на тему
Статистика раздачи
Размер: 261.14 МБ | Добавлен: 26 мар 2019, 19:29 | Скачали: 0
Сидеров: 0  [0 байт/сек]    Личеров: 0  [0 байт/сек]
Пред. тема | След. тема 

Автор
Сообщение

СообщениеДобавлено: 26 мар 2019, 19:29 

Ответить с цитатой 

Gavin DeGraw / Sweeter

Жанр: Pop-Rock / Alternative Rock
Год издания диска: 2011
Страна: USA
Аудиокодек: FLAC (*.flac)
Тип рипа: tracks+.cue
Битрейт аудио: lossless
Продолжительность: 00:38:54
Источник (релизер): http://lossless71.ru
Наличие сканов в содержимом раздачи: нет
Треклист:
01. Sweeter
02. Not Over You
03. Run Everytime
04. Soldier
05. Candy
06. You Know Where Im At
07. Stealing
08. Radiation
09. Where You Are
10. Spell It Out
Код:
Exact Audio Copy V1.0 beta 2 from 29. April 2011
EAC extraction logfile from 17. September 2011, 14:22
Gavin DeGraw / Sweeter
Used drive  : Pioneer DVD-305   Adapter: 6  ID: 0
Read mode               : Secure
Utilize accurate stream : Yes
Defeat audio cache      : Yes
Make use of C2 pointers : No
Read offset correction                      : 690
Overread into Lead-In and Lead-Out          : No
Fill up missing offset samples with silence : Yes
Delete leading and trailing silent blocks   : No
Null samples used in CRC calculations       : Yes
Used interface                              : Native Win32 interface for Win NT & 2000
Gap handling                                : Appended to previous track
Used output format              : User Defined Encoder
Selected bitrate                : 1024 kBit/s
Quality                         : High
Add ID3 tag                     : No
Command line compressor         : C:\Program Files\Exact Audio Copy\FLAC\FLAC.EXE
Additional command line options : -8 -V -T "ARTIST=%artist%" -T "TITLE=%title%" -T "ALBUM=%albumtitle%" -T "DATE=%year%" -T "TRACKNUMBER=%tracknr%" -T "GENRE=%genre%" -T "PERFORMER=%albuminterpret%" -T "COMPOSER=%composer%" %haslyrics%--tag-from-file=LYRICS
TOC of the extracted CD
     Track |   Start  |  Length  | Start sector | End sector
    ---------------------------------------------------------
        1  |  0:00.00 |  3:43.59 |         0    |    16783
        2  |  3:43.59 |  3:38.39 |     16784    |    33172
        3  |  7:22.23 |  3:06.57 |     33173    |    47179
        4  | 10:29.05 |  3:31.29 |     47180    |    63033
        5  | 14:00.34 |  4:38.41 |     63034    |    83924
        6  | 18:39.00 |  3:21.15 |     83925    |    99014
        7  | 22:00.15 |  4:17.12 |     99015    |   118301
        8  | 26:17.27 |  4:17.53 |    118302    |   137629
        9  | 30:35.05 |  4:21.28 |    137630    |   157232
       10  | 34:56.33 |  3:57.32 |    157233    |   175039
Track  1
     Filename E:\music\Sweeter\01 - Gavin DeGraw - Sweeter.wav
     Pre-gap length  0:00:02.00
     Peak level 99.9 %
     Extraction speed 33.2 X
     Track quality 99.9 %
     Test CRC BF32B80A
     Copy CRC BF32B80A
     Copy OK
Track  2
     Filename E:\music\Sweeter\02 - Gavin DeGraw - Not Over You.wav
     Peak level 99.9 %
     Extraction speed 37.9 X
     Track quality 100.0 %
     Test CRC 95D0B840
     Copy CRC 95D0B840
     Copy OK
Track  3
     Filename E:\music\Sweeter\03 - Gavin DeGraw - Run Every Time.wav
     Peak level 99.9 %
     Extraction speed 42.2 X
     Track quality 100.0 %
     Test CRC 421A03CD
     Copy CRC 421A03CD
     Copy OK
Track  4
     Filename E:\music\Sweeter\04 - Gavin DeGraw - Soldier.wav
     Peak level 99.9 %
     Extraction speed 39.1 X
     Track quality 100.0 %
     Test CRC DA1330F4
     Copy CRC DA1330F4
     Copy OK
Track  5
     Filename E:\music\Sweeter\05 - Gavin DeGraw - Candy.wav
     Peak level 99.9 %
     Extraction speed 38.1 X
     Track quality 99.9 %
     Test CRC 947D1165
     Copy CRC 947D1165
     Copy OK
Track  6
     Filename E:\music\Sweeter\06 - Gavin DeGraw - You Know Where I'm At.wav
     Peak level 99.9 %
     Extraction speed 39.6 X
     Track quality 99.9 %
     Test CRC 6B6385F1
     Copy CRC 6B6385F1
     Copy OK
Track  7
     Filename E:\music\Sweeter\07 - Gavin DeGraw - Stealing.wav
     Peak level 99.9 %
     Extraction speed 46.8 X
     Track quality 100.0 %
     Test CRC CE0C97C6
     Copy CRC CE0C97C6
     Copy OK
Track  8
     Filename E:\music\Sweeter\08 - Gavin DeGraw - Radiation.wav
     Peak level 99.9 %
     Extraction speed 44.6 X
     Track quality 100.0 %
     Test CRC FB2DF5DB
     Copy CRC FB2DF5DB
     Copy OK
Track  9
     Filename E:\music\Sweeter\09 - Gavin DeGraw - Where You Are.wav
     Peak level 99.9 %
     Extraction speed 43.8 X
     Track quality 100.0 %
     Test CRC 96EAB993
     Copy CRC 96EAB993
     Copy OK
Track 10
     Filename E:\music\Sweeter\10 - Gavin DeGraw - Spell It Out.wav
     Pre-gap length  0:00:01.92
     Peak level 99.9 %
     Extraction speed 40.2 X
     Track quality 99.9 %
     Test CRC 71B2430E
     Copy CRC 71B2430E
     Copy OK
No errors occurred
End of status report
==== Log checksum 00F9781C5C505AC48B01ED15573BE0BEEF6130CB028BB92FFA08BBDD857E90BC ====
Код:
REM GENRE Pop
REM DATE 2011
REM DISCID 78091D0A
REM COMMENT "ExactAudioCopy v1.0b2"
PERFORMER "Gavin DeGraw"
TITLE "Sweeter"
FILE "Sweeter\01 - Gavin DeGraw - Sweeter.wav" WAVE
  TRACK 01 AUDIO
    TITLE "Sweeter"
    PERFORMER "Gavin DeGraw"
    INDEX 01 00:00:00
FILE "Sweeter\02 - Gavin DeGraw - Not Over You.wav" WAVE
  TRACK 02 AUDIO
    TITLE "Not Over You"
    PERFORMER "Gavin DeGraw"
    INDEX 01 00:00:00
FILE "Sweeter\03 - Gavin DeGraw - Run Every Time.wav" WAVE
  TRACK 03 AUDIO
    TITLE "Run Every Time"
    PERFORMER "Gavin DeGraw"
    INDEX 01 00:00:00
FILE "Sweeter\04 - Gavin DeGraw - Soldier.wav" WAVE
  TRACK 04 AUDIO
    TITLE "Soldier"
    PERFORMER "Gavin DeGraw"
    INDEX 01 00:00:00
FILE "Sweeter\05 - Gavin DeGraw - Candy.wav" WAVE
  TRACK 05 AUDIO
    TITLE "Candy"
    PERFORMER "Gavin DeGraw"
    INDEX 01 00:00:00
FILE "Sweeter\06 - Gavin DeGraw - You Know Where I'm At.wav" WAVE
  TRACK 06 AUDIO
    TITLE "You Know Where I'm At"
    PERFORMER "Gavin DeGraw"
    INDEX 01 00:00:00
FILE "Sweeter\07 - Gavin DeGraw - Stealing.wav" WAVE
  TRACK 07 AUDIO
    TITLE "Stealing"
    PERFORMER "Gavin DeGraw"
    INDEX 01 00:00:00
FILE "Sweeter\08 - Gavin DeGraw - Radiation.wav" WAVE
  TRACK 08 AUDIO
    TITLE "Radiation"
    PERFORMER "Gavin DeGraw"
    INDEX 01 00:00:00
FILE "Sweeter\09 - Gavin DeGraw - Where You Are.wav" WAVE
  TRACK 09 AUDIO
    TITLE "Where You Are"
    PERFORMER "Gavin DeGraw"
    INDEX 01 00:00:00
  TRACK 10 AUDIO
    TITLE "Spell It Out"
    PERFORMER "Gavin DeGraw"
    INDEX 00 04:19:34
FILE "Sweeter\10 - Gavin DeGraw - Spell It Out.wav" WAVE
    INDEX 01 00:00:00
Правила, инструкции, FAQ!!!
Торрент  Добавлен [26 мар 2019, 19:29] Скачать торрент Магнет ссылка
Скачать торрент
[ Размер 11.29 КБ / Просмотров 1 ]

Статус
Проверен 
 
Размер  261.14 МБ
Приватный: Нет (DHT включён)
.torrent скачан  0
 


     Отправить личное сообщение
   
Страница 1 из 1
Показать сообщения за:  Поле сортировки  
Начать новую тему Ответить на тему


Сейчас этот форум просматривают: нет зарегистрированных пользователей и гости: 0


Вы не можете начинать темы
Вы не можете отвечать на сообщения
Вы не можете редактировать свои сообщения
Вы не можете удалять свои сообщения
Вы не можете добавлять вложения

Перейти:  
cron