Начать новую тему Ответить на тему
Статистика раздачи
Размер: 336.08 МБ | Добавлен: 26 мар 2019, 20:16 | Скачали: 0
Сидеров: 0  [0 байт/сек]    Личеров: 0  [0 байт/сек]
Пред. тема | След. тема 

Автор
Сообщение

СообщениеДобавлено: 26 мар 2019, 20:16 

Ответить с цитатой 

Gavin DeGraw / Gavin DeGraw

Жанр: Pop-Rock / Alternative Rock
Страна-производитель диска: USA
Год издания: 2008
Издатель (лейбл): J Records
Страна: USA
Аудиокодек: FLAC (*.flac)
Тип рипа: tracks+.cue
Битрейт аудио: lossless
Продолжительность: 46:17
Источник (релизер): rodekool
Наличие сканов в содержимом раздачи: нет
Треклист:
01 In Love With A Girl
02 Next To Me (Wait A Minute Sister)
03 Cheated On Me
04 I Have You To Thank
05 Cop Stop
06 Young Love
07 Medicate The Kids
08 Relative
09 She Holds A Key
10 Untamed
11 Let It Go
12 We Belong Together
Код:
Exact Audio Copy V1.0 beta 1 from 15. November 2010
EAC extraction logfile from 28. May 2011, 14:29
Gavin DeGraw / Gavin DeGraw
Used drive  : HL-DT-STDVDRAM GSA-4120B   Adapter: 4  ID: 0
Read mode               : Secure
Utilize accurate stream : Yes
Defeat audio cache      : Yes
Make use of C2 pointers : No
Read offset correction                      : 667
Overread into Lead-In and Lead-Out          : No
Fill up missing offset samples with silence : Yes
Delete leading and trailing silent blocks   : No
Null samples used in CRC calculations       : Yes
Used interface                              : Native Win32 interface for Win NT & 2000
Gap handling                                : Appended to previous track
Used output format              : User Defined Encoder
Selected bitrate                : 320 kBit/s
Quality                         : High
Add ID3 tag                     : No
Command line compressor         : C:\Program Files (x86)\Exact Audio Copy\Flac\flac.exe
Additional command line options : -V -8 -T "artist=%a" -T "title=%t" -T "album=%g" -T "date=%y" -T "tracknumber=%n" -T "genre=%m" %s
TOC of the extracted CD
     Track |   Start  |  Length  | Start sector | End sector
    ---------------------------------------------------------
        1  |  0:00.00 |  3:27.09 |         0    |    15533
        2  |  3:27.09 |  3:26.44 |     15534    |    31027
        3  |  6:53.53 |  3:39.68 |     31028    |    47520
        4  | 10:33.46 |  3:27.24 |     47521    |    63069
        5  | 14:00.70 |  3:24.17 |     63070    |    78386
        6  | 17:25.12 |  4:08.59 |     78387    |    97045
        7  | 21:33.71 |  3:19.53 |     97046    |   112023
        8  | 24:53.49 |  4:12.57 |    112024    |   130980
        9  | 29:06.31 |  3:50.70 |    130981    |   148300
       10  | 32:57.26 |  4:00.11 |    148301    |   166311
       11  | 36:57.37 |  3:49.42 |    166312    |   183528
       12  | 40:47.04 |  5:30.36 |    183529    |   208314
       13  | 48:49.40 |  6:36.61 |    219715    |   249475
Track  1
     Filename O:\rips\Gavin DeGraw - Gavin DeGraw  ()\01 - In love with a girl.wav
     Pre-gap length  0:00:02.00
     Peak level 100.0 %
     Extraction speed 4.4 X
     Track quality 100.0 %
     Test CRC 0EEEB1BD
     Copy CRC 0EEEB1BD
     Accurately ripped (confidence 3)  [7EFF518B]
     Copy OK
Track  2
     Filename O:\rips\Gavin DeGraw - Gavin DeGraw  ()\02 - Next to me (wait a minute sister).wav
     Pre-gap length  0:00:01.12
     Peak level 100.0 %
     Extraction speed 4.7 X
     Track quality 100.0 %
     Test CRC 082BEA9F
     Copy CRC 082BEA9F
     Accurately ripped (confidence 3)  [DC58694C]
     Copy OK
Track  3
     Filename O:\rips\Gavin DeGraw - Gavin DeGraw  ()\03 - Cheated on me.wav
     Pre-gap length  0:00:00.94
     Peak level 100.0 %
     Extraction speed 5.4 X
     Track quality 100.0 %
     Test CRC 7073728C
     Copy CRC 7073728C
     Accurately ripped (confidence 3)  [3F1921FE]
     Copy OK
Track  4
     Filename O:\rips\Gavin DeGraw - Gavin DeGraw  ()\04 - I have you to thank.wav
     Peak level 100.0 %
     Extraction speed 5.1 X
     Track quality 100.0 %
     Test CRC 0E67626F
     Copy CRC 0E67626F
     Accurately ripped (confidence 3)  [D329D654]
     Copy OK
Track  5
     Filename O:\rips\Gavin DeGraw - Gavin DeGraw  ()\05 - Cop stop.wav
     Peak level 100.0 %
     Extraction speed 4.6 X
     Track quality 99.9 %
     Test CRC 07B11093
     Copy CRC 07B11093
     Accurately ripped (confidence 3)  [333AAAAC]
     Copy OK
Track  6
     Filename O:\rips\Gavin DeGraw - Gavin DeGraw  ()\06 - Young love.wav
     Peak level 100.0 %
     Extraction speed 6.3 X
     Track quality 100.0 %
     Test CRC A177D51F
     Copy CRC A177D51F
     Accurately ripped (confidence 3)  [694B2719]
     Copy OK
Track  7
     Filename O:\rips\Gavin DeGraw - Gavin DeGraw  ()\07 - Medicate the kids.wav
     Pre-gap length  0:00:01.06
     Peak level 100.0 %
     Extraction speed 6.2 X
     Track quality 100.0 %
     Test CRC 346551AB
     Copy CRC 346551AB
     Accurately ripped (confidence 2)  [9B8ED729]
     Copy OK
Track  8
     Filename O:\rips\Gavin DeGraw - Gavin DeGraw  ()\08 - Relative.wav
     Pre-gap length  0:00:01.61
     Peak level 100.0 %
     Extraction speed 6.8 X
     Track quality 100.0 %
     Test CRC 109615E5
     Copy CRC 109615E5
     Accurately ripped (confidence 3)  [CFD5F945]
     Copy OK
Track  9
     Filename O:\rips\Gavin DeGraw - Gavin DeGraw  ()\09 - She holds a key.wav
     Peak level 100.0 %
     Extraction speed 7.5 X
     Track quality 100.0 %
     Test CRC 10CFE9A5
     Copy CRC 10CFE9A5
     Accurately ripped (confidence 3)  [1D52743C]
     Copy OK
Track 10
     Filename O:\rips\Gavin DeGraw - Gavin DeGraw  ()\10 - Untamed.wav
     Peak level 100.0 %
     Extraction speed 7.8 X
     Track quality 100.0 %
     Test CRC CC4163E1
     Copy CRC CC4163E1
     Accurately ripped (confidence 3)  [1DB5737E]
     Copy OK
Track 11
     Filename O:\rips\Gavin DeGraw - Gavin DeGraw  ()\11 - Let it go.wav
     Peak level 100.0 %
     Extraction speed 7.7 X
     Track quality 100.0 %
     Test CRC F6E97D7C
     Copy CRC F6E97D7C
     Accurately ripped (confidence 3)  [6FD57B9B]
     Copy OK
Track 12
     Filename O:\rips\Gavin DeGraw - Gavin DeGraw  ()\12 - We belong together.wav
     Pre-gap length  0:00:01.01
     Peak level 100.0 %
     Extraction speed 8.8 X
     Track quality 100.0 %
     Test CRC 12E60FA0
     Copy CRC 12E60FA0
     Accurately ripped (confidence 2)  [F3F390EC]
     Copy OK
All tracks accurately ripped
No errors occurred
End of status report
Код:
REM GENRE Other
REM DISCID C10CFE0D
REM COMMENT "ExactAudioCopy v1.0b1"
FILE "01 - In love with a girl.wav" WAVE
  TRACK 01 AUDIO
    INDEX 01 00:00:00
  TRACK 02 AUDIO
    INDEX 00 03:26:00
FILE "02 - Next to me (wait a minute sister).wav" WAVE
    INDEX 01 00:00:00
  TRACK 03 AUDIO
    INDEX 00 03:25:48
FILE "03 - Cheated on me.wav" WAVE
    INDEX 01 00:00:00
FILE "04 - I have you to thank.wav" WAVE
  TRACK 04 AUDIO
    INDEX 01 00:00:00
FILE "05 - Cop stop.wav" WAVE
  TRACK 05 AUDIO
    INDEX 01 00:00:00
FILE "06 - Young love.wav" WAVE
  TRACK 06 AUDIO
    INDEX 01 00:00:00
  TRACK 07 AUDIO
    INDEX 00 04:07:54
FILE "07 - Medicate the kids.wav" WAVE
    INDEX 01 00:00:00
  TRACK 08 AUDIO
    INDEX 00 03:18:07
FILE "08 - Relative.wav" WAVE
    INDEX 01 00:00:00
FILE "09 - She holds a key.wav" WAVE
  TRACK 09 AUDIO
    INDEX 01 00:00:00
FILE "10 - Untamed.wav" WAVE
  TRACK 10 AUDIO
    INDEX 01 00:00:00
FILE "11 - Let it go.wav" WAVE
  TRACK 11 AUDIO
    INDEX 01 00:00:00
  TRACK 12 AUDIO
    INDEX 00 03:48:41
FILE "12 - We belong together.wav" WAVE
    INDEX 01 00:00:00
  TRACK 13 MODEx/2xxx
    INDEX 00 05:30:36
On his sophomore album the follow-up to 2003's slow-building platinum smash "Chariot" Gavin DeGraw deftly weaves together rock, pop and soul influences without letting the seams show. Courtesy of producer Howard Benson (Daughtry, P.O.D., My Chemical Romance), this 12-song set leans more on its rock muscle than anything else, with biting guitar chords punctuating DeGraw's taut and tuneful melodies in the opening track and first single, "In Love With a Girl," to such classic rock-aping pieces as "Relative." DeGraw's soulful vocal swoops stand out on "I Have You to Thank," while his balladeer side emotes on "Young Love" and "Let It Go." "We Belong Together" moves from an anthemic start into a delicate dynamic build that provides a master class in DeGraw's deft straddle between craft and passion.
Правила, инструкции, FAQ!!!
Торрент  Добавлен [26 мар 2019, 20:16] Скачать торрент Магнет ссылка
Скачать торрент
[ Размер 14.37 КБ / Просмотров 1 ]

Статус
Проверен 
 
Размер  336.08 МБ
Приватный: Нет (DHT включён)
.torrent скачан  0
 


     Отправить личное сообщение
   
Страница 1 из 1
Показать сообщения за:  Поле сортировки  
Начать новую тему Ответить на тему


Сейчас этот форум просматривают: нет зарегистрированных пользователей и гости: 0


Вы не можете начинать темы
Вы не можете отвечать на сообщения
Вы не можете редактировать свои сообщения
Вы не можете удалять свои сообщения
Вы не можете добавлять вложения

Перейти:  
cron