Начать новую тему Ответить на тему
Статистика раздачи
Размер: 322.18 МБ | Добавлен: 26 мар 2019, 19:26 | Скачали: 0
Сидеров: 0  [0 байт/сек]    Личеров: 0  [0 байт/сек]
Пред. тема | След. тема 

Автор
Сообщение

СообщениеДобавлено: 26 мар 2019, 19:26 

Ответить с цитатой 

Gabriel Bruce - Love In Arms
Жанр: Pop-Rock / Alternative Rock
Год выпуска диска: 2013
Производитель диска: Mercury
Аудио кодек: FLAC
Тип рипа: tracks+.cue
Битрейт аудио: lossless
Source: CD
Продолжительность: 49:37
Трэклист:
01. Dark Lights, Shine Loud
02. Honey Honey Honey
03. Sleep Paralysis
04. Greedy Little Heart
05. El Musgo
06. Zoe
07. Cars Not Leaving
08. All That I Have
09. If Only In Words
10. Perfect Weather
11. Sermon On The Mount
Код:
Exact Audio Copy V1.0 beta 3 from 29. August 2011
EAC extraction logfile from 5. July 2013, 12:12
Gabriel Bruce / Love In Arms
Used drive  : PLEXTOR DVDR   PX-760A   Adapter: 3  ID: 0
Read mode               : Secure
Utilize accurate stream : Yes
Defeat audio cache      : Yes
Make use of C2 pointers : No
Read offset correction                      : 30
Overread into Lead-In and Lead-Out          : Yes
Fill up missing offset samples with silence : Yes
Delete leading and trailing silent blocks   : No
Null samples used in CRC calculations       : Yes
Used interface                              : Native Win32 interface for Win NT & 2000
Gap handling                                : Appended to previous track
Used output format              : User Defined Encoder
Selected bitrate                : 1024 kBit/s
Quality                         : High
Add ID3 tag                     : No
Command line compressor         : C:\Program Files (x86)\Exact Audio Copy\Flac\flac.exe
Additional command line options : -8 -V -T "ARTIST=%artist%" -T "TITLE=%title%" -T "ALBUM=%albumtitle%" -T "DATE=%year%" -T "TRACKNUMBER=%tracknr%" -T "GENRE=%genre%" -T "PERFORMER=%albuminterpret%" -T "COMPOSER=%composer%" %haslyrics%--tag-from-file=LYRICS="%lyricsfile%"%haslyrics% -T "ALBUMARTIST=%albumartist%" -T "ALBUM ARTIST=%albumartist%" -T "DISCNUMBER=%cdnumber%" -T "TOTALDISCS=%totalcds%" -T "TOTALTRACKS=%numtracks%" -T "COMMENT=%comment%" %source% -o %dest%
TOC of the extracted CD
     Track |   Start  |  Length  | Start sector | End sector
    ---------------------------------------------------------
        1  |  0:00.00 |  4:38.39 |         0    |    20888
        2  |  4:38.39 |  3:28.68 |     20889    |    36556
        3  |  8:07.32 |  4:17.39 |     36557    |    55870
        4  | 12:24.71 |  4:48.15 |     55871    |    77485
        5  | 17:13.11 |  5:46.67 |     77486    |   103502
        6  | 23:00.03 |  3:51.26 |    103503    |   120853
        7  | 26:51.29 |  4:29.54 |    120854    |   141082
        8  | 31:21.08 |  5:58.21 |    141083    |   167953
        9  | 37:19.29 |  4:34.51 |    167954    |   188554
       10  | 41:54.05 |  4:14.10 |    188555    |   207614
       11  | 46:08.15 |  3:34.16 |    207615    |   223680
Track  1
     Filename C:\EACRips\01 Dark Lights, Shine Loud.wav
     Pre-gap length  0:00:02.00
     Peak level 100.0 %
     Extraction speed 1.6 X
     Track quality 99.9 %
     Test CRC A5495CFE
     Copy CRC A5495CFE
     Track not present in AccurateRip database
     Copy OK
Track  2
     Filename C:\EACRips\02 Honey Honey Honey.wav
     Peak level 97.6 %
     Extraction speed 2.1 X
     Track quality 100.0 %
     Test CRC 76F6EB6B
     Copy CRC 76F6EB6B
     Track not present in AccurateRip database
     Copy OK
Track  3
     Filename C:\EACRips\03 Sleep Paralysis.wav
     Peak level 100.0 %
     Extraction speed 2.2 X
     Track quality 100.0 %
     Test CRC 22EA0C58
     Copy CRC 22EA0C58
     Track not present in AccurateRip database
     Copy OK
Track  4
     Filename C:\EACRips\04 Greedy Little Heart.wav
     Peak level 98.4 %
     Extraction speed 2.2 X
     Track quality 100.0 %
     Test CRC F7EE1ACF
     Copy CRC F7EE1ACF
     Track not present in AccurateRip database
     Copy OK
Track  5
     Filename C:\EACRips\05 El Musgo.wav
     Peak level 97.4 %
     Extraction speed 1.7 X
     Track quality 99.9 %
     Test CRC 5CBEDF15
     Copy CRC 5CBEDF15
     Track not present in AccurateRip database
     Copy OK
Track  6
     Filename C:\EACRips\06 Zoe.wav
     Peak level 98.4 %
     Extraction speed 2.2 X
     Track quality 100.0 %
     Test CRC 153FB3FC
     Copy CRC 153FB3FC
     Track not present in AccurateRip database
     Copy OK
Track  7
     Filename C:\EACRips\07 Cars Not Leaving.wav
     Peak level 97.5 %
     Extraction speed 2.2 X
     Track quality 100.0 %
     Test CRC 2A715AC9
     Copy CRC 2A715AC9
     Track not present in AccurateRip database
     Copy OK
Track  8
     Filename C:\EACRips\08 All That I Hate.wav
     Peak level 96.0 %
     Extraction speed 2.3 X
     Track quality 100.0 %
     Test CRC 21458A21
     Copy CRC 21458A21
     Track not present in AccurateRip database
     Copy OK
Track  9
     Filename C:\EACRips\09 If Only In Words.wav
     Peak level 96.1 %
     Extraction speed 2.2 X
     Track quality 100.0 %
     Test CRC 3DCE96BF
     Copy CRC 3DCE96BF
     Track not present in AccurateRip database
     Copy OK
Track 10
     Filename C:\EACRips\10 Perfect Weather.wav
     Peak level 97.6 %
     Extraction speed 2.2 X
     Track quality 100.0 %
     Test CRC CAF2B2E3
     Copy CRC CAF2B2E3
     Track not present in AccurateRip database
     Copy OK
Track 11
     Filename C:\EACRips\11 Sermon On The Mount.wav
     Peak level 100.0 %
     Extraction speed 2.5 X
     Track quality 100.0 %
     Test CRC D13E24CB
     Copy CRC D13E24CB
     Track not present in AccurateRip database
     Copy OK
None of the tracks are present in the AccurateRip database
No errors occurred
End of status report
---- CUETools DB Plugin V2.1.3
[CTDB TOCID: V0DoncZC52JwWmtZc5NHHY0dxq4-] disk not present in database, Submit result: V0DoncZC52JwWmtZc5NHHY0dxq4- has been uploaded
==== Log checksum F8F9173131DC98BBC5C8844D78215CA0E944F05835299672FF8A86D202F4375F ====
Код:
REM GENRE Indie
REM DATE 2013
REM DISCID 8F0BA60B
REM COMMENT "ExactAudioCopy v1.0b3"
PERFORMER "Gabriel Bruce"
TITLE "Love In Arms"
FILE "01 Dark Lights, Shine Loud.wav" WAVE
  TRACK 01 AUDIO
    TITLE "Dark Lights, Shine Loud"
    PERFORMER "Gabriel Bruce"
    ISRC GBUM71201623
    INDEX 01 00:00:00
FILE "02 Honey Honey Honey.wav" WAVE
  TRACK 02 AUDIO
    TITLE "Honey Honey Honey"
    PERFORMER "Gabriel Bruce"
    ISRC GBUM71203202
    INDEX 01 00:00:00
FILE "03 Sleep Paralysis.wav" WAVE
  TRACK 03 AUDIO
    TITLE "Sleep Paralysis"
    PERFORMER "Gabriel Bruce"
    ISRC GBUM71110286
    INDEX 01 00:00:00
FILE "04 Greedy Little Heart.wav" WAVE
  TRACK 04 AUDIO
    TITLE "Greedy Little Heart"
    PERFORMER "Gabriel Bruce"
    ISRC GBUM71203817
    INDEX 01 00:00:00
FILE "05 El Musgo.wav" WAVE
  TRACK 05 AUDIO
    TITLE "El Musgo"
    PERFORMER "Gabriel Bruce"
    ISRC GBUM71203236
    INDEX 01 00:00:00
FILE "06 Zoe.wav" WAVE
  TRACK 06 AUDIO
    TITLE "Zoe"
    PERFORMER "Gabriel Bruce"
    ISRC GBUM71203204
    INDEX 01 00:00:00
FILE "07 Cars Not Leaving.wav" WAVE
  TRACK 07 AUDIO
    TITLE "Cars Not Leaving"
    PERFORMER "Gabriel Bruce"
    ISRC GBUM71203203
    INDEX 01 00:00:00
FILE "08 All That I Hate.wav" WAVE
  TRACK 08 AUDIO
    TITLE "All That I Hate"
    PERFORMER "Gabriel Bruce"
    ISRC GBUM71203819
    INDEX 01 00:00:00
FILE "09 If Only In Words.wav" WAVE
  TRACK 09 AUDIO
    TITLE "If Only In Words"
    PERFORMER "Gabriel Bruce"
    ISRC GBUM71203820
    INDEX 01 00:00:00
FILE "10 Perfect Weather.wav" WAVE
  TRACK 10 AUDIO
    TITLE "Perfect Weather"
    PERFORMER "Gabriel Bruce"
    ISRC GBUM71203235
    INDEX 01 00:00:00
FILE "11 Sermon On The Mount.wav" WAVE
  TRACK 11 AUDIO
    TITLE "Sermon On The Mount"
    PERFORMER "Gabriel Bruce"
    ISRC GBUM71203821
    INDEX 01 00:00:00
Код:
Started at: пятница, 11. 11. 2016. - 22:49.23
11 files found
01 -===- I:\Раздачи\Music\Gabriel Bruce - Love In Arms (2013) FLAC\01 Dark Lights, Shine Loud.flac
  Extracted successfully
  Conclusion: this track is CDDA with probability 100%
  Tempfile successfully deleted.
02 -===- I:\Раздачи\Music\Gabriel Bruce - Love In Arms (2013) FLAC\02 Honey Honey Honey.flac
  Extracted successfully
  Conclusion: this track is CDDA with probability 100%
  Tempfile successfully deleted.
03 -===- I:\Раздачи\Music\Gabriel Bruce - Love In Arms (2013) FLAC\03 Sleep Paralysis.flac
  Extracted successfully
  Conclusion: this track is CDDA with probability 100%
  Tempfile successfully deleted.
04 -===- I:\Раздачи\Music\Gabriel Bruce - Love In Arms (2013) FLAC\04 Greedy Little Heart.flac
  Extracted successfully
  Conclusion: this track is CDDA with probability 100%
  Tempfile successfully deleted.
05 -===- I:\Раздачи\Music\Gabriel Bruce - Love In Arms (2013) FLAC\05 El Musgo.flac
  Extracted successfully
  Conclusion: this track is CDDA with probability 99%
  Tempfile successfully deleted.
06 -===- I:\Раздачи\Music\Gabriel Bruce - Love In Arms (2013) FLAC\06 Zoe.flac
  Extracted successfully
  Conclusion: this track is CDDA with probability 100%
  Tempfile successfully deleted.
07 -===- I:\Раздачи\Music\Gabriel Bruce - Love In Arms (2013) FLAC\07 Cars Not Leaving.flac
  Extracted successfully
  Conclusion: this track is CDDA with probability 100%
  Tempfile successfully deleted.
08 -===- I:\Раздачи\Music\Gabriel Bruce - Love In Arms (2013) FLAC\08 All That I Hate.flac
  Extracted successfully
  Conclusion: this track is CDDA with probability 100%
  Tempfile successfully deleted.
09 -===- I:\Раздачи\Music\Gabriel Bruce - Love In Arms (2013) FLAC\09 If Only In Words.flac
  Extracted successfully
  Conclusion: this track is CDDA with probability 100%
  Tempfile successfully deleted.
10 -===- I:\Раздачи\Music\Gabriel Bruce - Love In Arms (2013) FLAC\10 Perfect Weather.flac
  Extracted successfully
  Conclusion: this track is CDDA with probability 100%
  Tempfile successfully deleted.
11 -===- I:\Раздачи\Music\Gabriel Bruce - Love In Arms (2013) FLAC\11 Sermon On The Mount.flac
  Extracted successfully
  Conclusion: this track is CDDA with probability 100%
  Tempfile successfully deleted.
Finished at: пятница, 11. 11. 2016. - 22:52.59 (operation time: 0:03.35)
Правила, инструкции, FAQ!!!
Торрент  Добавлен [26 мар 2019, 19:26] Скачать торрент Магнет ссылка
Скачать торрент
[ Размер 13.76 КБ / Просмотров 2 ]

Статус
Проверен 
 
Размер  322.18 МБ
Приватный: Нет (DHT включён)
.torrent скачан  0
 


     Отправить личное сообщение
   
Страница 1 из 1
Показать сообщения за:  Поле сортировки  
Начать новую тему Ответить на тему


Сейчас этот форум просматривают: нет зарегистрированных пользователей и гости: 0


Вы не можете начинать темы
Вы не можете отвечать на сообщения
Вы не можете редактировать свои сообщения
Вы не можете удалять свои сообщения
Вы не можете добавлять вложения

Перейти:  
cron