Начать новую тему Ответить на тему
Статистика раздачи
Размер: 324.79 МБ | Добавлен: 26 мар 2019, 21:07 | Скачали: 1
Сидеров: 4  [0 байт/сек]    Личеров: 1  [0 байт/сек]
Пред. тема | След. тема 

Автор
Сообщение

СообщениеДобавлено: 26 мар 2019, 21:07 

Ответить с цитатой 

Divinyls / Essential
Жанр: Pop Rock/Alternative Rock
Носитель: CD
Страна-производитель диска (релиза): USA for Australia (?)
Год издания: 1991
Издатель (лейбл): Chrysalis
Номер по каталогу: 321846-2
Страна исполнителя (группы): Australia
Аудиокодек: FLAC (*.flac)
Тип рипа: image+.cue
Битрейт аудио: lossless
Продолжительность: 00:46:33
Источник (релизер): Own CD & Rip
Наличие сканов в содержимом раздачи: нет

Треклист:
01. Pleasure And Pain
02. Temperamental
03. Back To The Wall
04. Only Lonely
05. Punxsie
06. Don't You Go Walking
07. Boys In Town
08. Hey Little Boy
09. Science Fiction
10. Sleeping Beauty
11. Casual Encounter
12. I'll Make You Happy

Код:
Exact Audio Copy V1.0 beta 6 from 9. April 2015
EAC extraction logfile from 15. January 2016, 15:46
Divinyls / Essential
Used drive  : HL-DT-STDVDRAM GH22NS40   Adapter: 1  ID: 0
Read mode               : Secure
Utilize accurate stream : Yes
Defeat audio cache      : Yes
Make use of C2 pointers : No
Read offset correction                      : 667
Overread into Lead-In and Lead-Out          : No
Fill up missing offset samples with silence : Yes
Delete leading and trailing silent blocks   : No
Null samples used in CRC calculations       : Yes
Used interface                              : Native Win32 interface for Win NT & 2000
Used output format              : User Defined Encoder
Selected bitrate                : 1024 kBit/s
Quality                         : High
Add ID3 tag                     : Yes
Command line compressor         : C:\Program Files\Exact Audio Copy\Flac\flac.exe
Additional command line options : -V -8 -T "Date=%year%" -T "Genre=%genre%" %source%
TOC of the extracted CD
     Track |   Start  |  Length  | Start sector | End sector
    ---------------------------------------------------------
        1  |  0:00.00 |  3:52.00 |         0    |    17399
        2  |  3:52.00 |  4:30.62 |     17400    |    37711
        3  |  8:22.62 |  4:40.73 |     37712    |    58784
        4  | 13:03.60 |  3:14.55 |     58785    |    73389
        5  | 16:18.40 |  4:15.62 |     73390    |    92576
        6  | 20:34.27 |  6:04.05 |     92577    |   119881
        7  | 26:38.32 |  2:51.73 |    119882    |   132779
        8  | 29:30.30 |  3:23.00 |    132780    |   148004
        9  | 32:53.30 |  3:32.72 |    148005    |   163976
       10  | 36:26.27 |  3:41.08 |    163977    |   180559
       11  | 40:07.35 |  3:06.37 |    180560    |   194546
       12  | 43:13.72 |  3:18.15 |    194547    |   209411
Range status and errors
Selected range
     Filename I:\Rips\Divinyls - Essential.wav
     Peak level 95.5 %
     Extraction speed 1.8 X
     Range quality 99.9 %
     Test CRC 206AE9B3
     Copy CRC 206AE9B3
     Copy OK
No errors occurred
AccurateRip summary
Track  1  accurately ripped (confidence 4)  [16A8C1B5]  (AR v2)
Track  2  accurately ripped (confidence 4)  [E72A9124]  (AR v2)
Track  3  accurately ripped (confidence 4)  [62D22D7A]  (AR v2)
Track  4  accurately ripped (confidence 4)  [719FE898]  (AR v2)
Track  5  accurately ripped (confidence 4)  [00C0654A]  (AR v2)
Track  6  accurately ripped (confidence 4)  [3C6779B4]  (AR v2)
Track  7  accurately ripped (confidence 4)  [6C207E03]  (AR v2)
Track  8  accurately ripped (confidence 4)  [7174AC56]  (AR v2)
Track  9  accurately ripped (confidence 4)  [2CFD51AE]  (AR v2)
Track 10  accurately ripped (confidence 4)  [E6AA9164]  (AR v2)
Track 11  accurately ripped (confidence 4)  [754D3085]  (AR v2)
Track 12  accurately ripped (confidence 4)  [C0D5E3D9]  (AR v2)
All tracks accurately ripped
End of status report
---- CUETools DB Plugin V2.1.6
[CTDB TOCID: StAUV7ccLAD23DjzbdAwmSCAM5w-] found
Submit result: already submitted
Track | CTDB Status
  1   | (5/5) Accurately ripped
  2   | (5/5) Accurately ripped
  3   | (5/5) Accurately ripped
  4   | (5/5) Accurately ripped
  5   | (5/5) Accurately ripped
  6   | (5/5) Accurately ripped
  7   | (5/5) Accurately ripped
  8   | (5/5) Accurately ripped
  9   | (5/5) Accurately ripped
 10   | (5/5) Accurately ripped
 11   | (5/5) Accurately ripped
 12   | (5/5) Accurately ripped
==== Log checksum 894D71412BC5311BC4F2089791A1081E412B842A73149EC80FC2F1F2CBE72F58 ====
Код:
[CUETools log; Date: 15.01.2016 16:45:03; Version: 2.1.5]
[CTDB TOCID: StAUV7ccLAD23DjzbdAwmSCAM5w-] found.
Track | CTDB Status
  1   | (5/5) Accurately ripped
  2   | (5/5) Accurately ripped
  3   | (5/5) Accurately ripped
  4   | (5/5) Accurately ripped
  5   | (5/5) Accurately ripped
  6   | (5/5) Accurately ripped
  7   | (5/5) Accurately ripped
  8   | (5/5) Accurately ripped
  9   | (5/5) Accurately ripped
 10   | (5/5) Accurately ripped
 11   | (5/5) Accurately ripped
 12   | (5/5) Accurately ripped
[AccurateRip ID: 0015ce23-00c9bfa6-aa0ae80c] found.
Track   [  CRC   |   V2   ] Status
 01     [eb745fef|16a8c1b5] (2+4/6) Accurately ripped
 02     [6add86f2|e72a9124] (2+4/6) Accurately ripped
 03     [0d8416cb|62d22d7a] (2+4/6) Accurately ripped
 04     [6879b8c0|719fe898] (2+4/6) Accurately ripped
 05     [f362ccf3|00c0654a] (2+4/6) Accurately ripped
 06     [702942ac|3c6779b4] (2+4/6) Accurately ripped
 07     [4d5e754a|6c207e03] (2+4/6) Accurately ripped
 08     [3849f247|7174ac56] (2+4/6) Accurately ripped
 09     [b91b9e1a|2cfd51ae] (2+4/6) Accurately ripped
 10     [22b4dba4|e6aa9164] (2+4/6) Accurately ripped
 11     [de426b07|754d3085] (2+4/6) Accurately ripped
 12     [4cbda64d|c0d5e3d9] (2+4/6) Accurately ripped
Track Peak [ CRC32  ] [W/O NULL] [  LOG   ]
 --   95,5 [206AE9B3] [E930F23B]   CRC32
 01   89,1 [5A705037] [B8DFAD6F]
 02   89,1 [1D68FB2C] [591A110C]
 03   89,1 [14866175] [AF111432]
 04   89,1 [66A4969A] [A4072AE2]
 05   89,1 [E159EA88] [C0654085]
 06   89,0 [E0CF40B0] [8740D20C]
 07   88,2 [D0111D3B] [AF8684E5]
 08   95,5 [5F4BE00C] [E403708E]
 09   95,5 [A99EF211] [83F472C8]
 10   95,4 [3FC80995] [694AD1C4]
 11   95,5 [83C13633] [7766ECE8]
 12   95,5 [A62FAA54] [CFC40C7C]
CD был прислан из Австралии без футляра и полиграфии. Точно определить страну производителя не могу. На матрице Disctronics USA. Возможно это США для Австралии.
Правила, инструкции, FAQ!!!
Торрент  Добавлен [26 мар 2019, 21:07] Скачать торрент Магнет ссылка
Скачать торрент
[ Размер 13.53 КБ / Просмотров 4 ]

Статус
Проверен 
 
Размер  324.79 МБ
Приватный: Нет (DHT включён)
.torrent скачан  1
 


     Отправить личное сообщение
   
Страница 1 из 1
Показать сообщения за:  Поле сортировки  
Начать новую тему Ответить на тему


Сейчас этот форум просматривают: нет зарегистрированных пользователей и гости: 0


Вы не можете начинать темы
Вы не можете отвечать на сообщения
Вы не можете редактировать свои сообщения
Вы не можете удалять свои сообщения
Вы не можете добавлять вложения

Перейти:  
cron