Начать новую тему Ответить на тему
Статистика раздачи
Размер: 236.39 МБ | Добавлен: 26 мар 2019, 18:54 | Скачали: 0
Сидеров: 0  [0 байт/сек]    Личеров: 0  [0 байт/сек]
Пред. тема | След. тема 

Автор
Сообщение

СообщениеДобавлено: 26 мар 2019, 18:54 

Ответить с цитатой 

Point of Grace - A Thousand Little Things

Жанр: Pop-Rock, Alternative
Страна-производитель диска: US
Год издания диска: May 1, 2012
Издатель (лейбл): Word
Аудиокодек: FLAC (*.flac)
Тип рипа: tracks
Битрейт аудио: lossless
Продолжительность: 34:48
Источник (релизер): what.cd
Наличие сканов в содержимом раздачи: Нет
Треклист:
1. Good Enough (3:02)
2. Heaven Knows (3:19)
3. A Thousand Little Things (2:41)
4. Only Jesus (3:48)
5. What I Already Know (3:51)
6. Might Be Today (3:12)
7. Wash Me Away (3:03)
8. You Be The One (4:03)
9. I Believe In You (Dedication Song) (4:10)
10. Saving Jesus (3:33)
Код:
Exact Audio Copy V1.0 beta 3 from 29. August 2011
EAC extraction logfile from 26. May 2012, 11:57
Point of Grace / A Thousand Little Things
Used drive  : PLEXTOR DVDR   PX-880U   Adapter: 1  ID: 0
Read mode               : Secure
Utilize accurate stream : Yes
Defeat audio cache      : Yes
Make use of C2 pointers : No
Read offset correction                      : 6
Overread into Lead-In and Lead-Out          : No
Fill up missing offset samples with silence : Yes
Delete leading and trailing silent blocks   : No
Null samples used in CRC calculations       : Yes
Used interface                              : Native Win32 interface for Win NT & 2000
Gap handling                                : Appended to previous track
Used output format              : User Defined Encoder
Selected bitrate                : 768 kBit/s
Quality                         : High
Add ID3 tag                     : No
Command line compressor         : C:\Program Files\Exact Audio Copy\FLAC\FLAC.EXE
Additional command line options : -8 -V -T "ARTIST=%artist%" -T "TITLE=%title%" -T "ALBUM=%albumtitle%" -T "DATE=%year%" -T "TRACKNUMBER=%tracknr%" -T "GENRE=%genre%" -T "COMMENT=%comment%" -T "BAND=%albuminterpret%" -T "ALBUMARTIST=%albuminterpret%" -T "COMPOSER=%composer%" %haslyrics%--tag-from-file=LYRICS="%lyricsfile%"%haslyrics% -T "DISCNUMBER=%cdnumber%" -T "TOTALDISCS=%totalcds%" -T "TOTALTRACKS=%numtracks%" %hascover%--picture="%coverfile%"%hascover% %source% -o %dest%
TOC of the extracted CD
     Track |   Start  |  Length  | Start sector | End sector
    ---------------------------------------------------------
        1  |  0:00.00 |  3:03.17 |         0    |    13741
        2  |  3:03.17 |  3:19.59 |     13742    |    28725
        3  |  6:23.01 |  2:41.35 |     28726    |    40835
        4  |  9:04.36 |  3:49.29 |     40836    |    58039
        5  | 12:53.65 |  3:52.37 |     58040    |    75476
        6  | 16:46.27 |  3:13.33 |     75477    |    89984
        7  | 19:59.60 |  3:03.27 |     89985    |   103736
        8  | 23:03.12 |  4:05.01 |    103737    |   122112
        9  | 27:08.13 |  4:10.58 |    122113    |   140920
       10  | 31:18.71 |  3:33.02 |    140921    |   156897
Track  1
     Filename C:\Users\Onwer\Desktop\What.CD Torrents\Files\Point of Grace - A Thousand Little Things\01. Point of Grace - Good Enough.wav
     Pre-gap length  0:00:02.00
     Peak level 99.9 %
     Extraction speed 1.2 X
     Track quality 99.9 %
     Test CRC 6001B913
     Copy CRC 6001B913
     Track not present in AccurateRip database
     Copy OK
Track  2
     Filename C:\Users\Onwer\Desktop\What.CD Torrents\Files\Point of Grace - A Thousand Little Things\02. Point of Grace - Heaven Knows.wav
     Pre-gap length  0:00:00.77
     Peak level 99.9 %
     Extraction speed 1.9 X
     Track quality 100.0 %
     Test CRC 914488E1
     Copy CRC 914488E1
     Track not present in AccurateRip database
     Copy OK
Track  3
     Filename C:\Users\Onwer\Desktop\What.CD Torrents\Files\Point of Grace - A Thousand Little Things\03. Point of Grace - A Thousand Little Things.wav
     Pre-gap length  0:00:00.58
     Peak level 99.8 %
     Extraction speed 2.0 X
     Track quality 100.0 %
     Test CRC 14D29B79
     Copy CRC 14D29B79
     Track not present in AccurateRip database
     Copy OK
Track  4
     Filename C:\Users\Onwer\Desktop\What.CD Torrents\Files\Point of Grace - A Thousand Little Things\04. Point of Grace - Only Jesus.wav
     Pre-gap length  0:00:00.48
     Peak level 99.9 %
     Extraction speed 1.7 X
     Track quality 99.9 %
     Test CRC 3A183F26
     Copy CRC 3A183F26
     Track not present in AccurateRip database
     Copy OK
Track  5
     Filename C:\Users\Onwer\Desktop\What.CD Torrents\Files\Point of Grace - A Thousand Little Things\05. Point of Grace - What I Already Know.wav
     Pre-gap length  0:00:00.69
     Peak level 84.7 %
     Extraction speed 2.5 X
     Track quality 100.0 %
     Test CRC 5730EEE4
     Copy CRC 5730EEE4
     Track not present in AccurateRip database
     Copy OK
Track  6
     Filename C:\Users\Onwer\Desktop\What.CD Torrents\Files\Point of Grace - A Thousand Little Things\06. Point of Grace - Might Be Today.wav
     Pre-gap length  0:00:00.68
     Peak level 99.9 %
     Extraction speed 2.5 X
     Track quality 100.0 %
     Test CRC 6CEC24B5
     Copy CRC 6CEC24B5
     Track not present in AccurateRip database
     Copy OK
Track  7
     Filename C:\Users\Onwer\Desktop\What.CD Torrents\Files\Point of Grace - A Thousand Little Things\07. Point of Grace - Wash Me Away.wav
     Pre-gap length  0:00:01.00
     Peak level 99.9 %
     Extraction speed 2.6 X
     Track quality 100.0 %
     Test CRC 3B838CB3
     Copy CRC 3B838CB3
     Track not present in AccurateRip database
     Copy OK
Track  8
     Filename C:\Users\Onwer\Desktop\What.CD Torrents\Files\Point of Grace - A Thousand Little Things\08. Point of Grace - You Be The One.wav
     Pre-gap length  0:00:00.05
     Peak level 99.9 %
     Extraction speed 2.1 X
     Track quality 99.9 %
     Test CRC 25F01F5B
     Copy CRC 25F01F5B
     Track not present in AccurateRip database
     Copy OK
Track  9
     Filename C:\Users\Onwer\Desktop\What.CD Torrents\Files\Point of Grace - A Thousand Little Things\09. Point of Grace - I Believe in You (Dedication Song).wav
     Pre-gap length  0:00:01.12
     Peak level 99.9 %
     Extraction speed 3.0 X
     Track quality 100.0 %
     Test CRC F7804D66
     Copy CRC F7804D66
     Track not present in AccurateRip database
     Copy OK
Track 10
     Filename C:\Users\Onwer\Desktop\What.CD Torrents\Files\Point of Grace - A Thousand Little Things\10. Point of Grace - Saving Jesus.wav
     Peak level 99.9 %
     Extraction speed 3.0 X
     Track quality 100.0 %
     Test CRC A18D5A9E
     Copy CRC A18D5A9E
     Track not present in AccurateRip database
     Copy OK
None of the tracks are present in the AccurateRip database
No errors occurred
End of status report
==== Log checksum 6F089C4CD8394AE871EF8A1B6F609A7D2CF99A7F89EAC6022B0629576349BB53 ====

Код:
REM GENRE "Contemporary Christian"
REM DATE 2012
REM DISCID 7B082B0A
REM COMMENT "ExactAudioCopy v1.0b3"
PERFORMER "Point of Grace"
TITLE "A Thousand Little Things"
FILE "01. Point of Grace - Good Enough.wav" WAVE
  TRACK 01 AUDIO
    TITLE "Good Enough"
    PERFORMER "Point of Grace"
    INDEX 01 00:00:00
  TRACK 02 AUDIO
    TITLE "Heaven Knows"
    PERFORMER "Point of Grace"
    INDEX 00 03:02:34
FILE "02. Point of Grace - Heaven Knows.wav" WAVE
    INDEX 01 00:00:00
  TRACK 03 AUDIO
    TITLE "A Thousand Little Things"
    PERFORMER "Point of Grace"
    INDEX 00 03:19:15
FILE "03. Point of Grace - A Thousand Little Things.wav" WAVE
    INDEX 01 00:00:00
  TRACK 04 AUDIO
    TITLE "Only Jesus"
    PERFORMER "Point of Grace"
    INDEX 00 02:40:74
FILE "04. Point of Grace - Only Jesus.wav" WAVE
    INDEX 01 00:00:00
  TRACK 05 AUDIO
    TITLE "What I Already Know"
    PERFORMER "Point of Grace"
    INDEX 00 03:48:52
FILE "05. Point of Grace - What I Already Know.wav" WAVE
    INDEX 01 00:00:00
  TRACK 06 AUDIO
    TITLE "Might Be Today"
    PERFORMER "Point of Grace"
    INDEX 00 03:51:61
FILE "06. Point of Grace - Might Be Today.wav" WAVE
    INDEX 01 00:00:00
  TRACK 07 AUDIO
    TITLE "Wash Me Away"
    PERFORMER "Point of Grace"
    INDEX 00 03:12:33
FILE "07. Point of Grace - Wash Me Away.wav" WAVE
    INDEX 01 00:00:00
  TRACK 08 AUDIO
    TITLE "You Be The One"
    PERFORMER "Point of Grace"
    INDEX 00 03:03:23
FILE "08. Point of Grace - You Be The One.wav" WAVE
    INDEX 01 00:00:00
  TRACK 09 AUDIO
    TITLE "I Believe in You (Dedication Song)"
    PERFORMER "Point of Grace"
    INDEX 00 04:03:67
FILE "09. Point of Grace - I Believe in You (Dedication Song).wav" WAVE
    INDEX 01 00:00:00
FILE "10. Point of Grace - Saving Jesus.wav" WAVE
  TRACK 10 AUDIO
    TITLE "Saving Jesus"
    PERFORMER "Point of Grace"
    INDEX 01 00:00:00

Правила, инструкции, FAQ!!!
Торрент  Добавлен [26 мар 2019, 18:54] Скачать торрент Магнет ссылка
Скачать торрент
[ Размер 19.82 КБ / Просмотров 1 ]

Статус
Проверен 
 
Размер  236.39 МБ
Приватный: Нет (DHT включён)
.torrent скачан  0
 


     Отправить личное сообщение
   
Страница 1 из 1
Показать сообщения за:  Поле сортировки  
Начать новую тему Ответить на тему


Сейчас этот форум просматривают: нет зарегистрированных пользователей и гости: 0


Вы не можете начинать темы
Вы не можете отвечать на сообщения
Вы не можете редактировать свои сообщения
Вы не можете удалять свои сообщения
Вы не можете добавлять вложения

Перейти:  
cron