Начать новую тему Ответить на тему
Статистика раздачи
Размер: 334.3 МБ | Добавлен: 26 мар 2019, 19:32 | Скачали: 0
Сидеров: 0  [0 байт/сек]    Личеров: 0  [0 байт/сек]
Пред. тема | След. тема 

Автор
Сообщение

СообщениеДобавлено: 26 мар 2019, 19:32 

Ответить с цитатой 

Mêlée / Devils & Angels
Жанр: Pop-Rock, Alternative, Piano Pop
Страна-производитель диска: ? [EU]
Год издания: 2007
Издатель (лейбл): Warner Bros. Records
Страна: USA
Аудиокодек: FLAC (*.flac)
Тип рипа: tracks+.cue
Битрейт аудио: lossless
Продолжительность: 00:45:19
Источник (релизер): What.CD (v0lrath)
Наличие сканов в содержимом раздачи: да
Треклист:
01 - Built to Last (3:42)
02 - Rhythm of Rain (3:41)
03 - Frequently Baby (She's a Teenage Maniac) (2:51)
04 - For a Lifetime (3:41)
05 - Drive Away (3:20)
06 - Can't Hold On (4:39)
07 - Imitation (3:33)
08 - Love Carries On (3:12)
09 - She's Gonna Find Me Here (3:38)
10 - Biggest Mistake (2:41)
11 - You Got (3:08)
12 - Stand Up (4:11)
13 - You Make My Dreams [Bonus Track] (3:02)
Код:
Exact Audio Copy V0.99 prebeta 4 from 23. January 2008
EAC extraction logfile from 24. July 2008, 11:23
Melee / Devils & Angels
Used drive  : HL-DT-STDVD+-RW GSA-T21N   Adapter: 0  ID: 0
Read mode               : Secure
Utilize accurate stream : Yes
Defeat audio cache      : No
Make use of C2 pointers : No
Read offset correction                      : 667
Overread into Lead-In and Lead-Out          : No
Fill up missing offset samples with silence : Yes
Delete leading and trailing silent blocks   : No
Null samples used in CRC calculations       : Yes
Used interface                              : Native Win32 interface for Win NT & 2000
Gap handling                                : Appended to previous track
Used output format              : User Defined Encoder
Selected bitrate                : 128 kBit/s
Quality                         : High
Add ID3 tag                     : No
Command line compressor         : C:\Program Files\Exact Audio Copy .99\Flac\flac.exe
Additional command line options : -V -8 -T "artist=%a" -T "title=%t" -T "album=%g" -T "date=%y" -T "tracknumber=%n" -T "genre=%m" %s
TOC of the extracted CD
     Track |   Start  |  Length  | Start sector | End sector
    ---------------------------------------------------------
        1  |  0:00.00 |  3:42.00 |         0    |    16649
        2  |  3:42.00 |  3:41.39 |     16650    |    33263
        3  |  7:23.39 |  2:51.37 |     33264    |    46125
        4  | 10:15.01 |  3:41.68 |     46126    |    62768
        5  | 13:56.69 |  3:20.06 |     62769    |    77774
        6  | 17:17.00 |  4:39.26 |     77775    |    98725
        7  | 21:56.26 |  3:33.26 |     98726    |   114726
        8  | 25:29.52 |  3:12.46 |    114727    |   129172
        9  | 28:42.23 |  3:38.45 |    129173    |   145567
       10  | 32:20.68 |  2:41.11 |    145568    |   157653
       11  | 35:02.04 |  3:08.68 |    157654    |   171821
       12  | 38:10.72 |  4:11.41 |    171822    |   190687
       13  | 42:22.38 |  3:02.24 |    190688    |   204361
Track  1
     Filename C:\EAC Rips\Track01.wav
     Pre-gap length  0:00:02.00
     Peak level 100.0 %
     Track quality 100.0 %
     Test CRC 5E6DEEE4
     Copy CRC 5E6DEEE4
     Accurately ripped (confidence 2)  [4328EE05]
     Copy OK
Track  2
     Filename C:\EAC Rips\Track02.wav
     Peak level 100.0 %
     Track quality 100.0 %
     Test CRC A05099B5
     Copy CRC A05099B5
     Accurately ripped (confidence 2)  [62640929]
     Copy OK
Track  3
     Filename C:\EAC Rips\Track03.wav
     Peak level 100.0 %
     Track quality 100.0 %
     Test CRC AB6DBB00
     Copy CRC AB6DBB00
     Accurately ripped (confidence 2)  [0F0A4893]
     Copy OK
Track  4
     Filename C:\EAC Rips\Track04.wav
     Peak level 98.8 %
     Track quality 100.0 %
     Test CRC F7F730CD
     Copy CRC F7F730CD
     Accurately ripped (confidence 2)  [B866CBDA]
     Copy OK
Track  5
     Filename C:\EAC Rips\Track05.wav
     Peak level 100.0 %
     Track quality 100.0 %
     Test CRC 3A69A008
     Copy CRC 3A69A008
     Accurately ripped (confidence 2)  [0E399B6A]
     Copy OK
Track  6
     Filename C:\EAC Rips\Track06.wav
     Peak level 100.0 %
     Track quality 100.0 %
     Test CRC FFC52097
     Copy CRC FFC52097
     Accurately ripped (confidence 2)  [E5465035]
     Copy OK
Track  7
     Filename C:\EAC Rips\Track07.wav
     Pre-gap length  0:00:00.06
     Peak level 100.0 %
     Track quality 100.0 %
     Test CRC 3B6A119A
     Copy CRC 3B6A119A
     Accurately ripped (confidence 2)  [EDE2315D]
     Copy OK
Track  8
     Filename C:\EAC Rips\Track08.wav
     Pre-gap length  0:00:00.17
     Peak level 98.8 %
     Track quality 99.9 %
     Test CRC 97B1C3E9
     Copy CRC 97B1C3E9
     Accurately ripped (confidence 2)  [2E4254DC]
     Copy OK
Track  9
     Filename C:\EAC Rips\Track09.wav
     Peak level 100.0 %
     Track quality 100.0 %
     Test CRC E5DA8B52
     Copy CRC E5DA8B52
     Accurately ripped (confidence 2)  [29500D70]
     Copy OK
Track 10
     Filename C:\EAC Rips\Track10.wav
     Peak level 100.0 %
     Track quality 100.0 %
     Test CRC A913A88F
     Copy CRC A913A88F
     Accurately ripped (confidence 2)  [2427CFB6]
     Copy OK
Track 11
     Filename C:\EAC Rips\Track11.wav
     Peak level 100.0 %
     Track quality 99.9 %
     Test CRC 747492FF
     Copy CRC 747492FF
     Accurately ripped (confidence 2)  [884E38F7]
     Copy OK
Track 12
     Filename C:\EAC Rips\Track12.wav
     Pre-gap length  0:00:00.38
     Peak level 100.0 %
     Track quality 100.0 %
     Test CRC 824DEDD9
     Copy CRC 824DEDD9
     Accurately ripped (confidence 2)  [32E9E5BD]
     Copy OK
Track 13
     Filename C:\EAC Rips\Track13.wav
     Pre-gap length  0:00:00.53
     Peak level 100.0 %
     Track quality 99.9 %
     Test CRC F29729FF
     Copy CRC F29729FF
     Accurately ripped (confidence 2)  [138BD882]
     Copy OK
All tracks accurately ripped
No errors occurred
End of status report
Код:
REM DATE 2007-04-07
PERFORMER "Mêlée"
TITLE "Devils & Angels"
FILE "01 Built to Last.flac" WAVE
  TRACK 01 AUDIO
    TITLE "Built to Last"
    INDEX 01 00:00:00
FILE "02 Rhythm of Rain.flac" WAVE
  TRACK 02 AUDIO
    TITLE "Rhythm of Rain"
    INDEX 01 00:00:00
FILE "03 Frequently Baby (She's a Teenage Maniac).flac" WAVE
  TRACK 03 AUDIO
    TITLE "Frequently Baby (She's a Teenage Maniac)"
    INDEX 01 00:00:00
FILE "04 For a Lifetime.flac" WAVE
  TRACK 04 AUDIO
    TITLE "For a Lifetime"
    INDEX 01 00:00:00
FILE "05 Drive Away.flac" WAVE
  TRACK 05 AUDIO
    TITLE "Drive Away"
    INDEX 01 00:00:00
FILE "06 Can't Hold On.flac" WAVE
  TRACK 06 AUDIO
    TITLE "Can't Hold On"
    INDEX 01 00:00:00
FILE "07 Imitation.flac" WAVE
  TRACK 07 AUDIO
    TITLE "Imitation"
    INDEX 01 00:00:00
FILE "08 Love Carries On.flac" WAVE
  TRACK 08 AUDIO
    TITLE "Love Carries On"
    INDEX 01 00:00:00
FILE "09 She's Gonna Find Me Here.flac" WAVE
  TRACK 09 AUDIO
    TITLE "She's Gonna Find Me Here"
    INDEX 01 00:00:00
FILE "10 Biggest Mistake.flac" WAVE
  TRACK 10 AUDIO
    TITLE "Biggest Mistake"
    INDEX 01 00:00:00
FILE "11 You Got.flac" WAVE
  TRACK 11 AUDIO
    TITLE "You Got"
    INDEX 01 00:00:00
FILE "12 Stand Up.flac" WAVE
  TRACK 12 AUDIO
    TITLE "Stand Up"
    INDEX 01 00:00:00
FILE "13 You Make My Dreams.flac" WAVE
  TRACK 13 AUDIO
    TITLE "You Make My Dreams"
    INDEX 01 00:00:00
Код:
AUDIOCHECKER v2.0 beta (build 457) - by Dester - opdester@freemail.hu
~~~~~~~~~~~~~~~~~~~~~~~~~~~~~~~~~~
Started at: Суббота, 25. 08. 2012. - 21:59.13
13 files found
01 -===- D:\Торренты\Melee - Devils & Angels (FLAC)\01 Built to Last.flac
  Extracted successfully
  Conclusion: this track is CDDA with probability 100%
  Tempfile successfully deleted.
02 -===- D:\Торренты\Melee - Devils & Angels (FLAC)\02 Rhythm of Rain.flac
  Extracted successfully
  Conclusion: this track is CDDA with probability 100%
  Tempfile successfully deleted.
03 -===- D:\Торренты\Melee - Devils & Angels (FLAC)\03 Frequently Baby (She's a Teenage Maniac).flac
  Extracted successfully
  Conclusion: this track is CDDA with probability 100%
  Tempfile successfully deleted.
04 -===- D:\Торренты\Melee - Devils & Angels (FLAC)\04 For a Lifetime.flac
  Extracted successfully
  Conclusion: this track is CDDA with probability 100%
  Tempfile successfully deleted.
05 -===- D:\Торренты\Melee - Devils & Angels (FLAC)\05 Drive Away.flac
  Extracted successfully
  Conclusion: this track is CDDA with probability 100%
  Tempfile successfully deleted.
06 -===- D:\Торренты\Melee - Devils & Angels (FLAC)\06 Can't Hold On.flac
  Extracted successfully
  Conclusion: this track is CDDA with probability 100%
  Tempfile successfully deleted.
07 -===- D:\Торренты\Melee - Devils & Angels (FLAC)\07 Imitation.flac
  Extracted successfully
  Conclusion: this track is CDDA with probability 100%
  Tempfile successfully deleted.
08 -===- D:\Торренты\Melee - Devils & Angels (FLAC)\08 Love Carries On.flac
  Extracted successfully
  Conclusion: this track is CDDA with probability 100%
  Tempfile successfully deleted.
09 -===- D:\Торренты\Melee - Devils & Angels (FLAC)\09 She's Gonna Find Me Here.flac
  Extracted successfully
  Conclusion: this track is CDDA with probability 100%
  Tempfile successfully deleted.
10 -===- D:\Торренты\Melee - Devils & Angels (FLAC)\10 Biggest Mistake.flac
  Extracted successfully
  Conclusion: this track is CDDA with probability 100%
  Tempfile successfully deleted.
11 -===- D:\Торренты\Melee - Devils & Angels (FLAC)\11 You Got.flac
  Extracted successfully
  Conclusion: this track is CDDA with probability 100%
  Tempfile successfully deleted.
12 -===- D:\Торренты\Melee - Devils & Angels (FLAC)\12 Stand Up.flac
  Extracted successfully
  Conclusion: this track is CDDA with probability 100%
  Tempfile successfully deleted.
13 -===- D:\Торренты\Melee - Devils & Angels (FLAC)\13 You Make My Dreams.flac
  Extracted successfully
  Conclusion: this track is CDDA with probability 99%
  Tempfile successfully deleted.
Finished at: Суббота, 25. 08. 2012. - 22:03.40 (operation time: 0:04.27)
Доп. информация: Обложек не было, поэтому в раздаче присутствуют нарытые в интернете оригинальный арт (тёмная версия, есть также светлая и красная версии для азиатских релизов), а также сканы альтернативной версии обложки.

О группе не обнаружил никакого русскоязычного материала, так что вот немного англоязычной Википедии:
"Mêlée is an American rock band from Orange County in California."
"Christopher Cron (vocals, keyboard, guitar)
Ricky Sans (guitar, vocals)
Ryan Malloy (bass, vocals)
Derek Lee Rock (drums)"
Официальный сайт: http://www.meleerocks.com/
MySpace: http://www.myspace.com/meleerocks
Второй студийный и первый изданный на крупном лейбле альбом группы Mêlée.
Включает принесший группе известность сингл "Built to Last".
Был издан:
5 марта 2007 в США
7 августа 2007 в Тайване
22 августа 2007 в Японии
28 июля 2008 в Великобритании
Ревью с iTunes (англ.):
A name like Mêlée — with all its complicated diacritics, with its suggestion of violence — suggests that this Orange County quartet is standard-issue modern punk, perhaps even being a band that tends toward the harder, brutal side of things. Names can be deceiving, however, since their 2007 major-label debut, Devils & Angels, is something entirely unexpected: a genuine pop album, one that's informed by new wave but winds up sounding like a good rock record from 1985. Much of this sounds learned second-hand from Ben Folds but Mêlée is notably lacking in Folds' perma-smirk. Even the cover of Hall & Oates' classic "You Make My Dreams" is done sans irony: unlike many punk covers, this is a celebration of song, not cheese. If Chris Cron, like many of his peers, has a voice that's a bit too thin to be memorably on its own accord, it works well with the band's exuberant feel and it delivers the hooks simply and cleanly. Plus, they have a way with hooks, particularly on the exhilarating "Frequently Baby (She's a Teenager Maniac)," which would be a smash at any time there was either pop radio or MTV. It may be the best moment here, but the rest of Devils & Angels proves that it's no fluke as it showcases the rare punk-pop band that places a greater emphasis on pop than punk to often addictive results.
Craig Aaronson – A&R
Jeremy Barnett – vocals (background)
Howard Benson – keyboards, programming, producer
Lenny Castro – percussion
Chris Cron – guitar, piano, arranger, vocals
Karen Cron – vocals (background)
Paul DeCarli – digital editing
Brian "Big Bass" Gardener – mastering
Hatsukazu "Hatch" Inagaki – assistant engineer
Lina Kumon – vocals (background)
Frank Maddocks – design, creative director
Ryan Malloy – bass, arranger, vocals
Mike Nader – arranger, drums, vocals
Jon Nicholson – drum technician
Mark O'Donoughue – Mixing
Holly Palmer – vocals (background)
Tim Palmer – mixing
Cindi Peters – mixing coordinator
Mike Plotnikoff – engineer
Ricky Sans – guitar, arranger, vocals
Derrick Santini – photography
Adam Schlesinger – arranger, pre-production
Jamie Seyberth – assistant engineer, mixing assistant
Marc VanGool – guitar technician
Phil X – guitar
ВНИМАНИЕ!
.CUE-файл в раздаче заменён, пожалуйста, перекачайте
26.08.12, 20:43
Правила, инструкции, FAQ!!!
Торрент  Добавлен [26 мар 2019, 19:32] Скачать торрент Магнет ссылка
Скачать торрент
[ Размер 14.56 КБ / Просмотров 2 ]

Статус
Проверен 
 
Размер  334.3 МБ
Приватный: Нет (DHT включён)
.torrent скачан  0
 


     Отправить личное сообщение
   
Страница 1 из 1
Показать сообщения за:  Поле сортировки  
Начать новую тему Ответить на тему


Сейчас этот форум просматривают: нет зарегистрированных пользователей и гости: 0


Вы не можете начинать темы
Вы не можете отвечать на сообщения
Вы не можете редактировать свои сообщения
Вы не можете удалять свои сообщения
Вы не можете добавлять вложения

Перейти:  
cron