Начать новую тему Ответить на тему
Статистика раздачи
Размер: 316.44 МБ | Добавлен: 26 мар 2019, 19:28 | Скачали: 0
Сидеров: 0  [0 байт/сек]    Личеров: 0  [0 байт/сек]
Пред. тема | След. тема 

Автор
Сообщение

СообщениеДобавлено: 26 мар 2019, 19:28 

Ответить с цитатой 

Number Seven Deli / Falkner Street
Жанр: pop-rock, alternative
Носитель: CD
Страна-производитель диска: Norway
Год издания: 2003
Издатель (лейбл): BMG Norway
Номер по каталогу: 82876 50171 2
Страна: Norway
Аудиокодек: FLAC (*.flac)
Тип рипа: tracks+.cue
Битрейт аудио: lossless
Продолжительность: 00:47:48
Источник (релизер): what.cd
Наличие сканов в содержимом раздачи: нет
Треклист:
1. In The Wrong Arms (3:17)
2. It's Hard To Tell The Day (3:20)
3. The Hit (3:03)
4. Sweet Strawberry Wine (3:37)
5. The Fear Of Falling Over (3:50)
6. Places We've Kissed (3:09)
7. Stuck In A Kiss (4:56)
8. I Used To Be Scared (3:02)
9. Moving Fast Getting Nowhere (3:41)
10. Euro Chemist (4:18)
11. A Dream Gone Cold (3:30)
12. Would Have Done It For Her (6:13)
13. Untitled (1:45)
Код:
Exact Audio Copy V1.0 beta 3 from 29. August 2011
EAC extraction logfile from 13. May 2013, 23:57
Number Seven Deli / Falkner Street
Used drive  : SONY    DVD+-RW DW-Q58A   Adapter: 1  ID: 0
Read mode               : Secure
Utilize accurate stream : Yes
Defeat audio cache      : Yes
Make use of C2 pointers : No
Read offset correction                      : 6
Overread into Lead-In and Lead-Out          : No
Fill up missing offset samples with silence : Yes
Delete leading and trailing silent blocks   : No
Null samples used in CRC calculations       : Yes
Used interface                              : Native Win32 interface for Win NT & 2000
Gap handling                                : Appended to previous track
Used output format              : User Defined Encoder
Selected bitrate                : 1024 kBit/s
Quality                         : High
Add ID3 tag                     : No
Command line compressor         : C:\Program Files\Exact Audio Copy\Flac\flac.exe
Additional command line options : -8 -V -T "ARTIST=%artist%" -T "TITLE=%title%" -T "ALBUM=%albumtitle%" -T "DATE=%year%" -T "TRACKNUMBER=%tracknr%" -T "GENRE=%genre%" -T "PERFORMER=%albuminterpret%" -T "COMPOSER=%composer%" %haslyrics%--tag-from-file=LYRICS="%lyricsfile%"%haslyrics% -T "ALBUMARTIST=%albumartist%" -T "DISCNUMBER=%cdnumber%" -T "TOTALDISCS=%totalcds%" -T "TOTALTRACKS=%numtracks%" -T "COMMENT=%comment%" %source% -o %dest%
TOC of the extracted CD
     Track |   Start  |  Length  | Start sector | End sector
    ---------------------------------------------------------
        1  |  0:00.00 |  3:17.59 |         0    |    14833
        2  |  3:17.59 |  3:20.26 |     14834    |    29859
        3  |  6:38.10 |  3:03.14 |     29860    |    43598
        4  |  9:41.24 |  3:37.14 |     43599    |    59887
        5  | 13:18.38 |  3:50.26 |     59888    |    77163
        6  | 17:08.64 |  3:09.11 |     77164    |    91349
        7  | 20:18.00 |  4:56.30 |     91350    |   113579
        8  | 25:14.30 |  3:02.42 |    113580    |   127271
        9  | 28:16.72 |  3:41.53 |    127272    |   143899
       10  | 31:58.50 |  4:18.18 |    143900    |   163267
       11  | 36:16.68 |  3:30.72 |    163268    |   179089
       12  | 39:47.65 |  6:13.21 |    179090    |   207085
       13  | 46:01.11 |  1:45.12 |    207086    |   214972
Track  1
     Filename C:\EAC\01 - In the Wrong Arms.wav
     Pre-gap length  0:00:02.00
     Peak level 97.7 %
     Extraction speed 2.2 X
     Track quality 100.0 %
     Test CRC E746CE95
     Copy CRC E746CE95
     Accurately ripped (confidence 5)  [1BB0B35A]  (AR v1)
     Copy OK
Track  2
     Filename C:\EAC\02 - It's Hard to Tell the Day.wav
     Peak level 97.7 %
     Extraction speed 2.7 X
     Track quality 100.0 %
     Test CRC F289F8CE
     Copy CRC F289F8CE
     Accurately ripped (confidence 5)  [6CD7C887]  (AR v1)
     Copy OK
Track  3
     Filename C:\EAC\03 - The Hit.wav
     Peak level 97.7 %
     Extraction speed 3.0 X
     Track quality 100.0 %
     Test CRC 0F0EB62E
     Copy CRC 0F0EB62E
     Accurately ripped (confidence 5)  [9F39BFA4]  (AR v1)
     Copy OK
Track  4
     Filename C:\EAC\04 - Sweet Strawberry Wine.wav
     Peak level 97.7 %
     Extraction speed 3.3 X
     Track quality 100.0 %
     Test CRC BE6541AB
     Copy CRC BE6541AB
     Accurately ripped (confidence 5)  [455E8368]  (AR v1)
     Copy OK
Track  5
     Filename C:\EAC\05 - The Fear of Falling Over.wav
     Peak level 97.7 %
     Extraction speed 3.5 X
     Track quality 100.0 %
     Test CRC 289D3752
     Copy CRC 289D3752
     Accurately ripped (confidence 5)  [870AA6CF]  (AR v1)
     Copy OK
Track  6
     Filename C:\EAC\06 - Places We've Kissed.wav
     Peak level 97.7 %
     Extraction speed 3.6 X
     Track quality 100.0 %
     Test CRC 6A0CC3B0
     Copy CRC 6A0CC3B0
     Accurately ripped (confidence 5)  [F7687985]  (AR v1)
     Copy OK
Track  7
     Filename C:\EAC\07 - Stuck In a Kiss.wav
     Peak level 97.7 %
     Extraction speed 4.1 X
     Track quality 100.0 %
     Test CRC 2B49FC9E
     Copy CRC 2B49FC9E
     Accurately ripped (confidence 5)  [E211642B]  (AR v1)
     Copy OK
Track  8
     Filename C:\EAC\08 - I Used to Be Scared.wav
     Peak level 97.7 %
     Extraction speed 3.3 X
     Track quality 99.9 %
     Test CRC 92C114E1
     Copy CRC 92C114E1
     Accurately ripped (confidence 5)  [2069A46B]  (AR v1)
     Copy OK
Track  9
     Filename C:\EAC\09 - Moving Fast Getting Nowhere.wav
     Peak level 97.7 %
     Extraction speed 4.3 X
     Track quality 100.0 %
     Test CRC AAD57D8D
     Copy CRC AAD57D8D
     Accurately ripped (confidence 5)  [BE71CA1D]  (AR v1)
     Copy OK
Track 10
     Filename C:\EAC\10 - Euro Chemist.wav
     Peak level 97.7 %
     Extraction speed 4.5 X
     Track quality 100.0 %
     Test CRC 051B7719
     Copy CRC 051B7719
     Accurately ripped (confidence 5)  [FCAC71F2]  (AR v1)
     Copy OK
Track 11
     Filename C:\EAC\11 - A Dream Gone Cold.wav
     Peak level 97.7 %
     Extraction speed 4.6 X
     Track quality 100.0 %
     Test CRC 09CB0FFA
     Copy CRC 09CB0FFA
     Accurately ripped (confidence 5)  [4ADFA7B5]  (AR v1)
     Copy OK
Track 12
     Filename C:\EAC\12 - Would Have Done It for Her.wav
     Peak level 97.7 %
     Extraction speed 5.1 X
     Track quality 100.0 %
     Test CRC 974E052A
     Copy CRC 974E052A
     Accurately ripped (confidence 5)  [ADE6B3D2]  (AR v1)
     Copy OK
Track 13
     Filename C:\EAC\13 - Bonus.wav
     Peak level 82.2 %
     Extraction speed 4.3 X
     Track quality 100.0 %
     Test CRC 37231C0B
     Copy CRC 37231C0B
     Accurately ripped (confidence 5)  [DD6D28E5]  (AR v1)
     Copy OK
All tracks accurately ripped
No errors occurred
End of status report
==== Log checksum EBF39E5382B82B196E34BEFD17D0666189C11F7BE2459A3BDD0B6CBA5A6B0E87 ====
Код:
REM GENRE Misc
REM DATE 2003
REM DISCID A50B320D
REM COMMENT "ExactAudioCopy v1.0b3"
FILE "01 - In the Wrong Arms.wav" WAVE
  TRACK 01 AUDIO
    INDEX 01 00:00:00
FILE "02 - It's Hard to Tell the Day.wav" WAVE
  TRACK 02 AUDIO
    INDEX 01 00:00:00
FILE "03 - The Hit.wav" WAVE
  TRACK 03 AUDIO
    INDEX 01 00:00:00
FILE "04 - Sweet Strawberry Wine.wav" WAVE
  TRACK 04 AUDIO
    INDEX 01 00:00:00
FILE "05 - The Fear of Falling Over.wav" WAVE
  TRACK 05 AUDIO
    INDEX 01 00:00:00
FILE "06 - Places We've Kissed.wav" WAVE
  TRACK 06 AUDIO
    INDEX 01 00:00:00
FILE "07 - Stuck In a Kiss.wav" WAVE
  TRACK 07 AUDIO
    INDEX 01 00:00:00
FILE "08 - I Used to Be Scared.wav" WAVE
  TRACK 08 AUDIO
    INDEX 01 00:00:00
FILE "09 - Moving Fast Getting Nowhere.wav" WAVE
  TRACK 09 AUDIO
    INDEX 01 00:00:00
FILE "10 - Euro Chemist.wav" WAVE
  TRACK 10 AUDIO
    INDEX 01 00:00:00
FILE "11 - A Dream Gone Cold.wav" WAVE
  TRACK 11 AUDIO
    INDEX 01 00:00:00
FILE "12 - Would Have Done It for Her.wav" WAVE
  TRACK 12 AUDIO
    INDEX 01 00:00:00
FILE "13 - Bonus.wav" WAVE
  TRACK 13 AUDIO
    INDEX 01 00:00:00
Код:
AUDIOCHECKER v2.0 beta (build 457) - by Dester - opdester@freemail.hu
~~~~~~~~~~~~~~~~~~~~~~~~~~~~~~~~~~
Started at: среда, 30. 07. 2014. - 6:42.56
13 files found
01 -===- C:\Users\dns\Desktop\WHAT.CD\Number Seven Deli - Falkner Street (82876 501 712) [FLAC]\01 - In the Wrong Arms.flac
  Extracted successfully
  Conclusion: this track is CDDA with probability 100%
  Tempfile successfully deleted.
02 -===- C:\Users\dns\Desktop\WHAT.CD\Number Seven Deli - Falkner Street (82876 501 712) [FLAC]\02 - It's Hard to Tell the Day.flac
  Extracted successfully
  Conclusion: this track is CDDA with probability 99%
  Tempfile successfully deleted.
03 -===- C:\Users\dns\Desktop\WHAT.CD\Number Seven Deli - Falkner Street (82876 501 712) [FLAC]\03 - The Hit.flac
  Extracted successfully
  Conclusion: this track is CDDA with probability 100%
  Tempfile successfully deleted.
04 -===- C:\Users\dns\Desktop\WHAT.CD\Number Seven Deli - Falkner Street (82876 501 712) [FLAC]\04 - Sweet Strawberry Wine.flac
  Extracted successfully
  Conclusion: this track is CDDA with probability 100%
  Tempfile successfully deleted.
05 -===- C:\Users\dns\Desktop\WHAT.CD\Number Seven Deli - Falkner Street (82876 501 712) [FLAC]\05 - The Fear of Falling Over.flac
  Extracted successfully
  Conclusion: this track is CDDA with probability 100%
  Tempfile successfully deleted.
06 -===- C:\Users\dns\Desktop\WHAT.CD\Number Seven Deli - Falkner Street (82876 501 712) [FLAC]\06 - Places We've Kissed.flac
  Extracted successfully
  Conclusion: this track is CDDA with probability 100%
  Tempfile successfully deleted.
07 -===- C:\Users\dns\Desktop\WHAT.CD\Number Seven Deli - Falkner Street (82876 501 712) [FLAC]\07 - Stuck In a Kiss.flac
  Extracted successfully
  Conclusion: this track is CDDA with probability 100%
  Tempfile successfully deleted.
08 -===- C:\Users\dns\Desktop\WHAT.CD\Number Seven Deli - Falkner Street (82876 501 712) [FLAC]\08 - I Used to Be Scared.flac
  Extracted successfully
  Conclusion: this track is CDDA with probability 100%
  Tempfile successfully deleted.
09 -===- C:\Users\dns\Desktop\WHAT.CD\Number Seven Deli - Falkner Street (82876 501 712) [FLAC]\09 - Moving Fast Getting Nowhere.flac
  Extracted successfully
  Conclusion: this track is CDDA with probability 100%
  Tempfile successfully deleted.
10 -===- C:\Users\dns\Desktop\WHAT.CD\Number Seven Deli - Falkner Street (82876 501 712) [FLAC]\10 - Euro Chemist.flac
  Extracted successfully
  Conclusion: this track is CDDA with probability 100%
  Tempfile successfully deleted.
11 -===- C:\Users\dns\Desktop\WHAT.CD\Number Seven Deli - Falkner Street (82876 501 712) [FLAC]\11 - A Dream Gone Cold.flac
  Extracted successfully
  Conclusion: this track is CDDA with probability 100%
  Tempfile successfully deleted.
12 -===- C:\Users\dns\Desktop\WHAT.CD\Number Seven Deli - Falkner Street (82876 501 712) [FLAC]\12 - Would Have Done It for Her.flac
  Extracted successfully
  Conclusion: this track is CDDA with probability 100%
  Tempfile successfully deleted.
13 -===- C:\Users\dns\Desktop\WHAT.CD\Number Seven Deli - Falkner Street (82876 501 712) [FLAC]\13 - Bonus.flac
  Extracted successfully
  Conclusion: this track is CDDA with probability 100%
  Tempfile successfully deleted.
Finished at: среда, 30. 07. 2014. - 6:44.58 (operation time: 0:02.02)
-----------------------------------------------------------
Журнал "Play" №8 2003
Норвежская меланхолия с английским акцентом.Команда с чересчур замысловатым названием Number Seven Deli родом из Норвегии,но на самом деле им стоило бы появиться на свет где-нибудь в туманном Альбионе - настолько адекватно звучит их англофильский поп,не скатывающийся всё же в область с приставкой "брит".Богатая инструментовка,неожиданные ритмические ходы,весьма недурные тексты,периодические реверансы то в сторону Скотта Уокера,то Пола Маккартни,то даже и Джима Моррисона.Плюс неизбежная для северян меланхолия.В целом оставляет впечатление продукции очень качественной,что в наше время нечасто встретишь.
Credits
Bass, Backing Vocals, Arranged By [Horns, Strings] – Per Amund Solberg
Cello – Paulin Voss Skoglund*
Design [Cover Design] – Rita Åse
Drums, Percussion, Backing Vocals – Simen Mæhlum
Engineer, Mixed By – Kai Ø. Andersen
French Horn – Britt Larsen (tracks: 10), Hild Sofie Tafjord
Guitar, Backing Vocals – Rune Berg
Keyboards, Backing Vocals – Asbjørn Ribe*
Mastered By – Björn Engelmann
Photography By – L-P Lorentzen*
Producer – Kai Ø. Andersen (tracks: 2 to 13), Kyrre Fritzner (tracks: 1), Number Seven Deli (tracks: 2 to 13)
Trombone – Even Andersen, Torild Grytting Berg (tracks: 10)
Trumpet – Odd Bjørn Lund (tracks: 10), Per Willy Åserud*
Tuba – Lars Andreas Haug, Roger Fjeldet (tracks: 10)
Viola – Tor Erik Langset
Violin – Lise Sørensen, Maren Elle
Vocals, Guitar, Backing Vocals – Johnny Palmar Hide*
Правила, инструкции, FAQ!!!
Торрент  Добавлен [26 мар 2019, 19:28] Скачать торрент Магнет ссылка
Скачать торрент
[ Размер 13.82 КБ / Просмотров 0 ]

Статус
Проверен 
 
Размер  316.44 МБ
Приватный: Нет (DHT включён)
.torrent скачан  0
 


     Отправить личное сообщение
   
Страница 1 из 1
Показать сообщения за:  Поле сортировки  
Начать новую тему Ответить на тему


Сейчас этот форум просматривают: нет зарегистрированных пользователей и гости: 0


Вы не можете начинать темы
Вы не можете отвечать на сообщения
Вы не можете редактировать свои сообщения
Вы не можете удалять свои сообщения
Вы не можете добавлять вложения

Перейти:  
cron