Начать новую тему Ответить на тему
Статистика раздачи
Размер: 519.73 МБ | Добавлен: 26 мар 2019, 20:14 | Скачали: 0
Сидеров: 0  [0 байт/сек]    Личеров: 0  [0 байт/сек]
Пред. тема | След. тема 

Автор
Сообщение

СообщениеДобавлено: 26 мар 2019, 20:14 

Ответить с цитатой 

Addison Road


Жанр: Pop Rock, Alternative, Christian || Страна: || Годы выпуска дисков: 2008, 2010 || Аудиокодек: FLAC (*.flac)
Тип рипа: tracks+.cue || Битрейт аудио: lossless || Источник: What.cd

Albums
Страна-производитель диска: US
Label: INO Records
Catalog# 768435823
Covers: Front, CD
Продолжительность: 00:39:37
Треклист:
01. This Could Be Our Day
02. All That Matters
03. Sticking With You
04. Hope Now
05. Start Over Again
06. It Just Takes One
07. Always Love
08. Casualties
09. Run
10. What Do I Know Of Holy
Код:
Exact Audio Copy V0.99 prebeta 3 from 28. July 2007
EAC extraction logfile from 20. March 2008, 16:53
Addison Road / Addison Road
Used drive  : TSSTcorpDVD+-RW TS-L632D   Adapter: 1  ID: 0
Read mode               : Secure
Utilize accurate stream : Yes
Defeat audio cache      : Yes
Make use of C2 pointers : No
Read offset correction                      : 6
Overread into Lead-In and Lead-Out          : No
Fill up missing offset samples with silence : Yes
Delete leading and trailing silent blocks   : No
Null samples used in CRC calculations       : Yes
Used interface                              : Native Win32 interface for Win NT & 2000
Gap handling                                : Appended to previous track
Used output format              : User Defined Encoder
Selected bitrate                : 192 kBit/s
Quality                         : High
Add ID3 tag                     : No
Command line compressor         : C:\Program Files\Exact Audio Copy\Manually Added FLAC\bin\flac.exe
Additional command line options : -8 -A tukey(0.25) -A gauss(0.1875) -b 4096 -V -T "artist=%a" -T "title=%t" -T "album=%g" -T "date=%y" -T "tracknumber=%n" -T "genre=%m" %s --sector-align
TOC of the extracted CD
     Track |   Start  |  Length  | Start sector | End sector
    ---------------------------------------------------------
        1  |  0:00.00 |  3:51.37 |         0    |    17361
        2  |  3:51.37 |  3:27.34 |     17362    |    32920
        3  |  7:18.71 |  3:27.67 |     32921    |    48512
        4  | 10:46.63 |  3:44.73 |     48513    |    65385
        5  | 14:31.61 |  5:34.55 |     65386    |    90490
        6  | 20:06.41 |  3:37.45 |     90491    |   106810
        7  | 23:44.11 |  3:27.33 |    106811    |   122368
        8  | 27:11.44 |  3:38.46 |    122369    |   138764
        9  | 30:50.15 |  4:11.06 |    138765    |   157595
       10  | 35:01.21 |  4:35.61 |    157596    |   178281
Track  1
     Filename C:\Users\Justin\Desktop\Addison Road - Addison Road (2008) [FLAC]\01 - This Could Be Our Day.wav
     Pre-gap length  0:00:02.00
     Peak level 100.0 %
     Track quality 100.0 %
     Test CRC 3631CD7F
     Copy CRC 3631CD7F
     Track not present in AccurateRip database
     Copy OK
Track  2
     Filename C:\Users\Justin\Desktop\Addison Road - Addison Road (2008) [FLAC]\02 - All That Matters.wav
     Peak level 100.0 %
     Track quality 100.0 %
     Test CRC 49C27A41
     Copy CRC 49C27A41
     Track not present in AccurateRip database
     Copy OK
Track  3
     Filename C:\Users\Justin\Desktop\Addison Road - Addison Road (2008) [FLAC]\03 - Sticking With You.wav
     Peak level 100.0 %
     Track quality 99.9 %
     Test CRC EF920A36
     Copy CRC EF920A36
     Track not present in AccurateRip database
     Copy OK
Track  4
     Filename C:\Users\Justin\Desktop\Addison Road - Addison Road (2008) [FLAC]\04 - Hope Now.wav
     Peak level 100.0 %
     Track quality 100.0 %
     Test CRC B641D71C
     Copy CRC B641D71C
     Track not present in AccurateRip database
     Copy OK
Track  5
     Filename C:\Users\Justin\Desktop\Addison Road - Addison Road (2008) [FLAC]\05 - Start Over Again.wav
     Peak level 100.0 %
     Track quality 99.9 %
     Test CRC 992B91C4
     Copy CRC 992B91C4
     Track not present in AccurateRip database
     Copy OK
Track  6
     Filename C:\Users\Justin\Desktop\Addison Road - Addison Road (2008) [FLAC]\06 - It Just Takes One.wav
     Peak level 100.0 %
     Track quality 100.0 %
     Test CRC 1CB80BDA
     Copy CRC 1CB80BDA
     Track not present in AccurateRip database
     Copy OK
Track  7
     Filename C:\Users\Justin\Desktop\Addison Road - Addison Road (2008) [FLAC]\07 - Always Love.wav
     Peak level 100.0 %
     Track quality 100.0 %
     Test CRC A5F32B2A
     Copy CRC A5F32B2A
     Track not present in AccurateRip database
     Copy OK
Track  8
     Filename C:\Users\Justin\Desktop\Addison Road - Addison Road (2008) [FLAC]\08 - Casualties.wav
     Peak level 100.0 %
     Track quality 100.0 %
     Test CRC 977C85F2
     Copy CRC 977C85F2
     Track not present in AccurateRip database
     Copy OK
Track  9
     Filename C:\Users\Justin\Desktop\Addison Road - Addison Road (2008) [FLAC]\09 - Run.wav
     Peak level 100.0 %
     Track quality 100.0 %
     Test CRC 30EA17CC
     Copy CRC 30EA17CC
     Track not present in AccurateRip database
     Copy OK
Track 10
     Filename C:\Users\Justin\Desktop\Addison Road - Addison Road (2008) [FLAC]\10 - What Do I Know Of Holy.wav
     Peak level 99.9 %
     Track quality 100.0 %
     Test CRC 40776D1F
     Copy CRC 40776D1F
     Track not present in AccurateRip database
     Copy OK
None of the tracks are present in the AccurateRip database
No errors occurred
End of status report
Код:
REM GENRE Rock
REM DATE 2008
REM DISCID 7109490A
REM COMMENT "ExactAudioCopy v0.99pb3"
PERFORMER "Addison Road"
TITLE "Addison Road"
FILE "Addison Road - Addison Road (2008) [FLAC]\01 - This Could Be Our Day.wav" WAVE
  TRACK 01 AUDIO
    TITLE "This Could Be Our Day"
    PERFORMER "Addison Road"
    FLAGS DCP
    INDEX 01 00:00:00
FILE "Addison Road - Addison Road (2008) [FLAC]\02 - All That Matters.wav" WAVE
  TRACK 02 AUDIO
    TITLE "All That Matters"
    PERFORMER "Addison Road"
    FLAGS DCP
    INDEX 01 00:00:00
FILE "Addison Road - Addison Road (2008) [FLAC]\03 - Sticking With You.wav" WAVE
  TRACK 03 AUDIO
    TITLE "Sticking With You"
    PERFORMER "Addison Road"
    FLAGS DCP
    INDEX 01 00:00:00
FILE "Addison Road - Addison Road (2008) [FLAC]\04 - Hope Now.wav" WAVE
  TRACK 04 AUDIO
    TITLE "Hope Now"
    PERFORMER "Addison Road"
    FLAGS DCP
    INDEX 01 00:00:00
FILE "Addison Road - Addison Road (2008) [FLAC]\05 - Start Over Again.wav" WAVE
  TRACK 05 AUDIO
    TITLE "Start Over Again"
    PERFORMER "Addison Road"
    FLAGS DCP
    INDEX 01 00:00:00
FILE "Addison Road - Addison Road (2008) [FLAC]\06 - It Just Takes One.wav" WAVE
  TRACK 06 AUDIO
    TITLE "It Just Takes One"
    PERFORMER "Addison Road"
    FLAGS DCP
    INDEX 01 00:00:00
FILE "Addison Road - Addison Road (2008) [FLAC]\07 - Always Love.wav" WAVE
  TRACK 07 AUDIO
    TITLE "Always Love"
    PERFORMER "Addison Road"
    FLAGS DCP
    INDEX 01 00:00:00
FILE "Addison Road - Addison Road (2008) [FLAC]\08 - Casualties.wav" WAVE
  TRACK 08 AUDIO
    TITLE "Casualties"
    PERFORMER "Addison Road"
    FLAGS DCP
    INDEX 01 00:00:00
FILE "Addison Road - Addison Road (2008) [FLAC]\09 - Run.wav" WAVE
  TRACK 09 AUDIO
    TITLE "Run"
    PERFORMER "Addison Road"
    FLAGS DCP
    INDEX 01 00:00:00
FILE "Addison Road - Addison Road (2008) [FLAC]\10 - What Do I Know Of Holy.wav" WAVE
  TRACK 10 AUDIO
    TITLE "What Do I Know Of Holy"
    PERFORMER "Addison Road"
    FLAGS DCP
    INDEX 01 00:00:00
Код:
[CUETools log; Date: 23.05.2011 13:45:16; Version: 2.1.1]
[CTDB TOCID: 1N_v_.83sM4eVvbno8djomyLKwU-] found.
        [ CTDBID ] Status
        [6483882d] (6/6) Accurately ripped
[AccurateRip ID: 000ea020-0075a528-7109490a] found.
Track   [ CRC    ] Status
 01     [d3e8f71f] (02/10) Accurately ripped
 02     [41fb8753] (02/11) Accurately ripped
 03     [e0a1862f] (02/11) Accurately ripped
 04     [f4eae2b2] (02/11) Accurately ripped
 05     [46ab9d6c] (02/11) Accurately ripped
 06     [e2fccbcf] (02/11) Accurately ripped
 07     [0693cef9] (02/11) Accurately ripped
 08     [7bc93b2f] (02/11) Accurately ripped
 09     [7d449a63] (02/11) Accurately ripped
 10     [e545b9d2] (02/11) Accurately ripped
Offsetted by -86:
 01     [71e3ebde] (02/10) Accurately ripped
 02     [d4fde29a] (02/11) Accurately ripped
 03     [398bb672] (02/11) Accurately ripped
 04     [8b080ebf] (02/11) Accurately ripped
 05     [b52017da] (02/11) Accurately ripped
 06     [c605ef19] (02/11) Accurately ripped
 07     [1da8799f] (02/11) Accurately ripped
 08     [cd1717e3] (02/11) Accurately ripped
 09     [20038e4c] (02/11) Accurately ripped
 10     [b5a0d893] (02/11) Accurately ripped
Offsetted by -30:
 01     [e8b28dd6] (02/10) Accurately ripped
 02     [1a54672f] (02/11) Accurately ripped
 03     [b7696999] (02/11) Accurately ripped
 04     [342d05c0] (02/11) Accurately ripped
 05     [29ba0258] (02/11) Accurately ripped
 06     [8fd4f2dc] (02/11) Accurately ripped
 07     [00214413] (02/11) Accurately ripped
 08     [a3f937e0] (02/11) Accurately ripped
 09     [2088804e] (02/11) Accurately ripped
 10     [cbe292a8] (02/11) Accurately ripped
Track Peak [ CRC32  ] [W/O NULL] [  LOG   ]
 --  100,0 [BEDE8C30] [1DCF67F0]
 01  100,0 [3631CD7F] [6A240CF2]   CRC32
 02  100,0 [49C27A41] [0B8391FA]   CRC32
 03  100,0 [EF920A36] [92CCDB7B]   CRC32
 04  100,0 [B641D71C] [5FE571D3]   CRC32
 05  100,0 [992B91C4] [BBFA17B4]   CRC32
 06  100,0 [1CB80BDA] [179BF5BA]   CRC32
 07  100,0 [A5F32B2A] [0EB25A34]   CRC32
 08  100,0 [977C85F2] [E4FF26BF]   CRC32
 09  100,0 [30EA17CC] [5B98F561]   CRC32
 10   99,9 [40776D1F] [57AD673C]   CRC32
#777Страна-производитель диска: US
Label: INO Records
Catalog# 88697 72202 2
Covers: Front, Back, Booklet
Продолжительность: 00:34:15
Треклист:
01. Fight Another Day
02. Change In The Making
03. This Little Light Of Mine
04. Won’t Let Me Go
05. Need You Now
06. Show Me Life
07. Don’t Wait
08. Where It All Begins
09. Who I Am In You
10. My Story
Код:
Exact Audio Copy V1.0 beta 1 from 15. November 2010
EAC extraction logfile from 27. February 2011, 16:31
Addison Road / Stories
Used drive  : PIONEER DVD-RW  DVR-115D   Adapter: 4  ID: 0
Read mode               : Secure
Utilize accurate stream : Yes
Defeat audio cache      : Yes
Make use of C2 pointers : No
Read offset correction                      : 48
Overread into Lead-In and Lead-Out          : No
Fill up missing offset samples with silence : Yes
Delete leading and trailing silent blocks   : No
Null samples used in CRC calculations       : Yes
Used interface                              : Native Win32 interface for Win NT & 2000
Gap handling                                : Appended to previous track
Used output format              : User Defined Encoder
Selected bitrate                : 128 kBit/s
Quality                         : High
Add ID3 tag                     : No
Command line compressor         : C:\Program Files (x86)\Exact Audio Copy\Flac\flac.exe
Additional command line options : -V -8 -T "artist=%a" -T "title=%t" -T "album=%g" -T "date=%y" -T "tracknumber=%n" -T "genre=%m" %s
TOC of the extracted CD
     Track |   Start  |  Length  | Start sector | End sector
    ---------------------------------------------------------
        1  |  0:00.00 |  3:18.51 |         0    |    14900
        2  |  3:18.51 |  3:34.33 |     14901    |    30983
        3  |  6:53.09 |  3:48.68 |     30984    |    48151
        4  | 10:42.02 |  3:01.32 |     48152    |    61758
        5  | 13:43.34 |  4:14.36 |     61759    |    80844
        6  | 17:57.70 |  3:22.31 |     80845    |    96025
        7  | 21:20.26 |  3:11.32 |     96026    |   110382
        8  | 24:31.58 |  2:59.55 |    110383    |   123862
        9  | 27:31.38 |  3:12.23 |    123863    |   138285
       10  | 30:43.61 |  3:31.35 |    138286    |   154145
Track  1
     Filename D:\EAC Rips\Addison Road - Stories\01 - Fight Another Day.wav
     Pre-gap length  0:00:02.00
     Peak level 98.8 %
     Extraction speed 4.5 X
     Track quality 100.0 %
     Test CRC E5C7C89C
     Copy CRC E5C7C89C
     Track not present in AccurateRip database
     Copy OK
Track  2
     Filename D:\EAC Rips\Addison Road - Stories\02 - Change In The Making.wav
     Pre-gap length  0:00:01.01
     Peak level 98.8 %
     Extraction speed 5.0 X
     Track quality 100.0 %
     Test CRC BB4FCC44
     Copy CRC BB4FCC44
     Track not present in AccurateRip database
     Copy OK
Track  3
     Filename D:\EAC Rips\Addison Road - Stories\03 - This Little Light.wav
     Peak level 90.0 %
     Extraction speed 5.4 X
     Track quality 100.0 %
     Test CRC 20E99901
     Copy CRC 20E99901
     Track not present in AccurateRip database
     Copy OK
Track  4
     Filename D:\EAC Rips\Addison Road - Stories\04 - Won't Let Me Go.wav
     Peak level 98.8 %
     Extraction speed 5.5 X
     Track quality 100.0 %
     Test CRC 2F3C7658
     Copy CRC 2F3C7658
     Track not present in AccurateRip database
     Copy OK
Track  5
     Filename D:\EAC Rips\Addison Road - Stories\05 - Need You Now.wav
     Pre-gap length  0:00:01.10
     Peak level 96.5 %
     Extraction speed 6.2 X
     Track quality 100.0 %
     Test CRC F26664F8
     Copy CRC F26664F8
     Track not present in AccurateRip database
     Copy OK
Track  6
     Filename D:\EAC Rips\Addison Road - Stories\06 - Show Me Life.wav
     Pre-gap length  0:00:01.08
     Peak level 98.8 %
     Extraction speed 6.3 X
     Track quality 100.0 %
     Test CRC BF1893D4
     Copy CRC BF1893D4
     Track not present in AccurateRip database
     Copy OK
Track  7
     Filename D:\EAC Rips\Addison Road - Stories\07 - Don't Wait.wav
     Pre-gap length  0:00:01.72
     Peak level 98.8 %
     Extraction speed 6.4 X
     Track quality 100.0 %
     Test CRC D5CE3C3F
     Copy CRC D5CE3C3F
     Track not present in AccurateRip database
     Copy OK
Track  8
     Filename D:\EAC Rips\Addison Road - Stories\08 - Where It All Begins.wav
     Pre-gap length  0:00:01.24
     Peak level 85.0 %
     Extraction speed 6.6 X
     Track quality 100.0 %
     Test CRC 92FF8A9F
     Copy CRC 92FF8A9F
     Track not present in AccurateRip database
     Copy OK
Track  9
     Filename D:\EAC Rips\Addison Road - Stories\09 - Who I Am In You.wav
     Pre-gap length  0:00:02.61
     Peak level 97.6 %
     Extraction speed 6.8 X
     Track quality 100.0 %
     Test CRC 4FA63934
     Copy CRC 4FA63934
     Track not present in AccurateRip database
     Copy OK
Track 10
     Filename D:\EAC Rips\Addison Road - Stories\10 - My Story.wav
     Pre-gap length  0:00:02.56
     Peak level 94.3 %
     Extraction speed 7.1 X
     Track quality 100.0 %
     Test CRC 11D462AC
     Copy CRC 11D462AC
     Track not present in AccurateRip database
     Copy OK
None of the tracks are present in the AccurateRip database
No errors occurred
End of status report
==== Log checksum BD208311676CA30A8B9BA2027369884078CD61D100C84AA6E0B75D8133840230 ====
Код:
REM GENRE "Christian Rock"
REM DATE 2010
REM DISCID 7908070A
REM COMMENT "ExactAudioCopy v1.0b1"
PERFORMER "Addison Road"
TITLE "Stories"
FILE "01 - Fight Another Day.wav" WAVE
  TRACK 01 AUDIO
    TITLE "Fight Another Day"
    PERFORMER "Addison Road"
    INDEX 01 00:00:00
  TRACK 02 AUDIO
    TITLE "Change In The Making"
    PERFORMER "Addison Road"
    INDEX 00 03:17:50
FILE "02 - Change In The Making.wav" WAVE
    INDEX 01 00:00:00
FILE "03 - This Little Light.wav" WAVE
  TRACK 03 AUDIO
    TITLE "This Little Light"
    PERFORMER "Addison Road"
    INDEX 01 00:00:00
FILE "04 - Won't Let Me Go.wav" WAVE
  TRACK 04 AUDIO
    TITLE "Won't Let Me Go"
    PERFORMER "Addison Road"
    INDEX 01 00:00:00
  TRACK 05 AUDIO
    TITLE "Need You Now"
    PERFORMER "Addison Road"
    INDEX 00 03:00:24
FILE "05 - Need You Now.wav" WAVE
    INDEX 01 00:00:00
  TRACK 06 AUDIO
    TITLE "Show Me Life"
    PERFORMER "Addison Road"
    INDEX 00 04:13:30
FILE "06 - Show Me Life.wav" WAVE
    INDEX 01 00:00:00
  TRACK 07 AUDIO
    TITLE "Don't Wait"
    PERFORMER "Addison Road"
    INDEX 00 03:20:52
FILE "07 - Don't Wait.wav" WAVE
    INDEX 01 00:00:00
  TRACK 08 AUDIO
    TITLE "Where It All Begins"
    PERFORMER "Addison Road"
    INDEX 00 03:10:14
FILE "08 - Where It All Begins.wav" WAVE
    INDEX 01 00:00:00
  TRACK 09 AUDIO
    TITLE "Who I Am In You"
    PERFORMER "Addison Road"
    INDEX 00 02:57:09
FILE "09 - Who I Am In You.wav" WAVE
    INDEX 01 00:00:00
  TRACK 10 AUDIO
    TITLE "My Story"
    PERFORMER "Addison Road"
    INDEX 00 03:09:56
FILE "10 - My Story.wav" WAVE
    INDEX 01 00:00:00
Info
Jenny Simmons – lead vocals
Ryan Gregg – lead guitarist, vocals
Ryan Simmons – guitar, vocals, piano
Travis Lawrence – bass, vocals, harmonica
Richard Scott – drums
Правила, инструкции, FAQ!!!
Торрент  Добавлен [26 мар 2019, 20:14] Скачать торрент Магнет ссылка
Скачать торрент
[ Размер 13.26 КБ / Просмотров 1 ]

Статус
Проверен 
 
Размер  519.73 МБ
Приватный: Нет (DHT включён)
.torrent скачан  0
 


     Отправить личное сообщение
   
Страница 1 из 1
Показать сообщения за:  Поле сортировки  
Начать новую тему Ответить на тему


Сейчас этот форум просматривают: нет зарегистрированных пользователей и гости: 0


Вы не можете начинать темы
Вы не можете отвечать на сообщения
Вы не можете редактировать свои сообщения
Вы не можете удалять свои сообщения
Вы не можете добавлять вложения

Перейти:  
cron