Начать новую тему Ответить на тему
Статистика раздачи
Размер: 255.39 МБ | Добавлен: 26 мар 2019, 18:40 | Скачали: 0
Сидеров: 0  [0 байт/сек]    Личеров: 0  [0 байт/сек]
Пред. тема | След. тема 

Автор
Сообщение

СообщениеДобавлено: 26 мар 2019, 18:40 

Ответить с цитатой 

Amanda Jensen / Killing My Darlings
Жанр: Pop-Rock/ Alternative
Страна-производитель диска: EU
Год издания диска: 2008
Издатель (лейбл): Sony BMG
Номер по каталогу: 88697310932
Аудио кодек: APE (*.ape)
Тип рипа: image+.cue
Битрейт аудио: lossless
Продолжительность: 37:18
Источник (релизер): www
Наличие сканов в содержимом раздачи: да
Треклист:
01. For the Sun (3:29)
02. Amarula Tree (3:02)
03. Greetings from Space (5:17)
04. Do You Love Me (3:34)
05. So Far Away (3:35)
06. Don't Worry (3:00)
07. Darling, Go Home (2:50)
08. Numb (3:32)
09. Come On (You Have Arrived) (3:25)
10. Rising Up (3:25)
11. Our Last Goodbye (2:09)
Код:
Exact Audio Copy V0.99 prebeta 5 from 4. May 2009
Отчёт EAC об извлечении, выполненном 16. мая 2010, 21:16
Amanda Jensen / Killing My Darlings
Дисковод: PIONEER DVD-RW  DVR-112D   Adapter: 1  ID: 0
Режим чтения                 : Достоверность
Использование точного потока : Да
Отключение кэша аудио        : Да
Использование указателей C2  : Нет
Коррекция смещения при чтении                     : 48
Способность читать области Lead-in и Lead-out     : Нет
Заполнение пропущенных сэмплов тишиной            : Да
Удаление блоков с тишиной в начале и конце        : Нет
При вычислениях CRC использовались нулевые сэмплы : Да
Интерфейс                                         : Установленный внешний ASPI-интерфейс
Выходной формат : Внутренние WAV-операции
Формат сэмплов  : 44.100 Гц; 16 бит; стерео
TOC извлечённого CD
     Трек |   Старт  | Длительность | Начальный сектор | Конечный сектор
    ---------------------------------------------------------------------
       1  |  0:00.00 |    3:29.26   |           0      |      15700
       2  |  3:29.26 |    3:02.25   |       15701      |      29375
       3  |  6:31.51 |    5:16.41   |       29376      |      53116
       4  | 11:48.17 |    3:34.16   |       53117      |      69182
       5  | 15:22.33 |    3:34.64   |       69183      |      85296
       6  | 18:57.22 |    2:59.59   |       85297      |      98780
       7  | 21:57.06 |    2:50.06   |       98781      |     111536
       8  | 24:47.12 |    3:32.24   |      111537      |     127460
       9  | 28:19.36 |    3:24.43   |      127461      |     142803
      10  | 31:44.04 |    3:24.56   |      142804      |     158159
      11  | 35:08.60 |    2:09.32   |      158160      |     167866
Характеристики диапазона извлечения и сообщения об ошибках
Выбранный диапазон
     Имя файла D:\Amanda Jenssen\Amanda Jensen - Killing My Darlings\Amanda Jensen - Killing My Darlings.wav
     Пиковый уровень 98.8 %
     Качество диапазона 99.4 %
     CRC копии 83F8DF59
     Копирование... OK
Ошибок не произошло
AccurateRip: сводка
Трек  1  точное извлечение (доверие 23)  [E457B72B]
Трек  2  точное извлечение (доверие 23)  [2AF39380]
Трек  3  точное извлечение (доверие 22)  [B4D31FA9]
Трек  4  точное извлечение (доверие 23)  [7730FF90]
Трек  5  точное извлечение (доверие 23)  [2C4AF049]
Трек  6  точное извлечение (доверие 23)  [6BB0526E]
Трек  7  точное извлечение (доверие 23)  [077BACFC]
Трек  8  точное извлечение (доверие 23)  [129BC838]
Трек  9  точное извлечение (доверие 23)  [C797696F]
Трек 10  точное извлечение (доверие 23)  [4B59B350]
Трек 11  точное извлечение (доверие 23)  [C7E7B9C5]
Все треки извлечены точно
Конец отчёта
Код:
REM GENRE Pop/Rock
REM DATE 2008
REM DISCID 7B08BE0B
REM COMMENT "Original Release Date: May 7, 2008"
PERFORMER "Amanda Jensen"
TITLE "Killing My Darlings"
FILE "Amanda Jensen - Killing My Darlings.ape" WAVE
  TRACK 01 AUDIO
    TITLE "For the Sun"
    PERFORMER "Amanda Jensen"
    FLAGS DCP
    INDEX 01 00:00:00
  TRACK 02 AUDIO
    TITLE "Amarula Tree"
    PERFORMER "Amanda Jensen"
    FLAGS DCP
    INDEX 01 03:29:26
  TRACK 03 AUDIO
    TITLE "Greetings from Space"
    PERFORMER "Amanda Jensen"
    FLAGS DCP
    INDEX 01 06:31:51
  TRACK 04 AUDIO
    TITLE "Do You Love Me"
    PERFORMER "Amanda Jensen"
    FLAGS DCP
    INDEX 01 11:48:17
  TRACK 05 AUDIO
    TITLE "So Far Away"
    PERFORMER "Amanda Jensen"
    FLAGS DCP
    INDEX 01 15:22:33
  TRACK 06 AUDIO
    TITLE "Don't Worry"
    PERFORMER "Amanda Jensen"
    FLAGS DCP
    INDEX 01 18:57:22
  TRACK 07 AUDIO
    TITLE "Darling, Go Home"
    PERFORMER "Amanda Jensen"
    FLAGS DCP
    INDEX 01 21:57:06
  TRACK 08 AUDIO
    TITLE "Numb"
    PERFORMER "Amanda Jensen"
    FLAGS DCP
    INDEX 01 24:47:12
  TRACK 09 AUDIO
    TITLE "Come On (You Have Arrived)"
    PERFORMER "Amanda Jensen"
    FLAGS DCP
    INDEX 01 28:19:36
  TRACK 10 AUDIO
    TITLE "Rising Up"
    PERFORMER "Amanda Jensen"
    FLAGS DCP
    INDEX 01 31:44:04
  TRACK 11 AUDIO
    TITLE "Our Last Goodbye"
    PERFORMER "Amanda Jensen"
    FLAGS DCP
    INDEX 01 35:08:60
Review by Stewart Mason: Amanda Jenssen's MySpace page lists her music under the genre tag "melodramatic popular song," and as the album title indicates, they ain't kiddin'. Although she was a runner-up on Sweden's version of the televised singing competition Pop Idol, Killing My Darlings is much less Jordin Sparks and Carrie Underwood than it is Dusty Springfield and Petula Clark. Like her U.K. counterparts Amy Winehouse or Duffy, Jenssen has a big, brassy voice with a sweet soul edge, and the production on Killing My Darlings has a similar Ready, Steady, Go! vibe, with full orchestras going toe to toe with a prominent rhythm section. The difference here is that Jenssen doesn't have the outsize persona that at its best invests Winehouse's Back to Black with its drama and intensity, although the trade-off is that it seems unlikely that Jenssen's personal life is going to so quickly spiral tragically out of control as Winehouse's apparently has. As a result, Killing My Darlings remains little more than a fine collection of skillful, tuneful pop songs, from the soaring, gloriously optimistic opener "For the Sun" to the brief, haunting piano ballad "Our Last Goodbye" that closes the album. The one misstep, in fact, is the first single "Do You Love Me," a somewhat overwrought, drum-machine powered groove that aims too hard for the mainstream Top 40 and sounds simply out of place in the kicky mod context of the rest of the album. Otherwise, Killing My Darlings is a fine addition to the retro '60s pop-soul sweepstakes of 2008.

Правила, инструкции, FAQ!!!
Торрент  Добавлен [26 мар 2019, 18:40] Скачать торрент Магнет ссылка
Скачать торрент
[ Размер 21.2 КБ / Просмотров 7 ]

Статус
Проверен 
 
Размер  255.39 МБ
Приватный: Нет (DHT включён)
.torrent скачан  0
 


     Отправить личное сообщение
   
Страница 1 из 1
Показать сообщения за:  Поле сортировки  
Начать новую тему Ответить на тему


Сейчас этот форум просматривают: нет зарегистрированных пользователей и гости: 0


Вы не можете начинать темы
Вы не можете отвечать на сообщения
Вы не можете редактировать свои сообщения
Вы не можете удалять свои сообщения
Вы не можете добавлять вложения

Перейти:  
cron