Начать новую тему Ответить на тему
Статистика раздачи
Размер: 353.9 МБ | Добавлен: 26 мар 2019, 20:44 | Скачали: 0
Сидеров: 0  [0 байт/сек]    Личеров: 0  [0 байт/сек]
Пред. тема | След. тема 

Автор
Сообщение

СообщениеДобавлено: 26 мар 2019, 20:44 

Ответить с цитатой 

Alanis Morissette - Under Rug Swept
Жанр: Pop Rock
Год выпуска диска: 2002
Производитель диска: Maverick/Warner Germany
Аудио кодек: FLAC
Тип рипа: tracks+.cue
Битрейт аудио: lossless
Продолжительность: 50:29
Трэклист:
01. 21 Things I Want In A Lover (3:28)
02. Narcissus (3:38)
03. Hands Clean (4:31)
04. Flinch (6:03)
05. So Unsexy (5:09)
06. Precious Illusions (4:11)
07. That Particular Time (4:22)
08. A Man (4:33)
09. You Owe Me Nothing In Return (4:58)
10. Surrendering (4:36)
11. Utopia (4:58)
Доп. информация: Under Rug Swept — шестой (пятый студийный) альбом канадской певицы Аланис Мориссетт. Выпущенный на Maverick Records в США 26 февраля 2002 года с позитивными отзывами, это первый альбом, записанный и спродюсированный Мориссетт самостоятельно. Он дебютировал на первой строчке чартов в 12 странах синглами «Hands Clean» и «Precious Illusions»
Код:
Exact Audio Copy V0.99 prebeta 5 from 4. May 2009
EAC extraction logfile from 1. March 2010, 13:36
Alanis Morissette / Under Rug Swept
Used drive  : MATSHITABD-MLT UJ-210S   Adapter: 1  ID: 0
Read mode               : Secure
Utilize accurate stream : Yes
Defeat audio cache      : Yes
Make use of C2 pointers : No
Read offset correction                      : 102
Overread into Lead-In and Lead-Out          : No
Fill up missing offset samples with silence : Yes
Delete leading and trailing silent blocks   : No
Null samples used in CRC calculations       : Yes
Used interface                              : Native Win32 interface for Win NT & 2000
Gap handling                                : Appended to previous track
Used output format              : User Defined Encoder
Selected bitrate                : 768 kBit/s
Quality                         : High
Add ID3 tag                     : No
Command line compressor         : C:\Program Files\Exact Audio Copy\FLAC\FLAC.EXE
Additional command line options : -8 -V -T "ARTIST=%a" -T "TITLE=%t" -T "ALBUM=%g" -T "DATE=%y" -T "TRACKNUMBER=%n" -T "GENRE=%m" -T "COMMENT=EAC FLAC -8" %s
TOC of the extracted CD
     Track |   Start  |  Length  | Start sector | End sector
    ---------------------------------------------------------
        1  |  0:00.00 |  3:28.17 |         0    |    15616
        2  |  3:28.17 |  3:38.25 |     15617    |    31991
        3  |  7:06.42 |  4:31.18 |     31992    |    52334
        4  | 11:37.60 |  6:03.30 |     52335    |    79589
        5  | 17:41.15 |  5:08.67 |     79590    |   102756
        6  | 22:50.07 |  4:11.33 |    102757    |   121614
        7  | 27:01.40 |  4:21.60 |    121615    |   141249
        8  | 31:23.25 |  4:33.37 |    141250    |   161761
        9  | 35:56.62 |  4:57.65 |    161762    |   184101
       10  | 40:54.52 |  4:35.43 |    184102    |   204769
       11  | 45:30.20 |  4:58.32 |    204770    |   227151
Track  1
     Filename D:\Alanis Morissette - Under Rug Swept\01. Alanis Morissette – Alanis Morissette , 21 things.wav
     Pre-gap length  0:00:02.00
     Peak level 98.8 %
     Track quality 99.9 %
     Test CRC 7A102359
     Copy CRC 7A102359
     Accurately ripped (confidence 23)  [CDF0D84D]
     Copy OK
Track  2
     Filename D:\Alanis Morissette - Under Rug Swept\02. Alanis Morissette – Narcissus.wav
     Pre-gap length  0:00:00.53
     Peak level 98.8 %
     Track quality 100.0 %
     Test CRC 245F1BE9
     Copy CRC 245F1BE9
     Accurately ripped (confidence 23)  [C1D95101]
     Copy OK
Track  3
     Filename D:\Alanis Morissette - Under Rug Swept\03. Alanis Morissette – Hands clean.wav
     Pre-gap length  0:00:00.22
     Peak level 98.8 %
     Track quality 100.0 %
     Test CRC 59E748F5
     Copy CRC 59E748F5
     Accurately ripped (confidence 23)  [74C9CB5E]
     Copy OK
Track  4
     Filename D:\Alanis Morissette - Under Rug Swept\04. Alanis Morissette – Flinch.wav
     Pre-gap length  0:00:01.17
     Peak level 88.3 %
     Track quality 100.0 %
     Test CRC 1B2A10F5
     Copy CRC 1B2A10F5
     Accurately ripped (confidence 23)  [7D84258C]
     Copy OK
Track  5
     Filename D:\Alanis Morissette - Under Rug Swept\05. Alanis Morissette – So unsexy.wav
     Peak level 98.8 %
     Track quality 100.0 %
     Test CRC D90DE375
     Copy CRC D90DE375
     Accurately ripped (confidence 22)  [97F7277D]
     Copy OK
Track  6
     Filename D:\Alanis Morissette - Under Rug Swept\06. Alanis Morissette – Precious Illusions.wav
     Pre-gap length  0:00:00.80
     Peak level 97.9 %
     Track quality 100.0 %
     Test CRC F7D2AA8D
     Copy CRC F7D2AA8D
     Accurately ripped (confidence 23)  [223822CF]
     Copy OK
Track  7
     Filename D:\Alanis Morissette - Under Rug Swept\07. Alanis Morissette – That particular time.wav
     Pre-gap length  0:00:00.53
     Peak level 98.8 %
     Track quality 100.0 %
     Test CRC A586FB7B
     Copy CRC A586FB7B
     Accurately ripped (confidence 23)  [96CB415A]
     Copy OK
Track  8
     Filename D:\Alanis Morissette - Under Rug Swept\08. Alanis Morissette – Man.wav
     Peak level 97.8 %
     Track quality 100.0 %
     Test CRC C8916DAD
     Copy CRC C8916DAD
     Accurately ripped (confidence 24)  [7BE08B8C]
     Copy OK
Track  9
     Filename D:\Alanis Morissette - Under Rug Swept\09. Alanis Morissette – You owe me nothing.wav
     Peak level 98.8 %
     Track quality 99.9 %
     Test CRC 2880AF9A
     Copy CRC 2880AF9A
     Accurately ripped (confidence 23)  [5B2ECE10]
     Copy OK
Track 10
     Filename D:\Alanis Morissette - Under Rug Swept\10. Alanis Morissette – Surrendering.wav
     Peak level 98.8 %
     Track quality 100.0 %
     Test CRC D634FB4C
     Copy CRC D634FB4C
     Accurately ripped (confidence 22)  [47001310]
     Copy OK
Track 11
     Filename D:\Alanis Morissette - Under Rug Swept\11. Alanis Morissette – Utopia.wav
     Peak level 98.8 %
     Track quality 100.0 %
     Test CRC 88E3D94F
     Copy CRC 88E3D94F
     Accurately ripped (confidence 21)  [08482430]
     Copy OK
All tracks accurately ripped
No errors occurred
End of status report
REM GENRE Rock
REM DISCID 930BD40B
REM COMMENT "ExactAudioCopy v0.99pb5"
PERFORMER "Alanis Morissette"
TITLE "Under Rug Swept"
FILE "01. Alanis Morissette – Alanis Morissette , 21 things.wav" WAVE
TRACK 01 AUDIO
TITLE "Alanis Morissette / 21 things"
PERFORMER "Alanis Morissette"
INDEX 01 00:00:00
TRACK 02 AUDIO
TITLE "Narcissus"
PERFORMER "Alanis Morissette"
INDEX 00 03:27:52
FILE "02. Alanis Morissette – Narcissus.wav" WAVE
INDEX 01 00:00:00
TRACK 03 AUDIO
TITLE "Hands clean"
PERFORMER "Alanis Morissette"
INDEX 00 03:38:08
FILE "03. Alanis Morissette – Hands clean.wav" WAVE
INDEX 01 00:00:00
TRACK 04 AUDIO
TITLE "Flinch"
PERFORMER "Alanis Morissette"
INDEX 00 04:30:05
FILE "04. Alanis Morissette – Flinch.wav" WAVE
INDEX 01 00:00:00
FILE "05. Alanis Morissette – So unsexy.wav" WAVE
TRACK 05 AUDIO
TITLE "So unsexy"
PERFORMER "Alanis Morissette"
INDEX 01 00:00:00
TRACK 06 AUDIO
TITLE "Precious Illusions"
PERFORMER "Alanis Morissette"
INDEX 00 05:08:07
FILE "06. Alanis Morissette – Precious Illusions.wav" WAVE
INDEX 01 00:00:00
TRACK 07 AUDIO
TITLE "That particular time"
PERFORMER "Alanis Morissette"
INDEX 00 04:10:68
FILE "07. Alanis Morissette – That particular time.wav" WAVE
INDEX 01 00:00:00
FILE "08. Alanis Morissette – Man.wav" WAVE
TRACK 08 AUDIO
TITLE "Man"
PERFORMER "Alanis Morissette"
INDEX 01 00:00:00
FILE "09. Alanis Morissette – You owe me nothing.wav" WAVE
TRACK 09 AUDIO
TITLE "You owe me nothing"
PERFORMER "Alanis Morissette"
INDEX 01 00:00:00
FILE "10. Alanis Morissette – Surrendering.wav" WAVE
TRACK 10 AUDIO
TITLE "Surrendering"
PERFORMER "Alanis Morissette"
INDEX 01 00:00:00
FILE "11. Alanis Morissette – Utopia.wav" WAVE
TRACK 11 AUDIO
TITLE "Utopia"
PERFORMER "Alanis Morissette"
INDEX 01 00:00:00
Правила, инструкции, FAQ!!!
Торрент  Добавлен [26 мар 2019, 20:44] Скачать торрент Магнет ссылка
Скачать торрент
[ Размер 15.18 КБ / Просмотров 17 ]

Статус
Проверен 
 
Размер  353.9 МБ
Приватный: Нет (DHT включён)
.torrent скачан  0
 


     Отправить личное сообщение
   
Страница 1 из 1
Показать сообщения за:  Поле сортировки  
Начать новую тему Ответить на тему


Сейчас этот форум просматривают: нет зарегистрированных пользователей и гости: 0


Вы не можете начинать темы
Вы не можете отвечать на сообщения
Вы не можете редактировать свои сообщения
Вы не можете удалять свои сообщения
Вы не можете добавлять вложения

Перейти:  
cron