Начать новую тему Ответить на тему
Статистика раздачи
Размер: 454.92 МБ | Добавлен: 26 мар 2019, 20:15 | Скачали: 0
Сидеров: 0  [0 байт/сек]    Личеров: 0  [0 байт/сек]
Пред. тема | След. тема 

Автор
Сообщение

СообщениеДобавлено: 26 мар 2019, 20:15 

Ответить с цитатой 

Alanis Morissette - Supposed Former Infatuation Junkie
Жанр: Pop-Rock
Год выпуска диска: 1998
Производитель диска: Germany (WARNER Music Manufacturing Europe)
Аудио кодек: FLAC
Тип рипа: image+.cue
Битрейт аудио: lossless
Продолжительность: 71:54
Трэклист:
01. Front Row 4:14
02. Baba 4:30
03. Thank U 4:19
04. Are You Still Mad 4:04
05. Sympathetic Character 5:13
06. That I Would Be Good 4:18
07. The Couch 5:25
08. Can't Not 4:36
09. UR 3:32
10. I Was Hoping 3:51
11. One 4:40
12. Would Not Come 4:05
13. Unsent 4:10
14. So Pure 2:51
15. Joining You 4:24
16. Heart Of The House 3:47
17. Your Congratulations 3:55
Exact Audio Copy V0.99 prebeta 4 from 23. January 2008
Отчёт EAC об извлечении, выполненном 28. июля 2009, 18:32
Alanis Morissette / Supposed Former Infatuation Junkie
Дисковод: HL-DT-STDVDRAM GSA-T40N Adapter: 0 ID: 0
Режим чтения : Достоверность
Использование точного потока : Да
Отключение кэша аудио : Да
Использование указателей C2 : Нет
Коррекция смещения при чтении : 667
Способность читать области Lead-in и Lead-out : Нет
Заполнение пропущенных сэмплов тишиной : Да
Удаление блоков с тишиной в начале и конце : Нет
При вычислениях CRC использовались нулевые сэмплы : Да
Интерфейс : Встроенный Win32-интерфейс для Win NT/2000
Выходной формат : Внутренние WAV-операции
Формат сэмплов : 44.100 Гц; 16 бит; стерео
Смещение при сжатии : 0
TOC извлечённого CD
Трек | Старт | Длительность | Начальный сектор | Конечный сектор
---------------------------------------------------------------------
1 | 0:00.00 | 4:14.15 | 0 | 19064
2 | 4:14.15 | 4:29.70 | 19065 | 39309
3 | 8:44.10 | 4:18.62 | 39310 | 58721
4 | 13:02.72 | 4:04.33 | 58722 | 77054
5 | 17:07.30 | 5:12.60 | 77055 | 100514
6 | 22:20.15 | 4:17.40 | 100515 | 119829
7 | 26:37.55 | 5:24.57 | 119830 | 144186
8 | 32:02.37 | 4:35.73 | 144187 | 164884
9 | 36:38.35 | 3:31.40 | 164885 | 180749
10 | 40:10.00 | 3:51.10 | 180750 | 198084
11 | 44:01.10 | 4:40.30 | 198085 | 219114
12 | 48:41.40 | 4:05.07 | 219115 | 237496
13 | 52:46.47 | 4:10.13 | 237497 | 256259
14 | 56:56.60 | 2:51.30 | 256260 | 269114
15 | 59:48.15 | 4:24.32 | 269115 | 288946
16 | 64:12.47 | 3:46.40 | 288947 | 305936
17 | 67:59.12 | 3:55.15 | 305937 | 323576
Характеристики диапазона извлечения и сообщения об ошибках
Выбранный диапазон
Имя файла D:\Music\Lossless Rips\Alanis Morissette - Supposed Former Infatuation Junkie (1998)\Alanis Morissette - Supposed Former Infatuation Junkie.wav
Пиковый уровень 100.0 %
Качество диапазона 99.9 %
CRC копии 1777A0C7
Копирование... OK
Ошибок не произошло
AccurateRip: сводка
Трек 1 точное извлечение (доверие 200) [3A95C641]
Трек 2 точное извлечение (доверие 200) [41D7D5EA]
Трек 3 точное извлечение (доверие 200) [0451338A]
Трек 4 точное извлечение (доверие 200) [4688AF73]
Трек 5 точное извлечение (доверие 200) [361D259D]
Трек 6 точное извлечение (доверие 200) [CEA635F2]
Трек 7 точное извлечение (доверие 200) [E7ED6A31]
Трек 8 точное извлечение (доверие 200) [949989DA]
Трек 9 точное извлечение (доверие 200) [506F82A3]
Трек 10 точное извлечение (доверие 200) [12327973]
Трек 11 точное извлечение (доверие 200) [F89726F2]
Трек 12 точность не определена (достоверность 48) [4E921951], AccurateRip вернул [02BC8B7A]
Трек 13 точное извлечение (доверие 200) [C2871A45]
Трек 14 точное извлечение (доверие 200) [B9D6884A]
Трек 15 точное извлечение (доверие 200) [B2E83411]
Трек 16 точное извлечение (доверие 200) [474E134F]
Трек 17 точное извлечение (доверие 200) [9FD13D0B]
16 трек(и) скопированы точно
1 трек(и) не удалось проверить на точность
Некоторые треки не прошли проверку на точность
Конец отчёта
D:\Music\Lossless\Alanis Morissette - Supposed Former Infatuation Junkie (1998)>
aucdtect -d -m0 "Alanis Morissette - Supposed Former Infatuation Junkie.wav"
auCDtect: CD records authenticity detector, version 0.8.2
Copyright (c) 2004 Oleg Berngardt. All rights reserved.
Copyright (c) 2004 Alexander Djourik. All rights reserved.
------------------------------------------------------------
Processing file: [Alanis Morissette - Supposed Former Infatuation Junkie.wav]
wav]
Data analysis: [100%]
------------------------------------------------------------
This track looks like CDDA with probability 100%
------------------------------------------------------------
Final Conclusion:
------------------------------------------------------------
These tracks looks like CDDA with probability 100%
Доп. информация: Рип с немецкой штамповки диска.Сканера,уж простите,нету,но если будут просьбы,то могу и добавить,перезалив в последствии торрент-файл.Более серьезная работа по сравнению с наивно-девичьим и звездным "Jagged Little Pill" в сотрудничестве с тем же продюсером Гленом Баллардом.
Правила, инструкции, FAQ!!!
Торрент  Добавлен [26 мар 2019, 20:15] Скачать торрент Магнет ссылка
Скачать торрент
[ Размер 18.67 КБ / Просмотров 2 ]

Статус
Проверен 
 
Размер  454.92 МБ
Приватный: Нет (DHT включён)
.torrent скачан  0
 


     Отправить личное сообщение
   
Страница 1 из 1
Показать сообщения за:  Поле сортировки  
Начать новую тему Ответить на тему


Сейчас этот форум просматривают: нет зарегистрированных пользователей и гости: 0


Вы не можете начинать темы
Вы не можете отвечать на сообщения
Вы не можете редактировать свои сообщения
Вы не можете удалять свои сообщения
Вы не можете добавлять вложения

Перейти:  
cron