Начать новую тему Ответить на тему
Статистика раздачи
Размер: 858.06 МБ | Добавлен: 26 мар 2019, 20:24 | Скачали: 1
Сидеров: 3  [0 байт/сек]    Личеров: 5  [0 байт/сек]
Пред. тема | След. тема 

Автор
Сообщение

СообщениеДобавлено: 26 мар 2019, 20:24 

Ответить с цитатой 

Alanis Morissette / Havoc And Bright Lights (Deluxe Edition)
Жанр: Pop Rock
Страна-производитель диска: Germany
Год издания: 2012
Издатель (лейбл): Sony Music Entartainment
Номер по каталогу: 88725443292
Страна: US
Аудиокодек: FLAC (*.flac)
Тип рипа: tracks+.cue
Битрейт аудио: lossless
Продолжительность: 01:01:47+00:57:47
Источник (релизер): Ослосеть
Наличие сканов в содержимом раздачи: да
01. Guardian 4:18
02. Woman Down 3:36
03. 'til You 4:07
04. Celebrity 4:01
05. Empathy 4:00
06. Lens 4:08
07. Spiral 4:17
08. Numb 4:10
09. Havoc 5:53
10. Win And Win 5:01
11. Receive 4:28
12. Edge Of Evolution 4:30
13. Will You Be My Girlfriend 4:11
14. Magical Child 5:07
01. I Remain (Segue 1) 2:48
02. Woman Down 3:32
03. You Learn 4:44
04. Guardian 4:59
05. Hands Clean 4:48
06. Citizen Of The Planet 4:46
07. Ironic 4:07
08. Head Over Feet 4:58
09. You Oughta Know 5:29
10. Numb 6:24
11. Hand In My Pocket 5:14
12. Uninvited 5:58
Код:
Exact Audio Copy V1.0 beta 3 from 29. August 2011
EAC uitlezen log bestand van 23. Augustus 2012, 18:29
Alanis Morissette / Havoc And Bright Lights
gebruikt loopwerk : PIONEER DVD-RW DVR-219L Adapter: 3 ID: 0
Lees mode : : Veilig
Gebruik accurate stream : Ja
Audio buffer uitgeschakeld : Neen
Maak gebruik van C2 pointers : Ja
Lees-offset correctie : : 6
Overlees in Lead-In en Lead-Out : Neen
Vul ontbrekende offset samples met stiltes aan : Ja
Wis stilte blokken aan het begin en einde : Neen
Nul samples gebruikt in CRC berekeningen : Ja
Gebruikte interface : Native Win32 interface voor Win NT & 2000
Gebruik uitgave formaat : : Interne WAV Routines
Sample formaat : 44.100 Hz; 16 Bit; Stereo
TOC van de uitgelezen CD
Track | Start | Lengte | Start sector | Eind sector
----------------------------------------------------------
1 | 0:00.00 | 4:18.54 | 0 | 19403
2 | 4:18.54 | 3:36.43 | 19404 | 35646
3 | 7:55.22 | 4:07.34 | 35647 | 54205
4 | 12:02.56 | 4:01.13 | 54206 | 72293
5 | 16:03.69 | 4:00.30 | 72294 | 90323
6 | 20:04.24 | 4:08.42 | 90324 | 108965
7 | 24:12.66 | 4:17.18 | 108966 | 128258
8 | 28:30.09 | 4:10.03 | 128259 | 147011
9 | 32:40.12 | 5:53.09 | 147012 | 173495
10 | 38:33.21 | 5:01.02 | 173496 | 196072
11 | 43:34.23 | 4:28.28 | 196073 | 216200
12 | 48:02.51 | 4:30.56 | 216201 | 236506
13 | 52:33.32 | 4:11.04 | 236507 | 255335
14 | 56:44.36 | 5:07.56 | 255336 | 278416
Bereikstatus en fouten
Geselecteerd bereik
Bestands naam F:\POST 2\Alanis Morissette - Havoc And Bright Lights (EAC)\Alanis Morissette - Havoc And Bright Lights.wav
Piek niveau 99.8 %
Uitlees snelheid 5.2 X
Bereikskwaliteit 100.0 %
Kopie CRC F8808CCE
Kopie OK
Geen fouten opgetreden
AccurateRip samenvatting
Track 1 niet aanwezig in database
Track 2 niet aanwezig in database
Track 3 niet aanwezig in database
Track 4 niet aanwezig in database
Track 5 niet aanwezig in database
Track 6 niet aanwezig in database
Track 7 niet aanwezig in database
Track 8 niet aanwezig in database
Track 9 niet aanwezig in database
Track 10 niet aanwezig in database
Track 11 niet aanwezig in database
Track 12 niet aanwezig in database
Track 13 niet aanwezig in database
Track 14 niet aanwezig in database
Geen enkele Track aanwezig in AccurateRip database
Einde status report
Exact Audio Copy V1.0 beta 3 from 29. August 2011
EAC uitlezen log bestand van 23. Augustus 2012, 18:48
Alanis Morissette / Havoc And Bright Lights Bonus Live CD
gebruikt loopwerk : PIONEER DVD-RW DVR-219L Adapter: 3 ID: 0
Lees mode : : Veilig
Gebruik accurate stream : Ja
Audio buffer uitgeschakeld : Neen
Maak gebruik van C2 pointers : Ja
Lees-offset correctie : : 6
Overlees in Lead-In en Lead-Out : Neen
Vul ontbrekende offset samples met stiltes aan : Ja
Wis stilte blokken aan het begin en einde : Neen
Nul samples gebruikt in CRC berekeningen : Ja
Gebruikte interface : Native Win32 interface voor Win NT & 2000
Gebruik uitgave formaat : : Interne WAV Routines
Sample formaat : 44.100 Hz; 16 Bit; Stereo
TOC van de uitgelezen CD
Track | Start | Lengte | Start sector | Eind sector
----------------------------------------------------------
1 | 0:00.00 | 2:48.51 | 0 | 12650
2 | 2:48.51 | 3:32.09 | 12651 | 28559
3 | 6:20.60 | 4:44.65 | 28560 | 49924
4 | 11:05.50 | 4:59.18 | 49925 | 72367
5 | 16:04.68 | 4:48.27 | 72368 | 93994
6 | 20:53.20 | 4:46.50 | 93995 | 115494
7 | 25:39.70 | 4:07.41 | 115495 | 134060
8 | 29:47.36 | 4:58.29 | 134061 | 156439
9 | 34:45.65 | 5:29.62 | 156440 | 181176
10 | 40:15.52 | 6:24.38 | 181177 | 210014
11 | 46:40.15 | 5:14.74 | 210015 | 233638
12 | 51:55.14 | 5:58.43 | 233639 | 260531
Bereikstatus en fouten
Geselecteerd bereik
Bestands naam F:\POST 2\Alanis Morissette - Havoc And Bright Lights (EAC)\Bonus Live CD\Alanis Morissette - Havoc And Bright Lights Bonus Live CD.wav
Piek niveau 99.8 %
Uitlees snelheid 5.1 X
Bereikskwaliteit 100.0 %
Kopie CRC 9F94F9AA
Kopie OK
Geen fouten opgetreden
AccurateRip samenvatting
Track 1 niet aanwezig in database
Track 2 niet aanwezig in database
Track 3 niet aanwezig in database
Track 4 niet aanwezig in database
Track 5 niet aanwezig in database
Track 6 niet aanwezig in database
Track 7 niet aanwezig in database
Track 8 niet aanwezig in database
Track 9 niet aanwezig in database
Track 10 niet aanwezig in database
Track 11 niet aanwezig in database
Track 12 niet aanwezig in database
Geen enkele Track aanwezig in AccurateRip database
Einde status report
Код:
PERFORMER "Alanis Morissette"
TITLE "Havoc And Bright Lights"
FILE "01 Guardian.flac" WAVE
TRACK 01 AUDIO
TITLE "Guardian"
PERFORMER "Alanis Morissette"
INDEX 01 00:00:00
TRACK 02 AUDIO
TITLE "Woman Down"
PERFORMER "Alanis Morissette"
INDEX 00 04:18:22
FILE "02 Woman Down.flac" WAVE
INDEX 01 00:00:00
TRACK 03 AUDIO
TITLE "'Til You"
PERFORMER "Alanis Morissette"
INDEX 00 03:35:04
FILE "03 'Til You.flac" WAVE
INDEX 01 00:00:00
TRACK 04 AUDIO
TITLE "Celebrity"
PERFORMER "Alanis Morissette"
INDEX 00 04:05:22
FILE "04 Celebrity.flac" WAVE
INDEX 01 00:00:00
TRACK 05 AUDIO
TITLE "Empany"
PERFORMER "Alanis Morissette"
INDEX 00 03:58:36
FILE "05 Empany.flac" WAVE
INDEX 01 00:00:00
TRACK 06 AUDIO
TITLE "Lens"
PERFORMER "Alanis Morissette"
INDEX 00 03:57:65
FILE "06 Lens.flac" WAVE
INDEX 01 00:00:00
TRACK 07 AUDIO
TITLE "Spiral"
PERFORMER "Alanis Morissette"
INDEX 00 04:06:49
FILE "07 Spiral.flac" WAVE
INDEX 01 00:00:00
TRACK 08 AUDIO
TITLE "Numb"
PERFORMER "Alanis Morissette"
INDEX 00 04:15:25
FILE "08 Numb.flac" WAVE
INDEX 01 00:00:00
TRACK 09 AUDIO
TITLE "Havoc"
PERFORMER "Alanis Morissette"
INDEX 00 04:07:73
FILE "09 Havoc.flac" WAVE
INDEX 01 00:00:00
TRACK 10 AUDIO
TITLE "Win And Win"
PERFORMER "Alanis Morissette"
INDEX 00 05:50:43
FILE "10 Win And Win.flac" WAVE
INDEX 01 00:00:00
TRACK 11 AUDIO
TITLE "Receive"
PERFORMER "Alanis Morissette"
INDEX 00 04:57:61
FILE "11 Receive.flac" WAVE
INDEX 01 00:00:00
TRACK 12 AUDIO
TITLE "Edge Of Evolution"
PERFORMER "Alanis Morissette"
INDEX 00 04:25:69
FILE "12 Edge Of Evolution.flac" WAVE
INDEX 01 00:00:00
TRACK 13 AUDIO
TITLE "Will You Be My Girlfriend?"
PERFORMER "Alanis Morissette"
INDEX 00 04:29:67
FILE "13 Will You Be My Girlfriend.flac" WAVE
INDEX 01 00:00:00
TRACK 14 AUDIO
TITLE "Magical Child"
PERFORMER "Alanis Morissette"
INDEX 00 04:10:01
FILE "14 Magical Child.flac" WAVE
INDEX 01 00:00:00
PERFORMER "Alanis Morissette"
TITLE "Havoc And Bright Lights Bonus Live CD"
FILE "01 I Remain (Segue 1).flac" WAVE
TRACK 01 AUDIO
TITLE "I Remain (Segue 1)"
PERFORMER "Alanis Morissette"
INDEX 01 00:00:00
FILE "02 Woman Down.flac" WAVE
TRACK 02 AUDIO
TITLE "Woman Down"
PERFORMER "Alanis Morissette"
INDEX 01 00:00:00
FILE "03 You Learn.flac" WAVE
TRACK 03 AUDIO
TITLE "You Learn"
PERFORMER "Alanis Morissette"
INDEX 01 00:00:00
FILE "04 Guardian.flac" WAVE
TRACK 04 AUDIO
TITLE "Guardian"
PERFORMER "Alanis Morissette"
INDEX 01 00:00:00
FILE "05 Hands Clean.flac" WAVE
TRACK 05 AUDIO
TITLE "Hands Clean"
PERFORMER "Alanis Morissette"
INDEX 01 00:00:00
FILE "06 Citizen Of The Planet.flac" WAVE
TRACK 06 AUDIO
TITLE "Citizen Of The Planet"
PERFORMER "Alanis Morissette"
INDEX 01 00:00:00
FILE "07 Ironic.flac" WAVE
TRACK 07 AUDIO
TITLE "Ironic"
PERFORMER "Alanis Morissette"
INDEX 01 00:00:00
FILE "08 Head Over Feet.flac" WAVE
TRACK 08 AUDIO
TITLE "Head Over Feet"
PERFORMER "Alanis Morissette"
INDEX 01 00:00:00
FILE "09 You Oughta Know.flac" WAVE
TRACK 09 AUDIO
TITLE "You Oughta Know"
PERFORMER "Alanis Morissette"
INDEX 01 00:00:00
FILE "10 Numb.flac" WAVE
TRACK 10 AUDIO
TITLE "Numb"
PERFORMER "Alanis Morissette"
INDEX 01 00:00:00
FILE "11 Hand In My Pocket.flac" WAVE
TRACK 11 AUDIO
TITLE "Hand In My Pocket"
PERFORMER "Alanis Morissette"
INDEX 01 00:00:00
FILE "12 Uninvited.flac" WAVE
TRACK 12 AUDIO
TITLE "Uninvited"
PERFORMER "Alanis Morissette"
INDEX 01 00:00:00
Код:
AUDIOCHECKER v2.0 beta (build 457) - by Dester - opdester@freemail.hu
~~~~~~~~~~~~~~~~~~~~~~~~~~~~~~~~~~
-=== НЕ РЕДАКТИРУЙТЕ ЭТОТ ФАЙЛ! ===-
Путь: ...\Cd1
01 -=- 01 Guardian.flac -=- CDDA (100%)
02 -=- 02 Woman Down.flac -=- CDDA (100%)
03 -=- 03 'til You.flac -=- CDDA (100%)
04 -=- 04 Celebrity.flac -=- CDDA (100%)
05 -=- 05 Empany.flac -=- CDDA (100%)
06 -=- 06 Lens.flac -=- CDDA (100%)
07 -=- 07 Spiral.flac -=- CDDA (100%)
08 -=- 08 Numb.flac -=- CDDA (100%)
09 -=- 09 Havoc.flac -=- CDDA (100%)
10 -=- 10 Win And Win.flac -=- CDDA (99%)
11 -=- 11 Receive.flac -=- CDDA (100%)
12 -=- 12 Edge Of Evolution.flac -=- CDDA (100%)
13 -=- 13 Will You Be My Girlfriend.flac -=- CDDA (100%)
14 -=- 14 Magical Child.flac -=- CDDA (100%)
Сводка 99,93% CDDA
231396500
AUDIOCHECKER v2.0 beta (build 457) - by Dester - opdester@freemail.hu
~~~~~~~~~~~~~~~~~~~~~~~~~~~~~~~~~~
-=== НЕ РЕДАКТИРУЙТЕ ЭТОТ ФАЙЛ! ===-
Путь: ...\Cd2 - Live
01 -=- 01 I Remain (Segue 1).flac -=- CDDA (100%)
02 -=- 02 Woman Down.flac -=- MPEG (80%)
03 -=- 03 You Learn.flac -=- CDDA (58%)
04 -=- 04 Guardian.flac -=- CDDA (43%)
05 -=- 05 Hands Clean.flac -=- CDDA (43%)
06 -=- 06 Citizen Of The Planet.flac -=- MPEG (93%)
07 -=- 07 Ironic.flac -=- CDDA (85%)
08 -=- 08 Head Over Feet.flac -=- MPEG (79%)
09 -=- 09 You Oughta Know.flac -=- CDDA (100%)
10 -=- 10 Numb.flac -=- CDDA (43%)
11 -=- 11 Hand In My Pocket.flac -=- MPEG (73%)
12 -=- 12 Uninvited.flac -=- CDDA (99%)
Сводка 53,83% CDDA
240099172
CD One:

CD Two:
Правила, инструкции, FAQ!!!
Торрент  Добавлен [26 мар 2019, 20:24] Скачать торрент Магнет ссылка
Скачать торрент
[ Размер 19.62 КБ / Просмотров 12 ]

Статус
Проверен 
 
Размер  858.06 МБ
Приватный: Нет (DHT включён)
.torrent скачан  1
 


     Отправить личное сообщение
   
Страница 1 из 1
Показать сообщения за:  Поле сортировки  
Начать новую тему Ответить на тему


Сейчас этот форум просматривают: нет зарегистрированных пользователей и гости: 0


Вы не можете начинать темы
Вы не можете отвечать на сообщения
Вы не можете редактировать свои сообщения
Вы не можете удалять свои сообщения
Вы не можете добавлять вложения

Перейти:  
cron