Начать новую тему Ответить на тему
Статистика раздачи
Размер: 337.88 МБ | Добавлен: 26 мар 2019, 20:32 | Скачали: 0
Сидеров: 2  [0 байт/сек]    Личеров: 3  [0 байт/сек]
Пред. тема | След. тема 

Автор
Сообщение

СообщениеДобавлено: 26 мар 2019, 20:32 

Ответить с цитатой 

Against the Current / In Our Bones
Жанр: Pop Rock
Носитель: CD
Страна-производитель диска (релиза): Japan
Год издания: 2016
Страна исполнителя (группы): USA
Аудиокодек: FLAC (*.flac)
Тип рипа: image+.cue
Битрейт аудио: lossless
Продолжительность: 00:46:52
Источник (релизер): Собственный диск
Наличие сканов в содержимом раздачи: нет
Треклист:
01. Running with the Wild Things
02. Forget Me Now
03. Chasing Ghosts
04. One More Weekend
05. In Our Bones
06. Young & Relentless
07. Runaway
08. Brighter
09. Wasteland
10. Blood Like Gasoline
11. Roses
12. Demons
13. Steal the Night (Bonus)
14. Zombie (Bonus)
Код:
Exact Audio Copy V1.3 from 2. September 2016
EAC extraction logfile from 19. November 2018, 16:09
AGAINS THE CURRENT / In Our Bones
Used drive  : MATSHITADVD-RAM UJ8E2Q   Adapter: 1  ID: 0
Read mode               : Secure
Utilize accurate stream : Yes
Defeat audio cache      : Yes
Make use of C2 pointers : No
Read offset correction                      : 103
Overread into Lead-In and Lead-Out          : No
Fill up missing offset samples with silence : Yes
Delete leading and trailing silent blocks   : No
Null samples used in CRC calculations       : Yes
Used interface                              : Native Win32 interface for Win NT & 2000
Used output format              : User Defined Encoder
Selected bitrate                : 1024 kBit/s
Quality                         : High
Add ID3 tag                     : No
Command line compressor         : C:\Users\User\flac-1.3.2-win\flac-1.3.2-win\win64\flac.exe
Additional command line options :  -8 -V -T "TITLE=%title%" -T "ARTIST=%artist%" -T "ALBUMARTIST=%albumartist%" -T "ALBUM=%albumtitle%" -T "DATE=%year%" -T "TRACKNUMBER=%tracknr%" -T "TRACKTOTAL=%numtracks%" -T "GENRE=%genre%" -T "COMMENT=%comment%" -T "PERFORMER=%albuminterpret%" -T "COMPOSER=%composer%" %source% -o %dest%
TOC of the extracted CD
     Track |   Start  |  Length  | Start sector | End sector
    ---------------------------------------------------------
        1  |  0:00.00 |  3:42.73 |         0    |    16722
        2  |  3:42.73 |  3:01.37 |     16723    |    30334
        3  |  6:44.35 |  3:29.38 |     30335    |    46047
        4  | 10:13.73 |  3:05.00 |     46048    |    59922
        5  | 13:18.73 |  2:58.56 |     59923    |    73328
        6  | 16:17.54 |  3:22.19 |     73329    |    88497
        7  | 19:39.73 |  3:36.00 |     88498    |   104697
        8  | 23:15.73 |  3:27.00 |    104698    |   120222
        9  | 26:42.73 |  3:25.37 |    120223    |   135634
       10  | 30:08.35 |  3:18.00 |    135635    |   150484
       11  | 33:26.35 |  3:37.57 |    150485    |   166816
       12  | 37:04.17 |  3:24.18 |    166817    |   182134
       13  | 40:28.35 |  3:21.00 |    182135    |   197209
       14  | 43:49.35 |  3:02.68 |    197210    |   210927
Range status and errors
Selected range
     Filename C:\Users\User\Desktop\Against the Current\AGAINS THE CURRENT - In Our Bones.wav
     Peak level 100.0 %
     Extraction speed 3.9 X
     Range quality 99.9 %
     Test CRC BCA639A5
     Copy CRC BCA639A5
     Copy OK
No errors occurred
AccurateRip summary
Track  1  not present in database
Track  2  not present in database
Track  3  not present in database
Track  4  not present in database
Track  5  not present in database
Track  6  not present in database
Track  7  not present in database
Track  8  not present in database
Track  9  not present in database
Track 10  not present in database
Track 11  not present in database
Track 12  not present in database
Track 13  not present in database
Track 14  not present in database
None of the tracks are present in the AccurateRip database
End of status report
---- CUETools DB Plugin V2.1.6
[CTDB TOCID: hUfdQvFjBgcnaZIWG6yWLtXdNpM-] found
Submit result: hUfdQvFjBgcnaZIWG6yWLtXdNpM- has been confirmed
Track | CTDB Status
  1   | (11/11) Accurately ripped
  2   | (11/11) Accurately ripped
  3   | (11/11) Accurately ripped
  4   | (11/11) Accurately ripped
  5   | (11/11) Accurately ripped
  6   | (11/11) Accurately ripped
  7   | (11/11) Accurately ripped
  8   | (11/11) Accurately ripped
  9   | (11/11) Accurately ripped
 10   | (11/11) Accurately ripped
 11   | (11/11) Accurately ripped
 12   | (11/11) Accurately ripped
 13   | (11/11) Accurately ripped
 14   | (11/11) Accurately ripped
==== Log checksum 287A49C5565C6E57D9FCB9BC0A838E7AFF4B4EE9288E745E9E1908B1E2BCA2CD ====
Правила, инструкции, FAQ!!!
Торрент  Добавлен [26 мар 2019, 20:32] Скачать торрент Магнет ссылка
Скачать торрент
[ Размер 13.84 КБ / Просмотров 18 ]

Статус
Проверен 
 
Размер  337.88 МБ
Приватный: Нет (DHT включён)
.torrent скачан  0
 


     Отправить личное сообщение
   
Страница 1 из 1
Показать сообщения за:  Поле сортировки  
Начать новую тему Ответить на тему


Сейчас этот форум просматривают: нет зарегистрированных пользователей и гости: 0


Вы не можете начинать темы
Вы не можете отвечать на сообщения
Вы не можете редактировать свои сообщения
Вы не можете удалять свои сообщения
Вы не можете добавлять вложения

Перейти:  
cron