Начать новую тему Ответить на тему
Статистика раздачи
Размер: 1.72 ГБ | Добавлен: 26 мар 2019, 19:57 | Скачали: 1
Сидеров: 3  [0 байт/сек]    Личеров: 2  [0 байт/сек]
Пред. тема | След. тема 

Автор
Сообщение

СообщениеДобавлено: 26 мар 2019, 19:57 

Ответить с цитатой 

Anouk - Полная студийная номерная дискография 6 альбомов 1997 - 2009 - 1,72 Gb)
#777Жанр: Alternative rock, Pop Rock
Производитель дисков: Все диски мои личные, производства Нидерландов и Германии.
Аудио кодек: FLAC
Тип рипа: tracks+.cue
Битрейт аудио: lossless
Extractor: EAC
Mode: Согласно инструкции
Лог файл EAC-log присутствует в каждом альбоме
Продолжительность: 6 cd
Доп. информация:
http://en.wikipedia.org/wiki/Anouk_(singer)
Как видно из фотографий - дэушка сверхзнойная, могёт прилично врезать рокенролл, да и по мардасам тоже не менее сурьезно, хотя, видать, иногда получает сдачи.
Ну да ладно, перейдем к теме -
Anouk Teeuwe появилась на свет месяца апреля, числа 8, года 1975 в стольном граде Гаага, что в Нидерландской Марихуаннии. Ея маманя была блюзовой певицей там же в Марихуаннии и привила дочурке вкус к правильному музону с первой пачкой травяных памперсов. Оформившись с некоторым возрастом в интересную всю-из-себя мамзель, Анук Батьковна решила не размениваться на всяку ерунду, вроде кучерявой попсы, а пойти по верному и тернистому пути в рок.
Начинала она свой певческий рост, как водится, с пения на свадьбах, всяческих канабис-туснях, грибных беспределах и прочих красно-фонарных увеселительных мероприятиях. Далее, опять же как водится, ее засек кто-то из звукозаписывающих бонз, подсунул бумажки на подпись и выдал приличный аванс, наряду с полной творческой свободой, что редко для такой начинайки, как молодая Анук.
В 1997 году она выдает крепкосбитый дебютный альбом Together Alone с бронебойным першинг-хитом под названием Nobodys Wife - Ничья, типа жана. Голландская аудитория полностью охренела от того как така цаца, да без мужа и порвала магазинные полки на триколор. Альбом в мелкодисперсной Марихуаннии стал четырежды платиновым, обеспечив Анучке светлое будущее.
Далее в 1999 вывалился Urban Solitude, где тётенька продемонстрировала еще более зрелое музыкальное мировосприятие и недюжинный поэтический талант. В 2001 она решила попытаться рвануть Пендосов в их С-Штатах и поперлась туда потрещать с мейджором Сони Рекордс. Но не тут-то было - от ворот поворот и опять конкордом через море-окиян. Да и фиг с ними, решила Анук и принялась строчить новые ноктюрны и сонаты для нового альбома Graduated Fool, который вышел в 2002 году. и оказался самым тяжелым по звучанию на сегодняшний день в ее нелегкой карьере. Ну там концерты, все такое, тусня и дуэты с голландским товарищем Kane (чья полная дискография тож мною раздается) и новый альбом Hotel New York 2004, который не тяжел, но весьма интересен.
В 2007 году Анук поднапрягла извилины, дунула травы из стратегических спец-запасников королевы Нидерландов и выдала свой наулучший альбомище -
Who's Your Momma, где эксперименты со звуком вышли на иной уровень, а мелодизм ну прям сверкал разнообразием. Нарубив баблоса и всяческих наград в виде двух тонн первоклассного сыра, Анук послала к такой-то матери своего мужа, так что теперь ээээээ...она действительно Ничья типа жана. Обычный интервал 2 года и перед аудиторией новый альбом - For Bitter or Worse 2009, который продолжил линию 2007 по освоению новых звуковых территорий.
На сегодня - Анук весьма интересная музыкантка с отличным голосовым диапазоном, хорошей мелодикой, ну и ваааще - недурная из себя тётушка, не смотря на кровоподтеки.
В данной подборке - весь номерной студийный материал, кроме Lost Tracks, где всякие би-сайды и аккустические версии. Жмите цапы и качайте на свои здоровья.
Дискография:
#777
Exact Audio Copy V0.99 prebeta 5 from 4. May 2009
EAC extraction logfile from 30. March 2010, 3:28
Anouk / Together Alone
Used drive : HL-DT-STDVD-RAM GH22NS30 Adapter: 0 ID: 1
Read mode : Secure
Utilize accurate stream : Yes
Defeat audio cache : Yes
Make use of C2 pointers : No
Read offset correction : 102
Overread into Lead-In and Lead-Out : No
Fill up missing offset samples with silence : Yes
Delete leading and trailing silent blocks : No
Null samples used in CRC calculations : Yes
Used interface : Native Win32 interface for Win NT & 2000
Gap handling : Appended to previous track
Used output format : User Defined Encoder
Selected bitrate : 768 kBit/s
Quality : High
Add ID3 tag : No
Command line compressor : C:\Program Files\Exact Audio Copy\FLAC\FLAC.EXE
Additional command line options : -6 -V -T "ARTIST=%a" -T "TITLE=%t" -T "ALBUM=%g" -T "DATE=%y" -T "TRACKNUMBER=%n" -T "GENRE=%m" -T "COMMENT=%e" %s -o %d
TOC of the extracted CD
Track | Start | Length | Start sector | End sector
---------------------------------------------------------
1 | 0:00.00 | 3:25.55 | 0 | 15429
2 | 3:25.55 | 4:05.38 | 15430 | 33842
3 | 7:31.18 | 4:28.40 | 33843 | 53982
4 | 11:59.58 | 3:53.32 | 53983 | 71489
5 | 15:53.15 | 5:19.45 | 71490 | 95459
6 | 21:12.60 | 3:58.58 | 95460 | 113367
7 | 25:11.43 | 4:08.45 | 113368 | 132012
8 | 29:20.13 | 2:48.02 | 132013 | 144614
9 | 32:08.15 | 3:27.10 | 144615 | 160149
10 | 35:35.25 | 4:06.60 | 160150 | 178659
11 | 39:42.10 | 4:36.73 | 178660 | 199432
Track 1
Filename D:\KINGSTON\АНГАР\макс_логистик\Мои документы\Making\Nobody's Wife.wav
Pre-gap length 0:00:02.00
Peak level 100.0 %
Track quality 100.0 %
Test CRC 09845613
Copy CRC 09845613
Accurately ripped (confidence 32) [EBE9CA78]
Copy OK
Track 2
Filename D:\KINGSTON\АНГАР\макс_логистик\Мои документы\Making\Together Alone.wav
Peak level 100.0 %
Track quality 100.0 %
Test CRC BAA0F06A
Copy CRC BAA0F06A
Accurately ripped (confidence 32) [9F64E7B0]
Copy OK
Track 3
Filename D:\KINGSTON\АНГАР\макс_логистик\Мои документы\Making\It's So Hard.wav
Peak level 100.0 %
Track quality 100.0 %
Test CRC C4D7B543
Copy CRC C4D7B543
Accurately ripped (confidence 31) [ED9B042E]
Copy OK
Track 4
Filename D:\KINGSTON\АНГАР\макс_логистик\Мои документы\Making\The Other Side Of Me.wav
Pre-gap length 0:00:01.30
Peak level 100.0 %
Track quality 99.9 %
Test CRC FCCBF4EC
Copy CRC FCCBF4EC
Accurately ripped (confidence 32) [D574880C]
Copy OK
Track 5
Filename D:\KINGSTON\АНГАР\макс_логистик\Мои документы\Making\Pictures On Your Skin.wav
Pre-gap length 0:00:01.17
Peak level 100.0 %
Track quality 100.0 %
Test CRC C02A9725
Copy CRC C02A9725
Accurately ripped (confidence 32) [FFE5251E]
Copy OK
Track 6
Filename D:\KINGSTON\АНГАР\макс_логистик\Мои документы\Making\Sacrifice.wav
Peak level 100.0 %
Track quality 100.0 %
Test CRC 4D2E7A91
Copy CRC 4D2E7A91
Accurately ripped (confidence 32) [E55BA994]
Copy OK
Track 7
Filename D:\KINGSTON\АНГАР\макс_логистик\Мои документы\Making\Fluid Conduction.wav
Peak level 100.0 %
Track quality 100.0 %
Test CRC 8C36C656
Copy CRC 8C36C656
Accurately ripped (confidence 32) [5EEB8A90]
Copy OK
Track 8
Filename D:\KINGSTON\АНГАР\макс_логистик\Мои документы\Making\My Life.wav
Peak level 100.0 %
Track quality 99.9 %
Test CRC 608322F8
Copy CRC 608322F8
Accurately ripped (confidence 32) [CBB9C3CC]
Copy OK
Track 9
Filename D:\KINGSTON\АНГАР\макс_логистик\Мои документы\Making\It's A Shame.wav
Peak level 100.0 %
Track quality 100.0 %
Test CRC 19306613
Copy CRC 19306613
Accurately ripped (confidence 32) [5FA9B26D]
Copy OK
Track 10
Filename D:\KINGSTON\АНГАР\макс_логистик\Мои документы\Making\Time Is A Jailer.wav
Peak level 100.0 %
Track quality 100.0 %
Test CRC 6EC1BE83
Copy CRC 6EC1BE83
Accurately ripped (confidence 31) [2C50D1A5]
Copy OK
Track 11
Filename D:\KINGSTON\АНГАР\макс_логистик\Мои документы\Making\Mood Indigo.wav
Peak level 100.0 %
Track quality 99.9 %
Test CRC 8F2ED713
Copy CRC 8F2ED713
Accurately ripped (confidence 31) [484C1FDD]
Copy OK
All tracks accurately ripped
No errors occurred
End of status report
REM GENRE Rock
REM DATE 1997
REM DISCID 870A630B
REM COMMENT "ExactAudioCopy v0.99pb5"
PERFORMER "Anouk"
TITLE "Together Alone"
FILE "01. Nobody's Wife.wav" WAVE
TRACK 01 AUDIO
TITLE "Nobody's Wife"
PERFORMER "Anouk"
INDEX 01 00:00:00
FILE "02. Together Alone.wav" WAVE
TRACK 02 AUDIO
TITLE "Together Alone"
PERFORMER "Anouk"
INDEX 01 00:00:00
FILE "03. It's So Hard.wav" WAVE
TRACK 03 AUDIO
TITLE "It's So Hard"
PERFORMER "Anouk"
INDEX 01 00:00:00
TRACK 04 AUDIO
TITLE "The Other Side Of Me"
PERFORMER "Anouk"
INDEX 00 04:27:10
FILE "04. The Other Side Of Me.wav" WAVE
INDEX 01 00:00:00
TRACK 05 AUDIO
TITLE "Pictures On Your Skin"
PERFORMER "Anouk"
INDEX 00 03:52:15
FILE "05. Pictures On Your Skin.wav" WAVE
INDEX 01 00:00:00
FILE "06. Sacrifice.wav" WAVE
TRACK 06 AUDIO
TITLE "Sacrifice"
PERFORMER "Anouk"
INDEX 01 00:00:00
FILE "07. Fluid Conduction.wav" WAVE
TRACK 07 AUDIO
TITLE "Fluid Conduction"
PERFORMER "Anouk"
INDEX 01 00:00:00
FILE "08. My Life.wav" WAVE
TRACK 08 AUDIO
TITLE "My Life"
PERFORMER "Anouk"
INDEX 01 00:00:00
FILE "09. It's A Shame.wav" WAVE
TRACK 09 AUDIO
TITLE "It's A Shame"
PERFORMER "Anouk"
INDEX 01 00:00:00
FILE "10. Time Is A Jailer.wav" WAVE
TRACK 10 AUDIO
TITLE "Time Is A Jailer"
PERFORMER "Anouk"
INDEX 01 00:00:00
FILE "11. Mood Indigo.wav" WAVE
TRACK 11 AUDIO
TITLE "Mood Indigo"
PERFORMER "Anouk"
INDEX 01 00:00:00
1. Nobody's Wife 3:27
2. Together Alone 4:05
3. It's So Hard 4:26
4. The Other Side Of Me 3:53
5. Pictures On Your Skin 5:21
6. Sacrifice 3:57
7. Fluid Conduction 4:08
8. My Life 2:49
9. It's A Shame 3:27
10. Time Is A Jailer 4:06
11. Mood Indigo 4:36
#777
Exact Audio Copy V0.99 prebeta 5 from 4. May 2009
EAC extraction logfile from 30. March 2010, 12:58
Anouk / Urban Solitude
Used drive : HL-DT-STDVD-RAM GH22NS30 Adapter: 0 ID: 1
Read mode : Secure
Utilize accurate stream : Yes
Defeat audio cache : Yes
Make use of C2 pointers : No
Read offset correction : 102
Overread into Lead-In and Lead-Out : No
Fill up missing offset samples with silence : Yes
Delete leading and trailing silent blocks : No
Null samples used in CRC calculations : Yes
Used interface : Native Win32 interface for Win NT & 2000
Gap handling : Appended to previous track
Used output format : User Defined Encoder
Selected bitrate : 768 kBit/s
Quality : High
Add ID3 tag : No
Command line compressor : C:\Program Files\Exact Audio Copy\FLAC\FLAC.EXE
Additional command line options : -6 -V -T "ARTIST=%a" -T "TITLE=%t" -T "ALBUM=%g" -T "DATE=%y" -T "TRACKNUMBER=%n" -T "GENRE=%m" -T "COMMENT=%e" %s -o %d
TOC of the extracted CD
Track | Start | Length | Start sector | End sector
---------------------------------------------------------
1 | 0:00.00 | 4:44.42 | 0 | 21341
2 | 4:44.42 | 4:22.60 | 21342 | 41051
3 | 9:07.27 | 3:20.28 | 41052 | 56079
4 | 12:27.55 | 3:03.32 | 56080 | 69836
5 | 15:31.12 | 4:00.53 | 69837 | 87889
6 | 19:31.65 | 3:04.32 | 87890 | 101721
7 | 22:36.22 | 4:09.05 | 101722 | 120401
8 | 26:45.27 | 3:16.63 | 120402 | 135164
9 | 30:02.15 | 3:29.47 | 135165 | 150886
10 | 33:31.62 | 4:27.28 | 150887 | 170939
11 | 37:59.15 | 4:10.67 | 170940 | 189756
12 | 42:10.07 | 3:41.63 | 189757 | 206394
13 | 45:51.70 | 3:28.72 | 206395 | 222066
Track 1
Filename D:\KINGSTON\АНГАР\макс_логистик\Мои документы\Making\In The Sand.wav
Pre-gap length 0:00:02.00
Peak level 100.0 %
Track quality 99.9 %
Test CRC F14A74F0
Copy CRC F14A74F0
Accurately ripped (confidence 29) [A41F08CF]
Copy OK
Track 2
Filename D:\KINGSTON\АНГАР\макс_логистик\Мои документы\Making\Don't.wav
Pre-gap length 0:00:00.35
Peak level 100.0 %
Track quality 100.0 %
Test CRC D6DBDBB0
Copy CRC D6DBDBB0
Accurately ripped (confidence 29) [515237BB]
Copy OK
Track 3
Filename D:\KINGSTON\АНГАР\макс_логистик\Мои документы\Making\R U Kiddin' Me.wav
Pre-gap length 0:00:00.45
Peak level 100.0 %
Track quality 100.0 %
Test CRC 00E1BBE1
Copy CRC 00E1BBE1
Accurately ripped (confidence 29) [64D62AF2]
Copy OK
Track 4
Filename D:\KINGSTON\АНГАР\макс_логистик\Мои документы\Making\Tom Waits.wav
Pre-gap length 0:00:01.70
Peak level 92.0 %
Track quality 100.0 %
Test CRC F6B7F922
Copy CRC F6B7F922
Accurately ripped (confidence 30) [C523F299]
Copy OK
Track 5
Filename D:\KINGSTON\АНГАР\макс_логистик\Мои документы\Making\Urban Solitude.wav
Pre-gap length 0:00:00.70
Peak level 100.0 %
Track quality 100.0 %
Test CRC C0EDE069
Copy CRC C0EDE069
Accurately ripped (confidence 29) [B235E507]
Copy OK
Track 6
Filename D:\KINGSTON\АНГАР\макс_логистик\Мои документы\Making\U Being U.wav
Peak level 100.0 %
Track quality 100.0 %
Test CRC 216A9156
Copy CRC 216A9156
Accurately ripped (confidence 29) [5B7C91C7]
Copy OK
Track 7
Filename D:\KINGSTON\АНГАР\макс_логистик\Мои документы\Making\Michel.wav
Pre-gap length 0:00:02.22
Peak level 100.0 %
Track quality 99.9 %
Test CRC 0B035892
Copy CRC 0B035892
Accurately ripped (confidence 30) [B81D2885]
Copy OK
Track 8
Filename D:\KINGSTON\АНГАР\макс_логистик\Мои документы\Making\The Dark.wav
Pre-gap length 0:00:01.35
Peak level 100.0 %
Track quality 100.0 %
Test CRC 52ACF2A2
Copy CRC 52ACF2A2
Accurately ripped (confidence 29) [2C86E872]
Copy OK
Track 9
Filename D:\KINGSTON\АНГАР\макс_логистик\Мои документы\Making\My Best Wasn't Good Enough.wav
Pre-gap length 0:00:02.10
Peak level 100.0 %
Track quality 100.0 %
Test CRC 8B7D1B28
Copy CRC 8B7D1B28
Accurately ripped (confidence 28) [580288EC]
Copy OK
Track 10
Filename D:\KINGSTON\АНГАР\макс_логистик\Мои документы\Making\It Wasn't Me.wav
Pre-gap length 0:00:00.37
Peak level 100.0 %
Track quality 100.0 %
Test CRC E7E321AC
Copy CRC E7E321AC
Accurately ripped (confidence 29) [36A4FB46]
Copy OK
Track 11
Filename D:\KINGSTON\АНГАР\макс_логистик\Мои документы\Making\Cry.wav
Pre-gap length 0:00:00.18
Peak level 89.2 %
Track quality 100.0 %
Test CRC 27355BE1
Copy CRC 27355BE1
Accurately ripped (confidence 29) [FC0E7FF8]
Copy OK
Track 12
Filename D:\KINGSTON\АНГАР\макс_логистик\Мои документы\Making\Body Brain.wav
Pre-gap length 0:00:00.27
Peak level 100.0 %
Track quality 99.9 %
Test CRC 9FC8433C
Copy CRC 9FC8433C
Accurately ripped (confidence 28) [0293D3FC]
Copy OK
Track 13
Filename D:\KINGSTON\АНГАР\макс_логистик\Мои документы\Making\My Friend.wav
Pre-gap length 0:00:02.10
Peak level 83.8 %
Track quality 100.0 %
Test CRC 67633837
Copy CRC 67633837
Accurately ripped (confidence 29) [A3BADBF3]
Copy OK
All tracks accurately ripped
No errors occurred
End of status report
REM GENRE Rock
REM DATE 1999
REM DISCID AF0B900D
REM COMMENT "ExactAudioCopy v0.99pb5"
PERFORMER "Anouk"
TITLE "Urban Solitude"
FILE "01. In The Sand.wav" WAVE
TRACK 01 AUDIO
TITLE "In The Sand"
PERFORMER "Anouk"
INDEX 01 00:00:00
TRACK 02 AUDIO
TITLE "Don't"
PERFORMER "Anouk"
INDEX 00 04:44:07
FILE "02. Don't.wav" WAVE
INDEX 01 00:00:00
TRACK 03 AUDIO
TITLE "R U Kiddin' Me"
PERFORMER "Anouk"
INDEX 00 04:22:15
FILE "03. R U Kiddin' Me.wav" WAVE
INDEX 01 00:00:00
TRACK 04 AUDIO
TITLE "Tom Waits"
PERFORMER "Anouk"
INDEX 00 03:18:33
FILE "04. Tom Waits.wav" WAVE
INDEX 01 00:00:00
TRACK 05 AUDIO
TITLE "Urban Solitude"
PERFORMER "Anouk"
INDEX 00 03:02:37
FILE "05. Urban Solitude.wav" WAVE
INDEX 01 00:00:00
FILE "06. U Being U.wav" WAVE
TRACK 06 AUDIO
TITLE "U Being U"
PERFORMER "Anouk"
INDEX 01 00:00:00
TRACK 07 AUDIO
TITLE "Michel"
PERFORMER "Anouk"
INDEX 00 03:02:10
FILE "07. Michel.wav" WAVE
INDEX 01 00:00:00
TRACK 08 AUDIO
TITLE "The Dark"
PERFORMER "Anouk"
INDEX 00 04:07:45
FILE "08. The Dark.wav" WAVE
INDEX 01 00:00:00
TRACK 09 AUDIO
TITLE "My Best Wasn't Good Enough"
PERFORMER "Anouk"
INDEX 00 03:14:53
FILE "09. My Best Wasn't Good Enough.wav" WAVE
INDEX 01 00:00:00
TRACK 10 AUDIO
TITLE "It Wasn't Me"
PERFORMER "Anouk"
INDEX 00 03:29:10
FILE "10. It Wasn't Me.wav" WAVE
INDEX 01 00:00:00
TRACK 11 AUDIO
TITLE "Cry"
PERFORMER "Anouk"
INDEX 00 04:27:10
FILE "11. Cry.wav" WAVE
INDEX 01 00:00:00
TRACK 12 AUDIO
TITLE "Body Brain"
PERFORMER "Anouk"
INDEX 00 04:10:40
FILE "12. Body Brain.wav" WAVE
INDEX 01 00:00:00
TRACK 13 AUDIO
TITLE "My Friend"
PERFORMER "Anouk"
INDEX 00 03:39:53
FILE "13. My Friend.wav" WAVE
INDEX 01 00:00:00
1. In the Sand - 4:44.42
2. Don't - 4:22.60
3. R U Kiddin' Me - 3:20.28
4. Tom Waits - 3:03.32
5. Urban Solitude - 4:00.53
6. U Being U - 3:04.32
7. Michel - 4:09.05
8. Dark - 3:16.63
9. My Best Wasn't Good Enough - 3:29.47
10. It Wasn't Me - 4:27.28
11. Cry - 4:10.67
12. Body Brain - 3:41.63
13. My Friend - 3:28.72
#777
Exact Audio Copy V0.99 prebeta 5 from 4. May 2009
EAC extraction logfile from 30. March 2010, 14:22
Anouk / Graduated Fool
Used drive : HL-DT-STDVD-RAM GH22NS30 Adapter: 0 ID: 1
Read mode : Secure
Utilize accurate stream : Yes
Defeat audio cache : Yes
Make use of C2 pointers : No
Read offset correction : 102
Overread into Lead-In and Lead-Out : No
Fill up missing offset samples with silence : Yes
Delete leading and trailing silent blocks : No
Null samples used in CRC calculations : Yes
Used interface : Native Win32 interface for Win NT & 2000
Gap handling : Appended to previous track
Used output format : User Defined Encoder
Selected bitrate : 768 kBit/s
Quality : High
Add ID3 tag : No
Command line compressor : C:\Program Files\Exact Audio Copy\FLAC\FLAC.EXE
Additional command line options : -6 -V -T "ARTIST=%a" -T "TITLE=%t" -T "ALBUM=%g" -T "DATE=%y" -T "TRACKNUMBER=%n" -T "GENRE=%m" -T "COMMENT=%e" %s -o %d
TOC of the extracted CD
Track | Start | Length | Start sector | End sector
---------------------------------------------------------
1 | 0:00.00 | 3:54.57 | 0 | 17606
2 | 3:54.57 | 4:19.63 | 17607 | 37094
3 | 8:14.45 | 3:52.55 | 37095 | 54549
4 | 12:07.25 | 4:36.65 | 54550 | 75314
5 | 16:44.15 | 3:52.30 | 75315 | 92744
6 | 20:36.45 | 3:04.02 | 92745 | 106546
7 | 23:40.47 | 3:56.65 | 106547 | 124311
8 | 27:37.37 | 3:55.58 | 124312 | 141994
9 | 31:33.20 | 4:19.62 | 141995 | 161481
10 | 35:53.07 | 3:40.40 | 161482 | 178021
11 | 39:33.47 | 3:29.35 | 178022 | 193731
12 | 45:35.07 | 28:22.68 | 205132 | 332849
Track 1
Filename D:\KINGSTON\АНГАР\макс_логистик\Мои документы\Making\Too Long.wav
Pre-gap length 0:00:02.00
Peak level 99.8 %
Track quality 99.9 %
Test CRC A3EC4606
Copy CRC A3EC4606
Cannot be verified as accurate (confidence 5) [A6276B7E], AccurateRip returned [2A389746]
Copy OK
Track 2
Filename D:\KINGSTON\АНГАР\макс_логистик\Мои документы\Making\Everything.wav
Peak level 99.8 %
Track quality 100.0 %
Test CRC C41B2744
Copy CRC C41B2744
Cannot be verified as accurate (confidence 5) [25F1DFCE], AccurateRip returned [78199EB0]
Copy OK
Track 3
Filename D:\KINGSTON\АНГАР\макс_логистик\Мои документы\Making\Hail.wav
Peak level 99.8 %
Track quality 100.0 %
Test CRC 1A26FFCB
Copy CRC 1A26FFCB
Cannot be verified as accurate (confidence 6) [58B2A81E], AccurateRip returned [E7023850]
Copy OK
Track 4
Filename D:\KINGSTON\АНГАР\макс_логистик\Мои документы\Making\Who Cares.wav
Pre-gap length 0:00:01.60
Peak level 99.8 %
Track quality 100.0 %
Test CRC FEAAFD52
Copy CRC FEAAFD52
Cannot be verified as accurate (confidence 5) [5097CC67], AccurateRip returned [76590A4A]
Copy OK
Track 5
Filename D:\KINGSTON\АНГАР\макс_логистик\Мои документы\Making\Graduated Fool.wav
Pre-gap length 0:00:02.08
Peak level 99.8 %
Track quality 100.0 %
Test CRC E31EDDA1
Copy CRC E31EDDA1
Cannot be verified as accurate (confidence 6) [5A704FC2], AccurateRip returned [B0B8B70F]
Copy OK
Track 6
Filename D:\KINGSTON\АНГАР\макс_логистик\Мои документы\Making\Stop Thinking.wav
Pre-gap length 0:00:02.25
Peak level 99.8 %
Track quality 100.0 %
Test CRC 028BCEFB
Copy CRC 028BCEFB
Cannot be verified as accurate (confidence 6) [44AD58E8], AccurateRip returned [0BBF5917]
Copy OK
Track 7
Filename D:\KINGSTON\АНГАР\макс_логистик\Мои документы\Making\No time to waste.wav
Peak level 99.8 %
Track quality 100.0 %
Test CRC 0088E970
Copy CRC 0088E970
Cannot be verified as accurate (confidence 4) [E07BA2D1], AccurateRip returned [77B00B63]
Copy OK
Track 8
Filename D:\KINGSTON\АНГАР\макс_логистик\Мои документы\Making\Searching.wav
Pre-gap length 0:00:01.30
Peak level 99.8 %
Track quality 99.9 %
Test CRC AA1DF625
Copy CRC AA1DF625
Cannot be verified as accurate (confidence 4) [F813CD4A], AccurateRip returned [93DE9EF3]
Copy OK
Track 9
Filename D:\KINGSTON\АНГАР\макс_логистик\Мои документы\Making\Margarita Chum.wav
Pre-gap length 0:00:02.15
Peak level 99.8 %
Track quality 100.0 %
Test CRC 20E1F923
Copy CRC 20E1F923
Cannot be verified as accurate (confidence 5) [8B75A852], AccurateRip returned [77CFE4F1]
Copy OK
Track 10
Filename D:\KINGSTON\АНГАР\макс_логистик\Мои документы\Making\I live for you.wav
Peak level 99.8 %
Track quality 100.0 %
Test CRC 84D31629
Copy CRC 84D31629
Cannot be verified as accurate (confidence 3) [DE37871E], AccurateRip returned [8F97B01E]
Copy OK
Track 11
Filename D:\KINGSTON\АНГАР\макс_логистик\Мои документы\Making\Bigger Side.wav
Pre-gap length 0:00:01.32
Peak level 99.8 %
Track quality 100.0 %
Test CRC 4E4CFF38
Copy CRC 4E4CFF38
Cannot be verified as accurate (confidence 4) [E9B8C30B], AccurateRip returned [B88B845B]
Copy OK
No tracks could be verified as accurate
You may have a different pressing from the one(s) in the database
No errors occurred
End of status report
REM GENRE Rock
REM DATE 2003
REM DISCID AD11560C
REM COMMENT "ExactAudioCopy v0.99pb5"
PERFORMER "Anouk"
TITLE "Graduated Fool"
FILE "01. Too Long.wav" WAVE
TRACK 01 AUDIO
TITLE "Too Long"
PERFORMER "Anouk"
INDEX 01 00:00:00
FILE "02. Everything.wav" WAVE
TRACK 02 AUDIO
TITLE "Everything"
PERFORMER "Anouk"
INDEX 01 00:00:00
FILE "03. Hail.wav" WAVE
TRACK 03 AUDIO
TITLE "Hail"
PERFORMER "Anouk"
INDEX 01 00:00:00
TRACK 04 AUDIO
TITLE "Who Cares"
PERFORMER "Anouk"
INDEX 00 03:50:70
FILE "04. Who Cares.wav" WAVE
INDEX 01 00:00:00
TRACK 05 AUDIO
TITLE "Graduated Fool"
PERFORMER "Anouk"
INDEX 00 04:34:57
FILE "05. Graduated Fool.wav" WAVE
INDEX 01 00:00:00
TRACK 06 AUDIO
TITLE "Stop Thinking"
PERFORMER "Anouk"
INDEX 00 03:50:05
FILE "06. Stop Thinking.wav" WAVE
INDEX 01 00:00:00
FILE "07. No time to waste.wav" WAVE
TRACK 07 AUDIO
TITLE "No time to waste"
PERFORMER "Anouk"
INDEX 01 00:00:00
TRACK 08 AUDIO
TITLE "Searching"
PERFORMER "Anouk"
INDEX 00 03:55:35
FILE "08. Searching.wav" WAVE
INDEX 01 00:00:00
TRACK 09 AUDIO
TITLE "Margarita Chum"
PERFORMER "Anouk"
INDEX 00 03:53:43
FILE "09. Margarita Chum.wav" WAVE
INDEX 01 00:00:00
FILE "10. I live for you.wav" WAVE
TRACK 10 AUDIO
TITLE "I live for you"
PERFORMER "Anouk"
INDEX 01 00:00:00
TRACK 11 AUDIO
TITLE "Bigger Side"
PERFORMER "Anouk"
INDEX 00 03:39:08
FILE "11. Bigger Side.wav" WAVE
INDEX 01 00:00:00
TRACK 12 MODEx/2xxx
TITLE "Data"
PERFORMER "Anouk"
INDEX 00 03:29:35
1. Too Long - 3:54.57
2. Everything - 4:19.63
3. Hail - 3:52.55
4. Who Cares - 4:36.65
5. Graduated Fool - 3:52.30
6. Stop Thinking - 3:04.02
7. No Time to Waste - 3:56.65
8. Searchin' - 3:55.58
9. Margarita Chum - 4:19.62
10. I Live for You - 3:40.40
11. Bigger Side - 3:29.35
#777
Exact Audio Copy V0.99 prebeta 5 from 4. May 2009
EAC extraction logfile from 30. March 2010, 15:14
Anouk / Hotel New York
Used drive : HL-DT-STDVD-RAM GH22NS30 Adapter: 0 ID: 1
Read mode : Secure
Utilize accurate stream : Yes
Defeat audio cache : Yes
Make use of C2 pointers : No
Read offset correction : 102
Overread into Lead-In and Lead-Out : No
Fill up missing offset samples with silence : Yes
Delete leading and trailing silent blocks : No
Null samples used in CRC calculations : Yes
Used interface : Native Win32 interface for Win NT & 2000
Gap handling : Appended to previous track
Used output format : User Defined Encoder
Selected bitrate : 768 kBit/s
Quality : High
Add ID3 tag : No
Command line compressor : C:\Program Files\Exact Audio Copy\FLAC\FLAC.EXE
Additional command line options : -6 -V -T "ARTIST=%a" -T "TITLE=%t" -T "ALBUM=%g" -T "DATE=%y" -T "TRACKNUMBER=%n" -T "GENRE=%m" -T "COMMENT=%e" %s -o %d
TOC of the extracted CD
Track | Start | Length | Start sector | End sector
---------------------------------------------------------
1 | 0:00.00 | 3:30.55 | 0 | 15804
2 | 3:30.55 | 3:45.42 | 15805 | 32721
3 | 7:16.22 | 4:20.05 | 32722 | 52226
4 | 11:36.27 | 3:32.00 | 52227 | 68126
5 | 15:08.27 | 3:42.30 | 68127 | 84806
6 | 18:50.57 | 3:33.08 | 84807 | 100789
7 | 22:23.65 | 3:24.60 | 100790 | 116149
8 | 25:48.50 | 3:34.20 | 116150 | 132219
9 | 29:22.70 | 3:55.57 | 132220 | 149901
10 | 33:18.52 | 4:02.68 | 149902 | 168119
11 | 37:21.45 | 3:44.02 | 168120 | 184921
12 | 41:05.47 | 4:45.10 | 184922 | 206306
13 | 48:22.57 | 2:38.69 | 217707 | 229625
Track 1
Filename D:\KINGSTON\АНГАР\макс_логистик\Мои документы\Making\Girl.wav
Pre-gap length 0:00:02.00
Peak level 100.0 %
Track quality 100.0 %
Test CRC D3F61C44
Copy CRC D3F61C44
Accurately ripped (confidence 61) [272687B1]
Copy OK
Track 2
Filename D:\KINGSTON\АНГАР\макс_логистик\Мои документы\Making\Heaven Knows.wav
Peak level 100.0 %
Track quality 100.0 %
Test CRC 0E14F810
Copy CRC 0E14F810
Accurately ripped (confidence 60) [6156C38A]
Copy OK
Track 3
Filename D:\KINGSTON\АНГАР\макс_логистик\Мои документы\Making\More Than You Deserve.wav
Peak level 100.0 %
Track quality 100.0 %
Test CRC D403C084
Copy CRC D403C084
Accurately ripped (confidence 60) [87B5D341]
Copy OK
Track 4
Filename D:\KINGSTON\АНГАР\макс_логистик\Мои документы\Making\Falling Sun.wav
Peak level 100.0 %
Track quality 100.0 %
Test CRC D169203C
Copy CRC D169203C
Accurately ripped (confidence 59) [E9D057E1]
Copy OK
Track 5
Filename D:\KINGSTON\АНГАР\макс_логистик\Мои документы\Making\Lost.wav
Peak level 100.0 %
Track quality 100.0 %
Test CRC E52AB402
Copy CRC E52AB402
Accurately ripped (confidence 61) [043865A3]
Copy OK
Track 6
Filename D:\KINGSTON\АНГАР\макс_логистик\Мои документы\Making\Alright.wav
Peak level 100.0 %
Track quality 100.0 %
Test CRC CB800627
Copy CRC CB800627
Accurately ripped (confidence 59) [A5CA3832]
Copy OK
Track 7
Filename D:\KINGSTON\АНГАР\макс_логистик\Мои документы\Making\Help.wav
Peak level 100.0 %
Track quality 100.0 %
Test CRC 0BD981FF
Copy CRC 0BD981FF
Accurately ripped (confidence 58) [F3A0C0C4]
Copy OK
Track 8
Filename D:\KINGSTON\АНГАР\макс_логистик\Мои документы\Making\Our Own Love.wav
Peak level 100.0 %
Track quality 100.0 %
Test CRC 91AD4350
Copy CRC 91AD4350
Accurately ripped (confidence 59) [91D75D84]
Copy OK
Track 9
Filename D:\KINGSTON\АНГАР\макс_логистик\Мои документы\Making\Jerusalem.wav
Peak level 100.0 %
Track quality 99.9 %
Test CRC 85A70AD2
Copy CRC 85A70AD2
Accurately ripped (confidence 63) [5DF04BEE]
Copy OK
Track 10
Filename D:\KINGSTON\АНГАР\макс_логистик\Мои документы\Making\One Word.wav
Peak level 100.0 %
Track quality 100.0 %
Test CRC 9B07DA31
Copy CRC 9B07DA31
Accurately ripped (confidence 62) [4D2E2071]
Copy OK
Track 11
Filename D:\KINGSTON\АНГАР\макс_логистик\Мои документы\Making\I Spy.wav
Peak level 100.0 %
Track quality 100.0 %
Test CRC FB31F6D2
Copy CRC FB31F6D2
Accurately ripped (confidence 60) [A56A2206]
Copy OK
Track 12
Filename D:\KINGSTON\АНГАР\макс_логистик\Мои документы\Making\Fading.wav
Peak level 100.0 %
Track quality 100.0 %
Test CRC C63173DA
Copy CRC C63173DA
Accurately ripped (confidence 57) [3F257209]
Copy OK
All tracks accurately ripped
No errors occurred
End of status report
REM GENRE Rock
REM DATE 2004
REM DISCID 970BF50D
REM COMMENT "ExactAudioCopy v0.99pb5"
PERFORMER "Anouk"
TITLE "Hotel New York"
FILE "01. Girl.wav" WAVE
TRACK 01 AUDIO
TITLE "Girl"
PERFORMER "Anouk"
INDEX 01 00:00:00
FILE "02. Heaven Knows.wav" WAVE
TRACK 02 AUDIO
TITLE "Heaven Knows"
PERFORMER "Anouk"
INDEX 01 00:00:00
FILE "03. More Than You Deserve.wav" WAVE
TRACK 03 AUDIO
TITLE "More Than You Deserve"
PERFORMER "Anouk"
INDEX 01 00:00:00
FILE "04. Falling Sun.wav" WAVE
TRACK 04 AUDIO
TITLE "Falling Sun"
PERFORMER "Anouk"
INDEX 01 00:00:00
FILE "05. Lost.wav" WAVE
TRACK 05 AUDIO
TITLE "Lost"
PERFORMER "Anouk"
INDEX 01 00:00:00
FILE "06. Alright.wav" WAVE
TRACK 06 AUDIO
TITLE "Alright"
PERFORMER "Anouk"
INDEX 01 00:00:00
FILE "07. Help.wav" WAVE
TRACK 07 AUDIO
TITLE "Help"
PERFORMER "Anouk"
INDEX 01 00:00:00
FILE "08. Our Own Love.wav" WAVE
TRACK 08 AUDIO
TITLE "Our Own Love"
PERFORMER "Anouk"
INDEX 01 00:00:00
FILE "09. Jerusalem.wav" WAVE
TRACK 09 AUDIO
TITLE "Jerusalem"
PERFORMER "Anouk"
INDEX 01 00:00:00
FILE "10. One Word.wav" WAVE
TRACK 10 AUDIO
TITLE "One Word"
PERFORMER "Anouk"
INDEX 01 00:00:00
FILE "11. I Spy.wav" WAVE
TRACK 11 AUDIO
TITLE "I Spy"
PERFORMER "Anouk"
INDEX 01 00:00:00
FILE "12. Fading.wav" WAVE
TRACK 12 AUDIO
TITLE "Fading"
PERFORMER "Anouk"
INDEX 01 00:00:00
TRACK 13 MODEx/2xxx
TITLE "Data Track"
PERFORMER "Anouk"
INDEX 00 04:45:10
1. Girl 3:30
2. Heaven Knows 3:45
3. More Than You Deserve 4:19
4. Falling Sun 3:32
5. Lost 3:42
6. Alright 3:33
7. Help 3:24
8. Our Own Love 3:34
9. Jerusalem 3:55
10. One Word 4:02
11. I Spy 3:44
12. Fading 4:45
#777
Exact Audio Copy V0.99 prebeta 5 from 4. May 2009
EAC extraction logfile from 30. March 2010, 16:45
Anouk / Who's Your Momma
Used drive : HL-DT-STDVD-RAM GH22NS30 Adapter: 0 ID: 1
Read mode : Secure
Utilize accurate stream : Yes
Defeat audio cache : Yes
Make use of C2 pointers : No
Read offset correction : 102
Overread into Lead-In and Lead-Out : No
Fill up missing offset samples with silence : Yes
Delete leading and trailing silent blocks : No
Null samples used in CRC calculations : Yes
Used interface : Native Win32 interface for Win NT & 2000
Gap handling : Appended to previous track
Used output format : User Defined Encoder
Selected bitrate : 768 kBit/s
Quality : High
Add ID3 tag : No
Command line compressor : C:\Program Files\Exact Audio Copy\FLAC\FLAC.EXE
Additional command line options : -6 -V -T "ARTIST=%a" -T "TITLE=%t" -T "ALBUM=%g" -T "DATE=%y" -T "TRACKNUMBER=%n" -T "GENRE=%m" -T "COMMENT=%e" %s -o %d
TOC of the extracted CD
Track | Start | Length | Start sector | End sector
---------------------------------------------------------
1 | 0:00.00 | 4:23.50 | 0 | 19774
2 | 4:23.50 | 3:09.35 | 19775 | 33984
3 | 7:33.10 | 4:01.57 | 33985 | 52116
4 | 11:34.67 | 3:30.10 | 52117 | 67876
5 | 15:05.02 | 3:32.68 | 67877 | 83844
6 | 18:37.70 | 2:36.00 | 83845 | 95544
7 | 21:13.70 | 3:05.30 | 95545 | 109449
8 | 24:19.25 | 3:15.12 | 109450 | 124086
9 | 27:34.37 | 3:31.30 | 124087 | 139941
10 | 31:05.67 | 3:36.35 | 139942 | 156176
11 | 34:42.27 | 4:08.33 | 156177 | 174809
12 | 41:22.60 | 6:36.68 | 186210 | 215977
Track 1
Filename D:\KINGSTON\АНГАР\макс_логистик\Мои документы\Making\If I Go.wav
Pre-gap length 0:00:02.00
Peak level 98.7 %
Track quality 99.9 %
Test CRC ADEB0728
Copy CRC ADEB0728
Accurately ripped (confidence 9) [413600B2]
Copy OK
Track 2
Filename D:\KINGSTON\АНГАР\макс_логистик\Мои документы\Making\Might As Well.wav
Pre-gap length 0:00:00.43
Peak level 98.7 %
Track quality 100.0 %
Test CRC E2C8CBBD
Copy CRC E2C8CBBD
Accurately ripped (confidence 9) [9441E309]
Copy OK
Track 3
Filename D:\KINGSTON\АНГАР\макс_логистик\Мои документы\Making\Make It Rain.wav
Pre-gap length 0:00:00.23
Peak level 98.7 %
Track quality 99.9 %
Test CRC AD4F4332
Copy CRC AD4F4332
Accurately ripped (confidence 9) [1B7D5D71]
Copy OK
Track 4
Filename D:\KINGSTON\АНГАР\макс_логистик\Мои документы\Making\Modern World.wav
Peak level 98.7 %
Track quality 100.0 %
Test CRC 523FCCEA
Copy CRC 523FCCEA
Accurately ripped (confidence 9) [746A9DDE]
Copy OK
Track 5
Filename D:\KINGSTON\АНГАР\макс_логистик\Мои документы\Making\I Don't Wanna Hurt.wav
Peak level 98.7 %
Track quality 100.0 %
Test CRC 18BDD2B3
Copy CRC 18BDD2B3
Accurately ripped (confidence 9) [C92D9443]
Copy OK
Track 6
Filename D:\KINGSTON\АНГАР\макс_логистик\Мои документы\Making\Good God.wav
Pre-gap length 0:00:00.15
Peak level 98.7 %
Track quality 100.0 %
Test CRC ADB16AF6
Copy CRC ADB16AF6
Accurately ripped (confidence 9) [7CA3B155]
Copy OK
Track 7
Filename D:\KINGSTON\АНГАР\макс_логистик\Мои документы\Making\The Difference.wav
Peak level 98.7 %
Track quality 100.0 %
Test CRC 39671FE4
Copy CRC 39671FE4
Accurately ripped (confidence 9) [A14CA066]
Copy OK
Track 8
Filename D:\KINGSTON\АНГАР\макс_логистик\Мои документы\Making\Whatever You Say.wav
Peak level 98.7 %
Track quality 100.0 %
Test CRC C9C995EA
Copy CRC C9C995EA
Accurately ripped (confidence 9) [4E0C1A25]
Copy OK
Track 9
Filename D:\KINGSTON\АНГАР\макс_логистик\Мои документы\Making\Ball And Chain.wav
Pre-gap length 0:00:00.37
Peak level 99.8 %
Track quality 100.0 %
Test CRC D47504D7
Copy CRC D47504D7
Accurately ripped (confidence 9) [DE10F2C5]
Copy OK
Track 10
Filename D:\KINGSTON\АНГАР\макс_логистик\Мои документы\Making\Daze.wav
Peak level 98.7 %
Track quality 100.0 %
Test CRC B6D9D45D
Copy CRC B6D9D45D
Accurately ripped (confidence 9) [6060B442]
Copy OK
Track 11
Filename D:\KINGSTON\АНГАР\макс_логистик\Мои документы\Making\If You Were Mine.wav
Pre-gap length 0:00:00.15
Peak level 98.7 %
Track quality 100.0 %
Test CRC 9C423EF5
Copy CRC 9C423EF5
Accurately ripped (confidence 9) [C59C1EA9]
Copy OK
All tracks accurately ripped
No errors occurred
End of status report
REM GENRE "Karuwacho Pop / Rock Sounds"
REM DATE 2007
REM DISCID B10B3F0C
REM COMMENT "ExactAudioCopy v0.99pb5"
PERFORMER "Anouk"
TITLE "Who's Your Momma"
FILE "01. If I Go.wav" WAVE
TRACK 01 AUDIO
TITLE "If I Go"
PERFORMER "Anouk"
INDEX 01 00:00:00
TRACK 02 AUDIO
TITLE "Might As Well"
PERFORMER "Anouk"
INDEX 00 04:23:07
FILE "02. Might As Well.wav" WAVE
INDEX 01 00:00:00
TRACK 03 AUDIO
TITLE "Make It Rain"
PERFORMER "Anouk"
INDEX 00 03:09:12
FILE "03. Make It Rain.wav" WAVE
INDEX 01 00:00:00
FILE "04. Modern World.wav" WAVE
TRACK 04 AUDIO
TITLE "Modern World"
PERFORMER "Anouk"
INDEX 01 00:00:00
FILE "05. I Don't Wanna Hurt.wav" WAVE
TRACK 05 AUDIO
TITLE "I Don't Wanna Hurt"
PERFORMER "Anouk"
INDEX 01 00:00:00
TRACK 06 AUDIO
TITLE "Good God"
PERFORMER "Anouk"
INDEX 00 03:32:53
FILE "06. Good God.wav" WAVE
INDEX 01 00:00:00
FILE "07. The Difference.wav" WAVE
TRACK 07 AUDIO
TITLE "The Difference"
PERFORMER "Anouk"
INDEX 01 00:00:00
FILE "08. Whatever You Say.wav" WAVE
TRACK 08 AUDIO
TITLE "Whatever You Say"
PERFORMER "Anouk"
INDEX 01 00:00:00
TRACK 09 AUDIO
TITLE "Ball And Chain"
PERFORMER "Anouk"
INDEX 00 03:14:50
FILE "09. Ball And Chain.wav" WAVE
INDEX 01 00:00:00
FILE "10. Daze.wav" WAVE
TRACK 10 AUDIO
TITLE "Daze"
PERFORMER "Anouk"
INDEX 01 00:00:00
TRACK 11 AUDIO
TITLE "If You Were Mine"
PERFORMER "Anouk"
INDEX 00 03:36:20
FILE "11. If You Were Mine.wav" WAVE
INDEX 01 00:00:00
TRACK 12 MODEx/2xxx
TITLE "Opendisc"
PERFORMER "Anouk"
INDEX 00 04:08:33
1. If I Go 4:23
2. Might As Well 3:09
3. Make It Rain 4:01
4. Modern World 3:30
5. I Don't Wanna Hurt 3:32
6. Good God 2:36
7. The Difference 3:05
8. Whatever You Say 3:15
9. Ball And Chain 3:31
10. Daze 3:36
11. If You Were Mine 4:06
#777
Exact Audio Copy V0.99 prebeta 5 from 4. May 2009
EAC extraction logfile from 30. March 2010, 18:05
Anouk / For Bitter Or Worse
Used drive : HL-DT-STDVD-RAM GH22NS30 Adapter: 0 ID: 1
Read mode : Secure
Utilize accurate stream : Yes
Defeat audio cache : Yes
Make use of C2 pointers : No
Read offset correction : 102
Overread into Lead-In and Lead-Out : No
Fill up missing offset samples with silence : Yes
Delete leading and trailing silent blocks : No
Null samples used in CRC calculations : Yes
Used interface : Native Win32 interface for Win NT & 2000
Gap handling : Appended to previous track
Used output format : User Defined Encoder
Selected bitrate : 768 kBit/s
Quality : High
Add ID3 tag : No
Command line compressor : C:\Program Files\Exact Audio Copy\FLAC\FLAC.EXE
Additional command line options : -6 -V -T "ARTIST=%a" -T "TITLE=%t" -T "ALBUM=%g" -T "DATE=%y" -T "TRACKNUMBER=%n" -T "GENRE=%m" -T "COMMENT=%e" %s -o %d
TOC of the extracted CD
Track | Start | Length | Start sector | End sector
---------------------------------------------------------
1 | 0:00.00 | 4:13.73 | 0 | 19047
2 | 4:13.73 | 4:10.31 | 19048 | 37828
3 | 8:24.29 | 3:51.19 | 37829 | 55172
4 | 12:15.48 | 3:01.55 | 55173 | 68802
5 | 15:17.28 | 3:51.74 | 68803 | 86201
6 | 19:09.27 | 4:28.15 | 86202 | 106316
7 | 23:37.42 | 3:02.03 | 106317 | 119969
8 | 26:39.45 | 3:27.08 | 119970 | 135502
9 | 30:06.53 | 3:40.50 | 135503 | 152052
10 | 33:47.28 | 4:13.39 | 152053 | 171066
11 | 38:00.67 | 5:05.31 | 171067 | 193972
12 | 43:06.23 | 4:14.67 | 193973 | 213089
Track 1
Filename D:\KINGSTON\АНГАР\макс_логистик\Мои документы\Making\Three Days In A Row.wav
Pre-gap length 0:00:02.00
Peak level 98.2 %
Track quality 100.0 %
Test CRC 0DA52924
Copy CRC 0DA52924
Accurately ripped (confidence 26) [2EB7EDF4]
Copy OK
Track 2
Filename D:\KINGSTON\АНГАР\макс_логистик\Мои документы\Making\In This World.wav
Peak level 98.7 %
Track quality 100.0 %
Test CRC 751488CE
Copy CRC 751488CE
Accurately ripped (confidence 25) [7D145C7D]
Copy OK
Track 3
Filename D:\KINGSTON\АНГАР\макс_логистик\Мои документы\Making\Woman.wav
Pre-gap length 0:00:00.70
Peak level 98.9 %
Track quality 100.0 %
Test CRC 828D58B0
Copy CRC 828D58B0
Accurately ripped (confidence 25) [6706CC72]
Copy OK
Track 4
Filename D:\KINGSTON\АНГАР\макс_логистик\Мои документы\Making\Lay It Down.wav
Peak level 98.4 %
Track quality 100.0 %
Test CRC B9411D18
Copy CRC B9411D18
Accurately ripped (confidence 25) [F9A73832]
Copy OK
Track 5
Filename D:\KINGSTON\АНГАР\макс_логистик\Мои документы\Making\8 Years.wav
Peak level 98.8 %
Track quality 100.0 %
Test CRC F5A2988A
Copy CRC F5A2988A
Accurately ripped (confidence 25) [399A2D1C]
Copy OK
Track 6
Filename D:\KINGSTON\АНГАР\макс_логистик\Мои документы\Making\My Shoes.wav
Pre-gap length 0:00:01.19
Peak level 97.6 %
Track quality 100.0 %
Test CRC CA6D276F
Copy CRC CA6D276F
Accurately ripped (confidence 25) [A33C7583]
Copy OK
Track 7
Filename D:\KINGSTON\АНГАР\макс_логистик\Мои документы\Making\Walk To The Bay.wav
Peak level 99.9 %
Track quality 100.0 %
Test CRC 316496A9
Copy CRC 316496A9
Accurately ripped (confidence 25) [A2C6A70A]
Copy OK
Track 8
Filename D:\KINGSTON\АНГАР\макс_логистик\Мои документы\Making\Today.wav
Peak level 87.9 %
Track quality 100.0 %
Test CRC 98FA5975
Copy CRC 98FA5975
Accurately ripped (confidence 25) [03201F29]
Copy OK
Track 9
Filename D:\KINGSTON\АНГАР\макс_логистик\Мои документы\Making\Hold On.wav
Pre-gap length 0:00:00.66
Peak level 97.1 %
Track quality 100.0 %
Test CRC 60056B5D
Copy CRC 60056B5D
Accurately ripped (confidence 25) [47D6480D]
Copy OK
Track 10
Filename D:\KINGSTON\АНГАР\макс_логистик\Мои документы\Making\Lovedrunk.wav
Peak level 97.0 %
Track quality 100.0 %
Test CRC 63DFF10E
Copy CRC 63DFF10E
Accurately ripped (confidence 24) [C023619D]
Copy OK
Track 11
Filename D:\KINGSTON\АНГАР\макс_логистик\Мои документы\Making\Faith In My Moon.wav
Peak level 99.2 %
Track quality 100.0 %
Test CRC 66DE2C7F
Copy CRC 66DE2C7F
Accurately ripped (confidence 25) [F5E36DED]
Copy OK
Track 12
Filename D:\KINGSTON\АНГАР\макс_логистик\Мои документы\Making\For Bitter Or Worse.wav
Peak level 99.9 %
Track quality 100.0 %
Test CRC 70CA1AA4
Copy CRC 70CA1AA4
Accurately ripped (confidence 25) [8EF779D2]
Copy OK
All tracks accurately ripped
No errors occurred
End of status report
REM GENRE Rock
REM DATE 2009
REM DISCID 9F0B190C
REM COMMENT "ExactAudioCopy v0.99pb5"
PERFORMER "Anouk"
TITLE "For Bitter Or Worse"
FILE "01. Three Days In A Row.wav" WAVE
TRACK 01 AUDIO
TITLE "Three Days In A Row"
PERFORMER "Anouk"
INDEX 01 00:00:00
FILE "02. In This World.wav" WAVE
TRACK 02 AUDIO
TITLE "In This World"
PERFORMER "Anouk"
INDEX 01 00:00:00
TRACK 03 AUDIO
TITLE "Woman"
PERFORMER "Anouk"
INDEX 00 04:09:36
FILE "03. Woman.wav" WAVE
INDEX 01 00:00:00
FILE "04. Lay It Down.wav" WAVE
TRACK 04 AUDIO
TITLE "Lay It Down"
PERFORMER "Anouk"
INDEX 01 00:00:00
FILE "05. 8 Years.wav" WAVE
TRACK 05 AUDIO
TITLE "8 Years"
PERFORMER "Anouk"
INDEX 01 00:00:00
TRACK 06 AUDIO
TITLE "My Shoes"
PERFORMER "Anouk"
INDEX 00 03:50:55
FILE "06. My Shoes.wav" WAVE
INDEX 01 00:00:00
FILE "07. Walk To The Bay.wav" WAVE
TRACK 07 AUDIO
TITLE "Walk To The Bay"
PERFORMER "Anouk"
INDEX 01 00:00:00
FILE "08. Today.wav" WAVE
TRACK 08 AUDIO
TITLE "Today"
PERFORMER "Anouk"
INDEX 01 00:00:00
TRACK 09 AUDIO
TITLE "Hold On"
PERFORMER "Anouk"
INDEX 00 03:26:17
FILE "09. Hold On.wav" WAVE
INDEX 01 00:00:00
FILE "10. Lovedrunk.wav" WAVE
TRACK 10 AUDIO
TITLE "Lovedrunk"
PERFORMER "Anouk"
INDEX 01 00:00:00
FILE "11. Faith In My Moon.wav" WAVE
TRACK 11 AUDIO
TITLE "Faith In My Moon"
PERFORMER "Anouk"
INDEX 01 00:00:00
FILE "12. For Bitter Or Worse.wav" WAVE
TRACK 12 AUDIO
TITLE "For Bitter Or Worse"
PERFORMER "Anouk"
INDEX 01 00:00:00
1. Three Days In A Row 4:14
2. In This World 4:10
3. Woman 3:51
4. Lay It Down 3:01
5. 8 Years 3:52
6. My Shoes 4:28
7. Walk To The Bay 3:02
8. Today 3:27 $
9. Hold On 3:40
10. Lovedrunk 4:13
11. Faith In My Moon 5:05
12. For Bitter Or Worse 4:14
Приятного прослушивания...
Правила, инструкции, FAQ!!!
Торрент  Добавлен [26 мар 2019, 19:57] Скачать торрент Магнет ссылка
Скачать торрент
[ Размер 24.44 КБ / Просмотров 20 ]

Статус
Проверен 
 
Размер  1.72 ГБ
Приватный: Нет (DHT включён)
.torrent скачан  1
 


     Отправить личное сообщение
   
Страница 1 из 1
Показать сообщения за:  Поле сортировки  
Начать новую тему Ответить на тему


Сейчас этот форум просматривают: нет зарегистрированных пользователей и гости: 0


Вы не можете начинать темы
Вы не можете отвечать на сообщения
Вы не можете редактировать свои сообщения
Вы не можете удалять свои сообщения
Вы не можете добавлять вложения

Перейти:  
cron