Начать новую тему Ответить на тему
Статистика раздачи
Размер: 3.35 ГБ | Добавлен: 26 мар 2019, 20:07 | Скачали: 0
Сидеров: 3  [0 байт/сек]    Личеров: 1  [0 байт/сек]
Пред. тема | След. тема 

Автор
Сообщение

СообщениеДобавлено: 26 мар 2019, 20:07 

Ответить с цитатой 

Achim Reichel / 8 Albums
Жанр: Pop-rock
Носитель: CD
Страна-производитель диска: Germany
Год издания: 1983-2010
Издатель (лейбл): WEA
Страна: Germany
Аудиокодек: FLAC (*.flac)
Тип рипа: tracks+.cue
Битрейт аудио: lossless
Источник (релизер): мой рип
Наличие сканов в содержимом раздачи: частично
Albums:
#777Треклист:
Achim Reichel - "Volxlieder" (2006)
Tracks: 15
Total time: 47:50
Year: 2006
Disc-ID: rock / c20b3c0f
1. Der Rosenmund 3:37
2. Der Lindenbaum (Am Brunnen vor dem Tore) 2:34
3. Die Gedanken sind frei 2:40
4. Hohe Tannen 3:11
5. Im schönsten Wiesengrunde 4:04
6. Kein Feuer, kein Kohle 2:41
7. Der Mond ist aufgegangen 3:12
8. Oh wie kalt ist es geworden 3:39
9. Röslein auf der Heiden 2:30
10. Leise zieht durch mein Gemüt 2:42
11. Du liegst mir (im Herzen) 2:55
12. Die Ballade von den Königskindern 5:20
13. Weisst Du wieviel Sternlein stehen 3:15
14. Ick bün Kock, segt he 2:54
15. Hammonia 2:36
Код:
Exact Audio Copy V1.0 beta 3 from 29. August 2011
EAC extraction logfile from 14. May 2014, 18:35
Achim Reichel / Volxlieder
Used drive  : PLEXTOR CD-R   PX-W4012A   Adapter: 2  ID: 0
Read mode               : Secure
Utilize accurate stream : Yes
Defeat audio cache      : Yes
Make use of C2 pointers : No
Read offset correction                      : 98
Overread into Lead-In and Lead-Out          : No
Fill up missing offset samples with silence : Yes
Delete leading and trailing silent blocks   : No
Null samples used in CRC calculations       : Yes
Used interface                              : Native Win32 interface for Win NT & 2000
Gap handling                                : Appended to previous track
Used output format              : User Defined Encoder
Selected bitrate                : 1024 kBit/s
Quality                         : High
Add ID3 tag                     : No
Command line compressor         : C:\Program Files (x86)\Exact Audio Copy\Flac\flac.exe
Additional command line options : -V -8 -T "Genre=%genre%" -T "Artist=%artist%" -T "Title=%title%" -T "Album=%albumtitle%" -T "Date=%year%" -T "Tracknumber=%tracknr%" -T "Comment=%comment%" %source%
TOC of the extracted CD
     Track |   Start  |  Length  | Start sector | End sector
    ---------------------------------------------------------
        1  |  0:00.00 |  3:37.64 |         0    |    16338
        2  |  3:37.64 |  2:34.23 |     16339    |    27911
        3  |  6:12.12 |  2:40.14 |     27912    |    39925
        4  |  8:52.26 |  3:11.26 |     39926    |    54276
        5  | 12:03.52 |  4:04.02 |     54277    |    72578
        6  | 16:07.54 |  2:41.55 |     72579    |    84708
        7  | 18:49.34 |  3:12.01 |     84709    |    99109
        8  | 22:01.35 |  3:39.52 |     99110    |   115586
        9  | 25:41.12 |  2:30.09 |    115587    |   126845
       10  | 28:11.21 |  2:42.56 |    126846    |   139051
       11  | 30:54.02 |  2:55.43 |    139052    |   152219
       12  | 33:49.45 |  5:20.42 |    152220    |   176261
       13  | 39:10.12 |  3:15.17 |    176262    |   190903
       14  | 42:25.29 |  2:54.52 |    190904    |   204005
       15  | 45:20.06 |  2:36.34 |    204006    |   215739
Track  1
     Filename C:\H\Achim Reichel\Achim Reichel - Volxlieder [FLAC] {2006}\01 Der Rosenmund.wav
     Pre-gap length  0:00:02.00
     Peak level 94.9 %
     Extraction speed 7.2 X
     Track quality 100.0 %
     Test CRC 9613D352
     Copy CRC 9613D352
     Accurately ripped (confidence 9)  [E04D7197]  (AR v2)
     Copy OK
Track  2
     Filename C:\H\Achim Reichel\Achim Reichel - Volxlieder [FLAC] {2006}\02 Der Lindenbaum (Am Brunnen vor dem Tore).wav
     Pre-gap length  0:00:01.58
     Peak level 84.2 %
     Extraction speed 7.6 X
     Track quality 100.0 %
     Test CRC 22F79001
     Copy CRC 22F79001
     Accurately ripped (confidence 9)  [9BE6C6DC]  (AR v2)
     Copy OK
Track  3
     Filename C:\H\Achim Reichel\Achim Reichel - Volxlieder [FLAC] {2006}\03 Die Gedanken sind frei.wav
     Pre-gap length  0:00:01.58
     Peak level 99.7 %
     Extraction speed 8.0 X
     Track quality 100.0 %
     Test CRC A3AC997F
     Copy CRC A3AC997F
     Accurately ripped (confidence 9)  [B0C49CFD]  (AR v2)
     Copy OK
Track  4
     Filename C:\H\Achim Reichel\Achim Reichel - Volxlieder [FLAC] {2006}\04 Hohe Tannen.wav
     Pre-gap length  0:00:01.58
     Peak level 99.2 %
     Extraction speed 8.5 X
     Track quality 100.0 %
     Test CRC 8D7C6325
     Copy CRC 8D7C6325
     Accurately ripped (confidence 9)  [4627CC5B]  (AR v2)
     Copy OK
Track  5
     Filename C:\H\Achim Reichel\Achim Reichel - Volxlieder [FLAC] {2006}\05 Im schoensten Wiesengrunde.wav
     Pre-gap length  0:00:01.58
     Peak level 99.3 %
     Extraction speed 8.1 X
     Track quality 99.9 %
     Test CRC 57395A8D
     Copy CRC 57395A8D
     Accurately ripped (confidence 9)  [DB0E32F0]  (AR v2)
     Copy OK
Track  6
     Filename C:\H\Achim Reichel\Achim Reichel - Volxlieder [FLAC] {2006}\06 Kein Feuer, kein Kohle.wav
     Pre-gap length  0:00:01.58
     Peak level 99.7 %
     Extraction speed 9.3 X
     Track quality 100.0 %
     Test CRC FE1EEA12
     Copy CRC FE1EEA12
     Accurately ripped (confidence 9)  [36B2CFAB]  (AR v2)
     Copy OK
Track  7
     Filename C:\H\Achim Reichel\Achim Reichel - Volxlieder [FLAC] {2006}\07 Der Mond ist aufgegangen.wav
     Pre-gap length  0:00:01.58
     Peak level 99.6 %
     Extraction speed 9.7 X
     Track quality 100.0 %
     Test CRC 4E862414
     Copy CRC 4E862414
     Accurately ripped (confidence 9)  [603ADC2F]  (AR v2)
     Copy OK
Track  8
     Filename C:\H\Achim Reichel\Achim Reichel - Volxlieder [FLAC] {2006}\08 Oh wie kalt ist es geworden.wav
     Pre-gap length  0:00:01.58
     Peak level 98.5 %
     Extraction speed 10.2 X
     Track quality 100.0 %
     Test CRC 538EB85F
     Copy CRC 538EB85F
     Accurately ripped (confidence 9)  [8E47979F]  (AR v2)
     Copy OK
Track  9
     Filename C:\H\Achim Reichel\Achim Reichel - Volxlieder [FLAC] {2006}\09 Roeslein auf der Heiden.wav
     Pre-gap length  0:00:01.58
     Peak level 97.7 %
     Extraction speed 10.3 X
     Track quality 100.0 %
     Test CRC 98CA92E6
     Copy CRC 98CA92E6
     Accurately ripped (confidence 9)  [9819205F]  (AR v2)
     Copy OK
Track 10
     Filename C:\H\Achim Reichel\Achim Reichel - Volxlieder [FLAC] {2006}\10 Leise zieht durch mein Gemuet.wav
     Pre-gap length  0:00:01.58
     Peak level 99.9 %
     Extraction speed 10.7 X
     Track quality 100.0 %
     Test CRC D4959DF0
     Copy CRC D4959DF0
     Accurately ripped (confidence 9)  [49B4F0AB]  (AR v2)
     Copy OK
Track 11
     Filename C:\H\Achim Reichel\Achim Reichel - Volxlieder [FLAC] {2006}\11 Du liegst mir (im Herzen).wav
     Pre-gap length  0:00:01.57
     Peak level 100.0 %
     Extraction speed 11.1 X
     Track quality 100.0 %
     Test CRC C205E380
     Copy CRC C205E380
     Accurately ripped (confidence 9)  [E4928F74]  (AR v2)
     Copy OK
Track 12
     Filename C:\H\Achim Reichel\Achim Reichel - Volxlieder [FLAC] {2006}\12 Die Ballade von den Koenigskindern.wav
     Pre-gap length  0:00:01.58
     Peak level 98.9 %
     Extraction speed 11.8 X
     Track quality 100.0 %
     Test CRC 714649EB
     Copy CRC 714649EB
     Accurately ripped (confidence 9)  [6CC42D2D]  (AR v2)
     Copy OK
Track 13
     Filename C:\H\Achim Reichel\Achim Reichel - Volxlieder [FLAC] {2006}\13 Weisst Du wieviel Sternlein stehen.wav
     Pre-gap length  0:00:01.58
     Peak level 99.3 %
     Extraction speed 10.0 X
     Track quality 99.9 %
     Test CRC 710979D4
     Copy CRC 710979D4
     Accurately ripped (confidence 9)  [BB1966ED]  (AR v2)
     Copy OK
Track 14
     Filename C:\H\Achim Reichel\Achim Reichel - Volxlieder [FLAC] {2006}\14 Ick buen Kock, segt he.wav
     Pre-gap length  0:00:01.58
     Peak level 99.2 %
     Extraction speed 12.1 X
     Track quality 100.0 %
     Test CRC E151C59B
     Copy CRC E151C59B
     Accurately ripped (confidence 9)  [00A36D0B]  (AR v2)
     Copy OK
Track 15
     Filename C:\H\Achim Reichel\Achim Reichel - Volxlieder [FLAC] {2006}\15 Hammonia.wav
     Pre-gap length  0:00:01.58
     Peak level 100.0 %
     Extraction speed 12.0 X
     Track quality 100.0 %
     Test CRC 3D22F20E
     Copy CRC 3D22F20E
     Accurately ripped (confidence 9)  [66455ACB]  (AR v2)
     Copy OK
All tracks accurately ripped
No errors occurred
End of status report
==== Log checksum D9C8A4AE0C2A192D59E4BD042C7FA66764D46593367980BF7D2B80487B65DD35 ====
Код:
REM GENRE Rock
REM DATE 2006
REM DISCID C20B3C0F
REM COMMENT "ExactAudioCopy v1.0b3"
PERFORMER "Achim Reichel"
TITLE "Volxlieder"
FILE "01 Der Rosenmund.wav" WAVE
  TRACK 01 AUDIO
    TITLE "Der Rosenmund"
    PERFORMER "Achim Reichel"
    INDEX 01 00:00:00
  TRACK 02 AUDIO
    TITLE "Der Lindenbaum (Am Brunnen vor dem Tore)"
    PERFORMER "Achim Reichel"
    INDEX 00 03:36:06
FILE "02 Der Lindenbaum (Am Brunnen vor dem Tore).wav" WAVE
    INDEX 01 00:00:00
  TRACK 03 AUDIO
    TITLE "Die Gedanken sind frei"
    PERFORMER "Achim Reichel"
    INDEX 00 02:32:40
FILE "03 Die Gedanken sind frei.wav" WAVE
    INDEX 01 00:00:00
  TRACK 04 AUDIO
    TITLE "Hohe Tannen"
    PERFORMER "Achim Reichel"
    INDEX 00 02:38:31
FILE "04 Hohe Tannen.wav" WAVE
    INDEX 01 00:00:00
  TRACK 05 AUDIO
    TITLE "Im schoensten Wiesengrunde"
    PERFORMER "Achim Reichel"
    INDEX 00 03:09:43
FILE "05 Im schoensten Wiesengrunde.wav" WAVE
    INDEX 01 00:00:00
  TRACK 06 AUDIO
    TITLE "Kein Feuer, kein Kohle"
    PERFORMER "Achim Reichel"
    INDEX 00 04:02:19
FILE "06 Kein Feuer, kein Kohle.wav" WAVE
    INDEX 01 00:00:00
  TRACK 07 AUDIO
    TITLE "Der Mond ist aufgegangen"
    PERFORMER "Achim Reichel"
    INDEX 00 02:39:72
FILE "07 Der Mond ist aufgegangen.wav" WAVE
    INDEX 01 00:00:00
  TRACK 08 AUDIO
    TITLE "Oh wie kalt ist es geworden"
    PERFORMER "Achim Reichel"
    INDEX 00 03:10:18
FILE "08 Oh wie kalt ist es geworden.wav" WAVE
    INDEX 01 00:00:00
  TRACK 09 AUDIO
    TITLE "Roeslein auf der Heiden"
    PERFORMER "Achim Reichel"
    INDEX 00 03:37:69
FILE "09 Roeslein auf der Heiden.wav" WAVE
    INDEX 01 00:00:00
  TRACK 10 AUDIO
    TITLE "Leise zieht durch mein Gemuet"
    PERFORMER "Achim Reichel"
    INDEX 00 02:28:26
FILE "10 Leise zieht durch mein Gemuet.wav" WAVE
    INDEX 01 00:00:00
  TRACK 11 AUDIO
    TITLE "Du liegst mir (im Herzen)"
    PERFORMER "Achim Reichel"
    INDEX 00 02:40:74
FILE "11 Du liegst mir (im Herzen).wav" WAVE
    INDEX 01 00:00:00
  TRACK 12 AUDIO
    TITLE "Die Ballade von den Koenigskindern"
    PERFORMER "Achim Reichel"
    INDEX 00 02:53:60
FILE "12 Die Ballade von den Koenigskindern.wav" WAVE
    INDEX 01 00:00:00
  TRACK 13 AUDIO
    TITLE "Weisst Du wieviel Sternlein stehen"
    PERFORMER "Achim Reichel"
    INDEX 00 05:18:59
FILE "13 Weisst Du wieviel Sternlein stehen.wav" WAVE
    INDEX 01 00:00:00
  TRACK 14 AUDIO
    TITLE "Ick buen Kock, segt he"
    PERFORMER "Achim Reichel"
    INDEX 00 03:13:34
FILE "14 Ick buen Kock, segt he.wav" WAVE
    INDEX 01 00:00:00
  TRACK 15 AUDIO
    TITLE "Hammonia"
    PERFORMER "Achim Reichel"
    INDEX 00 02:52:69
FILE "15 Hammonia.wav" WAVE
    INDEX 01 00:00:00
Код:
[CUETools log; Date: 14.05.2014 18:35:46; Version: 2.1.5]
[CTDB TOCID: lCkFnHslOF196cJ9S2qv4OMvaqU-] found.
Track | CTDB Status
  1   | (7/7) Accurately ripped
  2   | (7/7) Accurately ripped
  3   | (7/7) Accurately ripped
  4   | (7/7) Accurately ripped
  5   | (7/7) Accurately ripped
  6   | (7/7) Accurately ripped
  7   | (7/7) Accurately ripped
  8   | (7/7) Accurately ripped
  9   | (7/7) Accurately ripped
 10   | (7/7) Accurately ripped
 11   | (7/7) Accurately ripped
 12   | (7/7) Accurately ripped
 13   | (7/7) Accurately ripped
 14   | (7/7) Accurately ripped
 15   | (7/7) Accurately ripped
[AccurateRip ID: 001a2d0d-0129b208-c20b3c0f] found.
Track   [  CRC   |   V2   ] Status
 01     [d321ffed|e04d7197] (16+09/25) Accurately ripped
 02     [f253fe4d|9be6c6dc] (16+09/25) Accurately ripped
 03     [c0981622|b0c49cfd] (16+09/25) Accurately ripped
 04     [246df1f0|4627cc5b] (16+09/25) Accurately ripped
 05     [9f589c62|db0e32f0] (16+09/25) Accurately ripped
 06     [c10bf497|36b2cfab] (16+09/25) Accurately ripped
 07     [91e6d1dc|603adc2f] (16+09/25) Accurately ripped
 08     [784fb617|8e47979f] (16+09/25) Accurately ripped
 09     [0eeb858c|9819205f] (16+09/25) Accurately ripped
 10     [a6bf57bb|49b4f0ab] (16+09/25) Accurately ripped
 11     [a90a361e|e4928f74] (16+09/25) Accurately ripped
 12     [c3a908fa|6cc42d2d] (16+09/25) Accurately ripped
 13     [ec61edee|bb1966ed] (16+09/25) Accurately ripped
 14     [2d789593|00a36d0b] (16+09/25) Accurately ripped
 15     [b5f507de|66455acb] (16+09/25) Accurately ripped
Track Peak [ CRC32  ] [W/O NULL] [  LOG   ]
 --  100,0 [07950EF9] [B44F8A42]
 01   94,9 [9613D352] [700EDB13]   CRC32
 02   84,2 [22F79001] [BB82ED0A]   CRC32
 03   99,7 [A3AC997F] [ECFB059D]   CRC32
 04   99,2 [8D7C6325] [94B5E9B8]   CRC32
 05   99,3 [57395A8D] [56D70347]   CRC32
 06   99,7 [FE1EEA12] [FE80ABC5]   CRC32
 07   99,6 [4E862414] [D92F184E]   CRC32
 08   98,5 [538EB85F] [4A8E83DA]   CRC32
 09   97,7 [98CA92E6] [813C414C]   CRC32
 10   99,9 [D4959DF0] [DEB9EF46]   CRC32
 11  100,0 [C205E380] [94C55930]   CRC32
 12   98,9 [714649EB] [BF1AC940]   CRC32
 13   99,3 [710979D4] [F61495AC]   CRC32
 14   99,2 [E151C59B] [7F816597]   CRC32
 15  100,0 [3D22F20E] [A6915292]   CRC32
#777Треклист:
Achim Reichel - "Wilder Wassermann: Balladen & Mythen" (2002)
Tracks: 12
Total time: 47:21
Year: 2002
Disc-ID: folk / 9a0b1d0c
1. Am blassen Meeresstrande 0:54
2. Vineta 4:07
3. Belsazar 4:04
4. Der Erlkönig 4:57
5. Die Geister vom See 5:41
6. Lars Jessen 6:31
7. Die Ballade von der Loreley 4:14
8. Der Wilde Wassermann 3:57
9. Der Reichtum und die Not 2:50
10. Walpurgisnacht 3:31
11. Der Nöck 4:45
12. Im schwarzen Walfisch zu Askalon 1:50
Код:
Exact Audio Copy V1.0 beta 3 from 29. August 2011
EAC extraction logfile from 15. May 2014, 15:15
Achim Reichel / Wilder Wassermann
Used drive  : PLEXTOR CD-R   PX-W4012A   Adapter: 2  ID: 0
Read mode               : Secure
Utilize accurate stream : Yes
Defeat audio cache      : Yes
Make use of C2 pointers : No
Read offset correction                      : 98
Overread into Lead-In and Lead-Out          : No
Fill up missing offset samples with silence : Yes
Delete leading and trailing silent blocks   : No
Null samples used in CRC calculations       : Yes
Used interface                              : Native Win32 interface for Win NT & 2000
Gap handling                                : Appended to previous track
Used output format              : User Defined Encoder
Selected bitrate                : 1024 kBit/s
Quality                         : High
Add ID3 tag                     : No
Command line compressor         : C:\Program Files (x86)\Exact Audio Copy\Flac\flac.exe
Additional command line options : -V -8 -T "Genre=%genre%" -T "Artist=%artist%" -T "Title=%title%" -T "Album=%albumtitle%" -T "Date=%year%" -T "Tracknumber=%tracknr%" -T "Comment=%comment%" %source%
TOC of the extracted CD
     Track |   Start  |  Length  | Start sector | End sector
    ---------------------------------------------------------
        1  |  0:00.00 |  0:54.18 |         0    |     4067
        2  |  0:54.18 |  4:07.14 |      4068    |    22606
        3  |  5:01.32 |  4:04.54 |     22607    |    40960
        4  |  9:06.11 |  4:57.07 |     40961    |    63242
        5  | 14:03.18 |  5:41.36 |     63243    |    88853
        6  | 19:44.54 |  6:31.59 |     88854    |   118237
        7  | 26:16.38 |  4:14.30 |    118238    |   137317
        8  | 30:30.68 |  3:57.45 |    137318    |   155137
        9  | 34:28.38 |  2:50.39 |    155138    |   167926
       10  | 37:19.02 |  3:31.03 |    167927    |   183754
       11  | 40:50.05 |  4:45.27 |    183755    |   205156
       12  | 45:35.32 |  1:49.51 |    205157    |   213382
Track  1
     Filename C:\H\Achim Reichel\Achim Reichel - Wilder Wassermann [FLAC] {2002}\01 Am blassen Meeresstrande.wav
     Pre-gap length  0:00:02.00
     Peak level 68.6 %
     Extraction speed 6.2 X
     Track quality 100.0 %
     Test CRC 3262C740
     Copy CRC 3262C740
     Accurately ripped (confidence 8)  [18B6A133]  (AR v2)
     Copy OK
Track  2
     Filename C:\H\Achim Reichel\Achim Reichel - Wilder Wassermann [FLAC] {2002}\02 Vineta.wav
     Peak level 99.8 %
     Extraction speed 7.4 X
     Track quality 100.0 %
     Test CRC 48E39994
     Copy CRC 48E39994
     Accurately ripped (confidence 8)  [AFC623D6]  (AR v2)
     Copy OK
Track  3
     Filename C:\H\Achim Reichel\Achim Reichel - Wilder Wassermann [FLAC] {2002}\03 Belsazar.wav
     Pre-gap length  0:00:05.57
     Peak level 100.0 %
     Extraction speed 8.0 X
     Track quality 100.0 %
     Test CRC 6BD73856
     Copy CRC 6BD73856
     Accurately ripped (confidence 8)  [BE4C5FF3]  (AR v2)
     Copy OK
Track  4
     Filename C:\H\Achim Reichel\Achim Reichel - Wilder Wassermann [FLAC] {2002}\04 Der Erlkoenig.wav
     Pre-gap length  0:00:02.57
     Peak level 93.2 %
     Extraction speed 8.8 X
     Track quality 100.0 %
     Test CRC 8601443A
     Copy CRC 8601443A
     Accurately ripped (confidence 8)  [96956773]  (AR v2)
     Copy OK
Track  5
     Filename C:\H\Achim Reichel\Achim Reichel - Wilder Wassermann [FLAC] {2002}\05 Die Geister vom See.wav
     Pre-gap length  0:00:02.57
     Peak level 99.5 %
     Extraction speed 9.6 X
     Track quality 100.0 %
     Test CRC C3BB3C52
     Copy CRC C3BB3C52
     Accurately ripped (confidence 8)  [3A45DB8C]  (AR v2)
     Copy OK
Track  6
     Filename C:\H\Achim Reichel\Achim Reichel - Wilder Wassermann [FLAC] {2002}\06 Lars Jessen.wav
     Pre-gap length  0:00:02.57
     Peak level 98.4 %
     Extraction speed 10.0 X
     Track quality 100.0 %
     Test CRC 768CA0D1
     Copy CRC 768CA0D1
     Accurately ripped (confidence 8)  [91BB76A1]  (AR v2)
     Copy OK
Track  7
     Filename C:\H\Achim Reichel\Achim Reichel - Wilder Wassermann [FLAC] {2002}\07 Die Ballade von der Loreley.wav
     Pre-gap length  0:00:02.57
     Peak level 100.0 %
     Extraction speed 10.8 X
     Track quality 100.0 %
     Test CRC A242C242
     Copy CRC A242C242
     Accurately ripped (confidence 8)  [0AF0C97F]  (AR v2)
     Copy OK
Track  8
     Filename C:\H\Achim Reichel\Achim Reichel - Wilder Wassermann [FLAC] {2002}\08 Der Wilde Wassermann.wav
     Pre-gap length  0:00:02.57
     Peak level 99.9 %
     Extraction speed 11.2 X
     Track quality 100.0 %
     Test CRC 7D298ECA
     Copy CRC 7D298ECA
     Accurately ripped (confidence 8)  [64A1C597]  (AR v2)
     Copy OK
Track  9
     Filename C:\H\Achim Reichel\Achim Reichel - Wilder Wassermann [FLAC] {2002}\09 Der Reichtum und die Not.wav
     Pre-gap length  0:00:03.63
     Peak level 91.2 %
     Extraction speed 11.3 X
     Track quality 100.0 %
     Test CRC FEA63A8F
     Copy CRC FEA63A8F
     Accurately ripped (confidence 8)  [3067E952]  (AR v2)
     Copy OK
Track 10
     Filename C:\H\Achim Reichel\Achim Reichel - Wilder Wassermann [FLAC] {2002}\10 Walpurgisnacht.wav
     Pre-gap length  0:00:02.57
     Peak level 90.9 %
     Extraction speed 11.7 X
     Track quality 100.0 %
     Test CRC 63D38D00
     Copy CRC 63D38D00
     Accurately ripped (confidence 8)  [7BFCE299]  (AR v2)
     Copy OK
Track 11
     Filename C:\H\Achim Reichel\Achim Reichel - Wilder Wassermann [FLAC] {2002}\11 Der Noeck.wav
     Pre-gap length  0:00:02.57
     Peak level 99.7 %
     Extraction speed 12.4 X
     Track quality 100.0 %
     Test CRC BAF32460
     Copy CRC BAF32460
     Accurately ripped (confidence 8)  [E19AB712]  (AR v2)
     Copy OK
Track 12
     Filename C:\H\Achim Reichel\Achim Reichel - Wilder Wassermann [FLAC] {2002}\12 Im schwarzen Walfisch zu Askalon.wav
     Pre-gap length  0:00:02.57
     Peak level 82.3 %
     Extraction speed 9.0 X
     Track quality 100.0 %
     Test CRC 30591F61
     Copy CRC 30591F61
     Accurately ripped (confidence 8)  [38A29F77]  (AR v2)
     Copy OK
All tracks accurately ripped
No errors occurred
End of status report
==== Log checksum AF61E84280C72258E1DBEA9019626B390CB64F627D4A82BFDC29B4A89F098BB8 ====
Код:
REM GENRE Pop-Folk
REM DATE 2002
REM DISCID 9A0B1D0C
REM COMMENT "ExactAudioCopy v1.0b3"
PERFORMER "Achim Reichel"
TITLE "Wilder Wassermann"
FILE "01 Am blassen Meeresstrande.wav" WAVE
  TRACK 01 AUDIO
    TITLE "Am blassen Meeresstrande"
    PERFORMER "Achim Reichel"
    INDEX 01 00:00:00
FILE "02 Vineta.wav" WAVE
  TRACK 02 AUDIO
    TITLE "Vineta"
    PERFORMER "Achim Reichel"
    INDEX 01 00:00:00
  TRACK 03 AUDIO
    TITLE "Belsazar"
    PERFORMER "Achim Reichel"
    INDEX 00 04:01:32
FILE "03 Belsazar.wav" WAVE
    INDEX 01 00:00:00
  TRACK 04 AUDIO
    TITLE "Der Erlkoenig"
    PERFORMER "Achim Reichel"
    INDEX 00 04:01:72
FILE "04 Der Erlkoenig.wav" WAVE
    INDEX 01 00:00:00
  TRACK 05 AUDIO
    TITLE "Die Geister vom See"
    PERFORMER "Achim Reichel"
    INDEX 00 04:54:25
FILE "05 Die Geister vom See.wav" WAVE
    INDEX 01 00:00:00
  TRACK 06 AUDIO
    TITLE "Lars Jessen"
    PERFORMER "Achim Reichel"
    INDEX 00 05:38:54
FILE "06 Lars Jessen.wav" WAVE
    INDEX 01 00:00:00
  TRACK 07 AUDIO
    TITLE "Die Ballade von der Loreley"
    PERFORMER "Achim Reichel"
    INDEX 00 06:29:02
FILE "07 Die Ballade von der Loreley.wav" WAVE
    INDEX 01 00:00:00
  TRACK 08 AUDIO
    TITLE "Der Wilde Wassermann"
    PERFORMER "Achim Reichel"
    INDEX 00 04:11:48
FILE "08 Der Wilde Wassermann.wav" WAVE
    INDEX 01 00:00:00
  TRACK 09 AUDIO
    TITLE "Der Reichtum und die Not"
    PERFORMER "Achim Reichel"
    INDEX 00 03:53:57
FILE "09 Der Reichtum und die Not.wav" WAVE
    INDEX 01 00:00:00
  TRACK 10 AUDIO
    TITLE "Walpurgisnacht"
    PERFORMER "Achim Reichel"
    INDEX 00 02:47:57
FILE "10 Walpurgisnacht.wav" WAVE
    INDEX 01 00:00:00
  TRACK 11 AUDIO
    TITLE "Der Noeck"
    PERFORMER "Achim Reichel"
    INDEX 00 03:28:21
FILE "11 Der Noeck.wav" WAVE
    INDEX 01 00:00:00
  TRACK 12 AUDIO
    TITLE "Im schwarzen Walfisch zu Askalon"
    PERFORMER "Achim Reichel"
    INDEX 00 04:42:45
FILE "12 Im schwarzen Walfisch zu Askalon.wav" WAVE
    INDEX 01 00:00:00
Код:
[CUETools log; Date: 15.05.2014 15:17:38; Version: 2.1.5]
[CTDB TOCID: UYPxqP40oGboIaXJ.CoYlZEvFlw-] found.
Track | CTDB Status
  1   | (10/11) Accurately ripped
  2   | (10/11) Accurately ripped
  3   | (11/11) Accurately ripped
  4   | (11/11) Accurately ripped
  5   | (11/11) Accurately ripped
  6   | (11/11) Accurately ripped
  7   | (10/11) Accurately ripped
  8   | (11/11) Accurately ripped
  9   | (11/11) Accurately ripped
 10   | (11/11) Accurately ripped
 11   | (10/11) Accurately ripped
 12   | (11/11) Accurately ripped
[AccurateRip ID: 00155f49-00cbacbf-9a0b1d0c] found.
Track   [  CRC   |   V2   ] Status
 01     [19379906|18b6a133] (08+08/26) Accurately ripped
 02     [7e13c0ef|afc623d6] (08+08/26) Accurately ripped
 03     [f76bf54b|be4c5ff3] (08+08/26) Accurately ripped
 04     [457919e0|96956773] (08+08/26) Accurately ripped
 05     [2ea5a671|3a45db8c] (08+08/26) Accurately ripped
 06     [bfeef3aa|91bb76a1] (08+08/26) Accurately ripped
 07     [9b683aa7|0af0c97f] (08+08/25) Accurately ripped
 08     [c49859dd|64a1c597] (08+08/26) Accurately ripped
 09     [d215a49d|3067e952] (08+08/26) Accurately ripped
 10     [cf324653|7bfce299] (08+08/26) Accurately ripped
 11     [74db5f1a|e19ab712] (08+08/25) Accurately ripped
 12     [99a886d4|38a29f77] (08+08/26) Accurately ripped
Offsetted by 664:
 01     [7b19487d] (06/26) Accurately ripped
 02     [088bdae4] (06/26) Accurately ripped
 03     [479fb10b] (06/26) Accurately ripped
 04     [a25ec468] (06/26) Accurately ripped
 05     [5fe33829] (06/26) Accurately ripped
 06     [c908d61e] (06/26) Accurately ripped
 07     [9e7f1d83] (06/25) Accurately ripped
 08     [de7b7c65] (06/26) Accurately ripped
 09     [25a1a53d] (06/26) Accurately ripped
 10     [ae3aa0cf] (06/26) Accurately ripped
 11     [2ee1eebe] (06/25) Accurately ripped
 12     [d76712d9] (06/26) Accurately ripped
Track Peak [ CRC32  ] [W/O NULL] [  LOG   ]
 --  100,0 [7F79B25C] [18B8F2F2]
 01   68,6 [3262C740] [CCCADB74]   CRC32
 02   99,8 [48E39994] [F16D6AF2]   CRC32
 03  100,0 [6BD73856] [26FF245C]   CRC32
 04   93,2 [8601443A] [6245E15C]   CRC32
 05   99,5 [C3BB3C52] [772956F6]   CRC32
 06   98,3 [768CA0D1] [250D038B]   CRC32
 07  100,0 [A242C242] [041A146C]   CRC32
 08   99,9 [7D298ECA] [6EA3C482]   CRC32
 09   91,2 [FEA63A8F] [3C66D431]   CRC32
 10   90,9 [63D38D00] [0161D5F6]   CRC32
 11   99,7 [BAF32460] [A327EA9B]   CRC32
 12   82,3 [30591F61] [E866C9C8]   CRC32
#777Треклист:
Achim Reichel - "Entspann Dich" (1999)
Tracks: 12
Total time: 56:14
Year: 1994
Disc-ID: rock / a40d330c
1. Entspann Dich 5:30
2. Sa-Lo-Me 5:08
3. Der Wasserfloh 4:10
4. An den Ufern Deiner blauen Augen 4:45
5. Ich hab so lang auf Dich gewartet 5:26
6. Liebe wo bist Du hin 5:05
7. In der Pampa 4:29
8. Hauptsache glücklich 4:08
9. Dein kleiner Spiegel 4:30
10. Die Entwicklung der Menschlichkeit 2:52
11. Okay okay 4:59
12. Auf einem Felsen 5:12
Код:
Exact Audio Copy V1.0 beta 3 from 29. August 2011
EAC extraction logfile from 15. May 2014, 16:08
Achim Reichel / Entspann Dich
Used drive  : PLEXTOR CD-R   PX-W4012A   Adapter: 2  ID: 0
Read mode               : Secure
Utilize accurate stream : Yes
Defeat audio cache      : Yes
Make use of C2 pointers : No
Read offset correction                      : 98
Overread into Lead-In and Lead-Out          : No
Fill up missing offset samples with silence : Yes
Delete leading and trailing silent blocks   : No
Null samples used in CRC calculations       : Yes
Used interface                              : Native Win32 interface for Win NT & 2000
Gap handling                                : Appended to previous track
Used output format              : User Defined Encoder
Selected bitrate                : 1024 kBit/s
Quality                         : High
Add ID3 tag                     : No
Command line compressor         : C:\Program Files (x86)\Exact Audio Copy\Flac\flac.exe
Additional command line options : -V -8 -T "Genre=%genre%" -T "Artist=%artist%" -T "Title=%title%" -T "Album=%albumtitle%" -T "Date=%year%" -T "Tracknumber=%tracknr%" -T "Comment=%comment%" %source%
TOC of the extracted CD
     Track |   Start  |  Length  | Start sector | End sector
    ---------------------------------------------------------
        1  |  0:00.00 |  5:30.10 |         0    |    24759
        2  |  5:30.10 |  5:08.24 |     24760    |    47883
        3  | 10:38.34 |  4:10.50 |     47884    |    66683
        4  | 14:49.09 |  4:45.01 |     66684    |    88059
        5  | 19:34.10 |  5:26.56 |     88060    |   112565
        6  | 25:00.66 |  5:05.11 |    112566    |   135451
        7  | 30:06.02 |  4:29.60 |    135452    |   155686
        8  | 34:35.62 |  4:08.64 |    155687    |   174350
        9  | 38:44.51 |  4:30.61 |    174351    |   194661
       10  | 43:15.37 |  2:52.57 |    194662    |   207618
       11  | 46:08.19 |  4:59.24 |    207619    |   230067
       12  | 51:07.43 |  5:11.48 |    230068    |   253440
Track  1
     Filename C:\H\Achim Reichel\Achim Reichel - Entspann Dich [FLAC] {1999}\01 Entspann Dich.wav
     Pre-gap length  0:00:02.00
     Peak level 98.0 %
     Extraction speed 7.4 X
     Track quality 100.0 %
     Test CRC 0F268370
     Copy CRC 0F268370
     Accurately ripped (confidence 3)  [690809F8]  (AR v2)
     Copy OK
Track  2
     Filename C:\H\Achim Reichel\Achim Reichel - Entspann Dich [FLAC] {1999}\02 Sa-Lo-Me.wav
     Pre-gap length  0:00:01.57
     Peak level 100.0 %
     Extraction speed 8.3 X
     Track quality 100.0 %
     Test CRC 832F79FA
     Copy CRC 832F79FA
     Accurately ripped (confidence 3)  [CF939BCE]  (AR v2)
     Copy OK
Track  3
     Filename C:\H\Achim Reichel\Achim Reichel - Entspann Dich [FLAC] {1999}\03 Der Wasserfloh.wav
     Pre-gap length  0:00:02.28
     Peak level 98.0 %
     Extraction speed 8.0 X
     Track quality 99.9 %
     Test CRC EE28B4B7
     Copy CRC EE28B4B7
     Accurately ripped (confidence 3)  [28D8DCF6]  (AR v2)
     Copy OK
Track  4
     Filename C:\H\Achim Reichel\Achim Reichel - Entspann Dich [FLAC] {1999}\04 An den Ufern Deiner blauen Augen.wav
     Pre-gap length  0:00:01.57
     Peak level 97.4 %
     Extraction speed 9.5 X
     Track quality 100.0 %
     Test CRC 3EC8B101
     Copy CRC 3EC8B101
     Accurately ripped (confidence 3)  [AF3E91FA]  (AR v2)
     Copy OK
Track  5
     Filename C:\H\Achim Reichel\Achim Reichel - Entspann Dich [FLAC] {1999}\05 Ich hab so lang auf Dich gewartet.wav
     Pre-gap length  0:00:01.58
     Peak level 98.0 %
     Extraction speed 10.2 X
     Track quality 100.0 %
     Test CRC 76A3BDA3
     Copy CRC 76A3BDA3
     Accurately ripped (confidence 3)  [2D04A9B1]  (AR v2)
     Copy OK
Track  6
     Filename C:\H\Achim Reichel\Achim Reichel - Entspann Dich [FLAC] {1999}\06 Liebe wo bist Du hin.wav
     Pre-gap length  0:00:01.58
     Peak level 98.0 %
     Extraction speed 10.7 X
     Track quality 100.0 %
     Test CRC 7E817040
     Copy CRC 7E817040
     Accurately ripped (confidence 3)  [9CA26E38]  (AR v2)
     Copy OK
Track  7
     Filename C:\H\Achim Reichel\Achim Reichel - Entspann Dich [FLAC] {1999}\07 In der Pampa.wav
     Pre-gap length  0:00:01.18
     Peak level 95.4 %
     Extraction speed 11.3 X
     Track quality 100.0 %
     Test CRC 30FFB334
     Copy CRC 30FFB334
     Accurately ripped (confidence 3)  [C1617F1D]  (AR v2)
     Copy OK
Track  8
     Filename C:\H\Achim Reichel\Achim Reichel - Entspann Dich [FLAC] {1999}\08 Hauptsache gluecklich.wav
     Pre-gap length  0:00:01.57
     Peak level 98.0 %
     Extraction speed 11.7 X
     Track quality 100.0 %
     Test CRC 95845A2B
     Copy CRC 95845A2B
     Accurately ripped (confidence 3)  [446C1515]  (AR v2)
     Copy OK
Track  9
     Filename C:\H\Achim Reichel\Achim Reichel - Entspann Dich [FLAC] {1999}\09 Dein kleiner Spiegel.wav
     Pre-gap length  0:00:01.57
     Peak level 98.0 %
     Extraction speed 12.1 X
     Track quality 100.0 %
     Test CRC 6AE034B5
     Copy CRC 6AE034B5
     Accurately ripped (confidence 3)  [85F9836B]  (AR v2)
     Copy OK
Track 10
     Filename C:\H\Achim Reichel\Achim Reichel - Entspann Dich [FLAC] {1999}\10 Die Entwicklung der Menschlichkeit.wav
     Pre-gap length  0:00:01.58
     Peak level 96.4 %
     Extraction speed 12.1 X
     Track quality 100.0 %
     Test CRC 8E5A18E7
     Copy CRC 8E5A18E7
     Accurately ripped (confidence 3)  [44A9E20E]  (AR v2)
     Copy OK
Track 11
     Filename C:\H\Achim Reichel\Achim Reichel - Entspann Dich [FLAC] {1999}\11 Okay okay.wav
     Pre-gap length  0:00:02.48
     Peak level 98.0 %
     Extraction speed 12.9 X
     Track quality 100.0 %
     Test CRC 019E39D4
     Copy CRC 019E39D4
     Accurately ripped (confidence 3)  [9B30B930]  (AR v2)
     Copy OK
Track 12
     Filename C:\H\Achim Reichel\Achim Reichel - Entspann Dich [FLAC] {1999}\12 Auf einem Felsen.wav
     Pre-gap length  0:00:01.57
     Peak level 90.1 %
     Extraction speed 11.9 X
     Track quality 100.0 %
     Test CRC 09BBB448
     Copy CRC 09BBB448
     Accurately ripped (confidence 3)  [160B2DA9]  (AR v2)
     Copy OK
All tracks accurately ripped
No errors occurred
End of status report
==== Log checksum C0EC63B1EF8B7837A287376FAAC09007550C5B18F82D6DDE581B446829677DCE ====
Код:
REM GENRE "National Folk"
REM DATE 1994
REM DISCID A40D330C
REM COMMENT "ExactAudioCopy v1.0b3"
PERFORMER "Achim Reichel"
TITLE "Entspann Dich"
FILE "01 Entspann Dich.wav" WAVE
  TRACK 01 AUDIO
    TITLE "Entspann Dich"
    PERFORMER "Achim Reichel"
    INDEX 01 00:00:00
  TRACK 02 AUDIO
    TITLE "Sa-Lo-Me"
    PERFORMER "Achim Reichel"
    INDEX 00 05:28:28
FILE "02 Sa-Lo-Me.wav" WAVE
    INDEX 01 00:00:00
  TRACK 03 AUDIO
    TITLE "Der Wasserfloh"
    PERFORMER "Achim Reichel"
    INDEX 00 05:05:71
FILE "03 Der Wasserfloh.wav" WAVE
    INDEX 01 00:00:00
  TRACK 04 AUDIO
    TITLE "An den Ufern Deiner blauen Augen"
    PERFORMER "Achim Reichel"
    INDEX 00 04:08:68
FILE "04 An den Ufern Deiner blauen Augen.wav" WAVE
    INDEX 01 00:00:00
  TRACK 05 AUDIO
    TITLE "Ich hab so lang auf Dich gewartet"
    PERFORMER "Achim Reichel"
    INDEX 00 04:43:18
FILE "05 Ich hab so lang auf Dich gewartet.wav" WAVE
    INDEX 01 00:00:00
  TRACK 06 AUDIO
    TITLE "Liebe wo bist Du hin"
    PERFORMER "Achim Reichel"
    INDEX 00 05:24:73
FILE "06 Liebe wo bist Du hin.wav" WAVE
    INDEX 01 00:00:00
  TRACK 07 AUDIO
    TITLE "In der Pampa"
    PERFORMER "Achim Reichel"
    INDEX 00 05:03:68
FILE "07 In der Pampa.wav" WAVE
    INDEX 01 00:00:00
  TRACK 08 AUDIO
    TITLE "Hauptsache gluecklich"
    PERFORMER "Achim Reichel"
    INDEX 00 04:28:03
FILE "08 Hauptsache gluecklich.wav" WAVE
    INDEX 01 00:00:00
  TRACK 09 AUDIO
    TITLE "Dein kleiner Spiegel"
    PERFORMER "Achim Reichel"
    INDEX 00 04:07:07
FILE "09 Dein kleiner Spiegel.wav" WAVE
    INDEX 01 00:00:00
  TRACK 10 AUDIO
    TITLE "Die Entwicklung der Menschlichkeit"
    PERFORMER "Achim Reichel"
    INDEX 00 04:29:03
FILE "10 Die Entwicklung der Menschlichkeit.wav" WAVE
    INDEX 01 00:00:00
  TRACK 11 AUDIO
    TITLE "Okay okay"
    PERFORMER "Achim Reichel"
    INDEX 00 02:50:09
FILE "11 Okay okay.wav" WAVE
    INDEX 01 00:00:00
  TRACK 12 AUDIO
    TITLE "Auf einem Felsen"
    PERFORMER "Achim Reichel"
    INDEX 00 04:57:42
FILE "12 Auf einem Felsen.wav" WAVE
    INDEX 01 00:00:00
Код:
[CUETools log; Date: 15.05.2014 16:12:10; Version: 2.1.5]
[CTDB TOCID: M_M4IbXFaKGR6Y.MqnSXNEihhNM-] found.
Track | CTDB Status
  1   | (3/3) Accurately ripped
  2   | (3/3) Accurately ripped
  3   | (3/3) Accurately ripped
  4   | (3/3) Accurately ripped
  5   | (3/3) Accurately ripped
  6   | (2/3) Accurately ripped
  7   | (2/3) Accurately ripped
  8   | (2/3) Accurately ripped
  9   | (2/3) Accurately ripped
 10   | (3/3) Accurately ripped
 11   | (2/3) Accurately ripped
 12   | (2/3) Accurately ripped
[AccurateRip ID: 0019ce62-00ee68d2-a40d330c] found.
Track   [  CRC   |   V2   ] Status
 01     [854bbf49|690809f8] (07+03/10) Accurately ripped
 02     [e801a517|cf939bce] (07+03/10) Accurately ripped
 03     [92ace935|28d8dcf6] (07+03/10) Accurately ripped
 04     [ba392ba6|af3e91fa] (07+03/10) Accurately ripped
 05     [c28eda65|2d04a9b1] (07+03/10) Accurately ripped
 06     [8f1971c0|9ca26e38] (07+03/10) Accurately ripped
 07     [526a995c|c1617f1d] (07+03/10) Accurately ripped
 08     [07547b3e|446c1515] (07+03/10) Accurately ripped
 09     [2706f9cf|85f9836b] (06+03/09) Accurately ripped
 10     [cb5038dc|44a9e20e] (07+03/10) Accurately ripped
 11     [b5873ea1|9b30b930] (07+03/10) Accurately ripped
 12     [4643b899|160b2da9] (07+03/10) Accurately ripped
Track Peak [ CRC32  ] [W/O NULL] [  LOG   ]
 --  100,0 [FF2C39B4] [2A3757AF]
 01   98,0 [0F268370] [A5CA3626]   CRC32
 02  100,0 [832F79FA] [10A12678]   CRC32
 03   98,0 [EE28B4B7] [9E2B1828]   CRC32
 04   97,4 [3EC8B101] [E19EB644]   CRC32
 05   98,0 [76A3BDA3] [2E018975]   CRC32
 06   98,0 [7E817040] [79B22C89]   CRC32
 07   95,4 [30FFB334] [315985FD]   CRC32
 08   98,0 [95845A2B] [4D186448]   CRC32
 09   98,0 [6AE034B5] [972B2107]   CRC32
 10   96,4 [8E5A18E7] [B7FDCDD4]   CRC32
 11   98,0 [019E39D4] [19C228A0]   CRC32
 12   90,1 [09BBB448] [802E8B06]   CRC32
#777Треклист:
Achim Reichel - "Wahre Liebe" (1993)
Tracks: 12
Total time: 54:24
Year: 1993
Disc-ID: rock / 8c0cc40c
1. April - April 4:20
2. Im nächsten Leben 4:22
3. Cabrio Joe 3:59
4. Wahre Liebe 5:56
5. Amazonen 5:10
6. Liebe ist 'ne seltsame Droge 4:04
7. Chic-O-Mat 4:06
8. Dann kamst du 5:39
9. Der Familienausflug 2:42
10. Kuddel's Revolution 5:57
11. Black Out 3:09
12. Der Traum 5:00
Код:
Exact Audio Copy V1.0 beta 3 from 29. August 2011
EAC extraction logfile from 14. May 2014, 15:01
Achim Reichel / Wahre Liebe
Used drive  : PLEXTOR CD-R   PX-W4012A   Adapter: 2  ID: 0
Read mode               : Secure
Utilize accurate stream : Yes
Defeat audio cache      : Yes
Make use of C2 pointers : No
Read offset correction                      : 98
Overread into Lead-In and Lead-Out          : No
Fill up missing offset samples with silence : Yes
Delete leading and trailing silent blocks   : No
Null samples used in CRC calculations       : Yes
Used interface                              : Native Win32 interface for Win NT & 2000
Gap handling                                : Appended to previous track
Used output format              : User Defined Encoder
Selected bitrate                : 1024 kBit/s
Quality                         : High
Add ID3 tag                     : No
Command line compressor         : C:\Program Files (x86)\Exact Audio Copy\Flac\flac.exe
Additional command line options : -V -8 -T "Genre=%genre%" -T "Artist=%artist%" -T "Title=%title%" -T "Album=%albumtitle%" -T "Date=%year%" -T "Tracknumber=%tracknr%" -T "Comment=%comment%" %source%
TOC of the extracted CD
     Track |   Start  |  Length  | Start sector | End sector
    ---------------------------------------------------------
        1  |  0:00.00 |  4:20.25 |         0    |    19524
        2  |  4:20.25 |  4:22.37 |     19525    |    39211
        3  |  8:42.62 |  3:59.00 |     39212    |    57136
        4  | 12:41.62 |  5:56.25 |     57137    |    83861
        5  | 18:38.12 |  5:10.50 |     83862    |   107161
        6  | 23:48.62 |  4:04.38 |    107162    |   125499
        7  | 27:53.25 |  4:06.12 |    125500    |   143961
        8  | 31:59.37 |  5:39.50 |    143962    |   169436
        9  | 37:39.12 |  2:42.50 |    169437    |   181636
       10  | 40:21.62 |  5:57.00 |    181637    |   208411
       11  | 46:18.62 |  3:09.38 |    208412    |   222624
       12  | 49:28.25 |  4:59.50 |    222625    |   245099
Track  1
     Filename C:\H\Achim Reichel\Achim Reichel - Wahre Liebe [FLAC] {1993}\01 April - April.wav
     Pre-gap length  0:00:02.00
     Peak level 100.0 %
     Extraction speed 7.3 X
     Track quality 100.0 %
     Test CRC CDECBCCA
     Copy CRC CDECBCCA
     Accurately ripped (confidence 15)  [EC881ED4]  (AR v2)
     Copy OK
Track  2
     Filename C:\H\Achim Reichel\Achim Reichel - Wahre Liebe [FLAC] {1993}\02 Im naechsten Leben.wav
     Pre-gap length  0:00:01.50
     Peak level 100.0 %
     Extraction speed 8.1 X
     Track quality 100.0 %
     Test CRC BCC7AEA2
     Copy CRC BCC7AEA2
     Accurately ripped (confidence 15)  [736E184A]  (AR v2)
     Copy OK
Track  3
     Filename C:\H\Achim Reichel\Achim Reichel - Wahre Liebe [FLAC] {1993}\03 Cabrio Joe.wav
     Pre-gap length  0:00:00.25
     Peak level 98.8 %
     Extraction speed 8.6 X
     Track quality 100.0 %
     Test CRC 6463BCF5
     Copy CRC 6463BCF5
     Accurately ripped (confidence 15)  [28F3BB5C]  (AR v2)
     Copy OK
Track  4
     Filename C:\H\Achim Reichel\Achim Reichel - Wahre Liebe [FLAC] {1993}\04 Wahre Liebe.wav
     Pre-gap length  0:00:01.12
     Peak level 99.4 %
     Extraction speed 9.4 X
     Track quality 100.0 %
     Test CRC 1289700C
     Copy CRC 1289700C
     Accurately ripped (confidence 15)  [228C9DB5]  (AR v2)
     Copy OK
Track  5
     Filename C:\H\Achim Reichel\Achim Reichel - Wahre Liebe [FLAC] {1993}\05 Amazonen.wav
     Pre-gap length  0:00:01.62
     Peak level 99.9 %
     Extraction speed 10.1 X
     Track quality 100.0 %
     Test CRC E7F0F1DE
     Copy CRC E7F0F1DE
     Accurately ripped (confidence 15)  [15D7333D]  (AR v2)
     Copy OK
Track  6
     Filename C:\H\Achim Reichel\Achim Reichel - Wahre Liebe [FLAC] {1993}\06 Liebe ist 'ne seltsame Droge.wav
     Pre-gap length  0:00:02.12
     Peak level 97.3 %
     Extraction speed 10.5 X
     Track quality 100.0 %
     Test CRC AC4E4333
     Copy CRC AC4E4333
     Accurately ripped (confidence 15)  [2B97E760]  (AR v2)
     Copy OK
Track  7
     Filename C:\H\Achim Reichel\Achim Reichel - Wahre Liebe [FLAC] {1993}\07 Chic-O-Mat.wav
     Pre-gap length  0:00:02.25
     Peak level 89.6 %
     Extraction speed 11.0 X
     Track quality 100.0 %
     Test CRC 08C7C11B
     Copy CRC 08C7C11B
     Accurately ripped (confidence 15)  [20E910B4]  (AR v2)
     Copy OK
Track  8
     Filename C:\H\Achim Reichel\Achim Reichel - Wahre Liebe [FLAC] {1993}\08 Dann kamst du.wav
     Pre-gap length  0:00:02.12
     Peak level 100.0 %
     Extraction speed 11.6 X
     Track quality 100.0 %
     Test CRC E43A87B3
     Copy CRC E43A87B3
     Accurately ripped (confidence 15)  [A342FBE9]  (AR v2)
     Copy OK
Track  9
     Filename C:\H\Achim Reichel\Achim Reichel - Wahre Liebe [FLAC] {1993}\09 Der Familienausflug.wav
     Pre-gap length  0:00:01.25
     Peak level 95.0 %
     Extraction speed 9.6 X
     Track quality 99.9 %
     Test CRC DE287B23
     Copy CRC DE287B23
     Accurately ripped (confidence 15)  [16F7AFDA]  (AR v2)
     Copy OK
Track 10
     Filename C:\H\Achim Reichel\Achim Reichel - Wahre Liebe [FLAC] {1993}\10 Kuddel's Revolution.wav
     Pre-gap length  0:00:00.62
     Peak level 100.0 %
     Extraction speed 12.5 X
     Track quality 100.0 %
     Test CRC 8E46F28A
     Copy CRC 8E46F28A
     Accurately ripped (confidence 15)  [5B730F5E]  (AR v2)
     Copy OK
Track 11
     Filename C:\H\Achim Reichel\Achim Reichel - Wahre Liebe [FLAC] {1993}\11 Black Out.wav
     Pre-gap length  0:00:00.62
     Peak level 100.0 %
     Extraction speed 12.6 X
     Track quality 100.0 %
     Test CRC C12C02C1
     Copy CRC C12C02C1
     Accurately ripped (confidence 15)  [F21D7668]  (AR v2)
     Copy OK
Track 12
     Filename C:\H\Achim Reichel\Achim Reichel - Wahre Liebe [FLAC] {1993}\12 Der Traum.wav
     Pre-gap length  0:00:03.38
     Peak level 99.7 %
     Extraction speed 11.8 X
     Track quality 100.0 %
     Test CRC F94946E8
     Copy CRC F94946E8
     Accurately ripped (confidence 15)  [A4FF2E9E]  (AR v2)
     Copy OK
All tracks accurately ripped
No errors occurred
End of status report
==== Log checksum 5B2B68B4097EC9032B5356A040A1C4770D569322BDA9CACDF0D180EE1019AE44 ====
Код:
REM GENRE Rock
REM DATE 1993
REM DISCID 8C0CC40C
REM COMMENT "ExactAudioCopy v1.0b3"
PERFORMER "Achim Reichel"
TITLE "Wahre Liebe"
FILE "01 April - April.wav" WAVE
  TRACK 01 AUDIO
    TITLE "April - April"
    PERFORMER "Achim Reichel"
    INDEX 01 00:00:00
  TRACK 02 AUDIO
    TITLE "Im naechsten Leben"
    PERFORMER "Achim Reichel"
    INDEX 00 04:18:50
FILE "02 Im naechsten Leben.wav" WAVE
    INDEX 01 00:00:00
  TRACK 03 AUDIO
    TITLE "Cabrio Joe"
    PERFORMER "Achim Reichel"
    INDEX 00 04:22:12
FILE "03 Cabrio Joe.wav" WAVE
    INDEX 01 00:00:00
  TRACK 04 AUDIO
    TITLE "Wahre Liebe"
    PERFORMER "Achim Reichel"
    INDEX 00 03:57:63
FILE "04 Wahre Liebe.wav" WAVE
    INDEX 01 00:00:00
  TRACK 05 AUDIO
    TITLE "Amazonen"
    PERFORMER "Achim Reichel"
    INDEX 00 05:54:38
FILE "05 Amazonen.wav" WAVE
    INDEX 01 00:00:00
  TRACK 06 AUDIO
    TITLE "Liebe ist 'ne seltsame Droge"
    PERFORMER "Achim Reichel"
    INDEX 00 05:08:38
FILE "06 Liebe ist 'ne seltsame Droge.wav" WAVE
    INDEX 01 00:00:00
  TRACK 07 AUDIO
    TITLE "Chic-O-Mat"
    PERFORMER "Achim Reichel"
    INDEX 00 04:02:13
FILE "07 Chic-O-Mat.wav" WAVE
    INDEX 01 00:00:00
  TRACK 08 AUDIO
    TITLE "Dann kamst du"
    PERFORMER "Achim Reichel"
    INDEX 00 04:04:00
FILE "08 Dann kamst du.wav" WAVE
    INDEX 01 00:00:00
  TRACK 09 AUDIO
    TITLE "Der Familienausflug"
    PERFORMER "Achim Reichel"
    INDEX 00 05:38:25
FILE "09 Der Familienausflug.wav" WAVE
    INDEX 01 00:00:00
  TRACK 10 AUDIO
    TITLE "Kuddel's Revolution"
    PERFORMER "Achim Reichel"
    INDEX 00 02:41:63
FILE "10 Kuddel's Revolution.wav" WAVE
    INDEX 01 00:00:00
  TRACK 11 AUDIO
    TITLE "Black Out"
    PERFORMER "Achim Reichel"
    INDEX 00 05:56:13
FILE "11 Black Out.wav" WAVE
    INDEX 01 00:00:00
  TRACK 12 AUDIO
    TITLE "Der Traum"
    PERFORMER "Achim Reichel"
    INDEX 00 03:06:00
FILE "12 Der Traum.wav" WAVE
    INDEX 01 00:00:00
Код:
[CUETools log; Date: 14.05.2014 15:02:15; Version: 2.1.5]
[CTDB TOCID: CfE_BX5nAJ_oxDdb2bWZYgaUI4s-] found.
Track | CTDB Status
  1   | (8/9) Accurately ripped
  2   | (8/9) Accurately ripped
  3   | (8/9) Accurately ripped
  4   | (9/9) Accurately ripped
  5   | (9/9) Accurately ripped
  6   | (8/9) Accurately ripped
  7   | (8/9) Accurately ripped
  8   | (8/9) Accurately ripped
  9   | (8/9) Accurately ripped
 10   | (8/9) Accurately ripped
 11   | (8/9) Accurately ripped
 12   | (9/9) Accurately ripped
[AccurateRip ID: 001877f3-00e46a04-8c0cc40c] found.
Track   [  CRC   |   V2   ] Status
 01     [3898fd0c|ec881ed4] (15+15/30) Accurately ripped
 02     [27215a87|736e184a] (15+15/30) Accurately ripped
 03     [d01e458d|28f3bb5c] (16+15/31) Accurately ripped
 04     [719bb931|228c9db5] (16+15/31) Accurately ripped
 05     [8a15614f|15d7333d] (16+15/31) Accurately ripped
 06     [417ef531|2b97e760] (16+15/31) Accurately ripped
 07     [d83e2a07|20e910b4] (16+15/31) Accurately ripped
 08     [20a45e1c|a342fbe9] (16+15/31) Accurately ripped
 09     [8eed0e10|16f7afda] (16+15/31) Accurately ripped
 10     [4febd3e2|5b730f5e] (16+15/31) Accurately ripped
 11     [3378f2a4|f21d7668] (16+15/31) Accurately ripped
 12     [630efbb6|a4ff2e9e] (16+15/31) Accurately ripped
Track Peak [ CRC32  ] [W/O NULL] [  LOG   ]
 --  100,0 [D375A4D5] [E202293C]
 01  100,0 [CDECBCCA] [799B93FF]   CRC32
 02  100,0 [BCC7AEA2] [A813706E]   CRC32
 03   98,8 [6463BCF5] [A1103A6D]   CRC32
 04   99,4 [1289700C] [7D5B9D16]   CRC32
 05   99,9 [E7F0F1DE] [1A0D0A1F]   CRC32
 06   97,3 [AC4E4333] [80604A99]   CRC32
 07   89,6 [08C7C11B] [0BE39DF2]   CRC32
 08  100,0 [E43A87B3] [6D11EF51]   CRC32
 09   95,0 [DE287B23] [4ECAF324]   CRC32
 10  100,0 [8E46F28A] [BA51939F]   CRC32
 11  100,0 [C12C02C1] [352C82FB]   CRC32
 12   99,7 [F94946E8] [1D797C74]   CRC32
#777Треклист:
Achim Reichel - "Melancholie und Sturmflut (Digital Remastered)" (2009)
Tracks: 12
Total time: 51:21
Year: 1991
Disc-ID: aa0c090c
1. Made in Paradise 4:10
2. Auf der Rolltreppe 5:00
3. Kuddel Daddel Du 4:48
4. Die Zauberin 4:31
5. Aloha Heja He 4:03
6. Sturmflut 3:44
7. Robert der Roboter 3:51
8. Melancholie 3:46
9. Karawane ins Glück 3:34
10. Das Lied von Susi und Johnny 5:20
11. Mein Herz ist ein UFO 3:51
Bonus Track:
12 Auf der Rolltreppe (Live '92) 4:45
am 20.10.91, live aus der Großen Freiheit in Hamburg für „Rockpalast"
Код:
Exact Audio Copy V1.0 beta 3 from 29. August 2011
EAC extraction logfile from 17. May 2014, 13:16
Achim Reichel / Melancholie und Sturmflut
Used drive  : PLEXTOR CD-R   PX-W4012A   Adapter: 2  ID: 0
Read mode               : Secure
Utilize accurate stream : Yes
Defeat audio cache      : Yes
Make use of C2 pointers : No
Read offset correction                      : 98
Overread into Lead-In and Lead-Out          : No
Fill up missing offset samples with silence : Yes
Delete leading and trailing silent blocks   : No
Null samples used in CRC calculations       : Yes
Used interface                              : Native Win32 interface for Win NT & 2000
Gap handling                                : Appended to previous track
Used output format              : User Defined Encoder
Selected bitrate                : 1024 kBit/s
Quality                         : High
Add ID3 tag                     : No
Command line compressor         : C:\Program Files (x86)\Exact Audio Copy\Flac\flac.exe
Additional command line options : -V -8 -T "Genre=%genre%" -T "Artist=%artist%" -T "Title=%title%" -T "Album=%albumtitle%" -T "Date=%year%" -T "Tracknumber=%tracknr%" -T "Comment=%comment%" %source%
TOC of the extracted CD
     Track |   Start  |  Length  | Start sector | End sector
    ---------------------------------------------------------
        1  |  0:00.00 |  4:10.26 |         0    |    18775
        2  |  4:10.26 |  4:59.55 |     18776    |    41255
        3  |  9:10.06 |  4:47.66 |     41256    |    62846
        4  | 13:57.72 |  4:30.48 |     62847    |    83144
        5  | 18:28.45 |  4:03.11 |     83145    |   101380
        6  | 22:31.56 |  3:44.30 |    101381    |   118210
        7  | 26:16.11 |  3:50.51 |    118211    |   135511
        8  | 30:06.62 |  3:46.31 |    135512    |   152492
        9  | 33:53.18 |  3:33.46 |    152493    |   168513
       10  | 37:26.64 |  5:19.42 |    168514    |   192480
       11  | 42:46.31 |  3:50.68 |    192481    |   209798
       12  | 46:37.24 |  4:44.50 |    209799    |   231148
Track  1
     Filename C:\H\Achim Reichel\Albums\Achim Reichel - Melancholie und Sturmflut [FLAC] {(1991) 2009}\01 Made in Paradise.wav
     Pre-gap length  0:00:02.00
     Peak level 98.8 %
     Extraction speed 6.6 X
     Track quality 99.9 %
     Test CRC D3AA2B38
     Copy CRC D3AA2B38
     Accurately ripped (confidence 2)  [3C9D9A28]  (AR v2)
     Copy OK
Track  2
     Filename C:\H\Achim Reichel\Albums\Achim Reichel - Melancholie und Sturmflut [FLAC] {(1991) 2009}\02 Auf der Rolltreppe.wav
     Pre-gap length  0:00:02.00
     Peak level 98.8 %
     Extraction speed 8.1 X
     Track quality 100.0 %
     Test CRC 226CC05C
     Copy CRC 226CC05C
     Accurately ripped (confidence 2)  [5C118849]  (AR v2)
     Copy OK
Track  3
     Filename C:\H\Achim Reichel\Albums\Achim Reichel - Melancholie und Sturmflut [FLAC] {(1991) 2009}\03 Kuddel Daddel Du.wav
     Pre-gap length  0:00:02.00
     Peak level 98.8 %
     Extraction speed 8.8 X
     Track quality 100.0 %
     Test CRC C09ACD92
     Copy CRC C09ACD92
     Accurately ripped (confidence 2)  [83AE29A8]  (AR v2)
     Copy OK
Track  4
     Filename C:\H\Achim Reichel\Albums\Achim Reichel - Melancholie und Sturmflut [FLAC] {(1991) 2009}\04 Die Zauberin.wav
     Pre-gap length  0:00:02.00
     Peak level 98.8 %
     Extraction speed 9.4 X
     Track quality 100.0 %
     Test CRC AB721F8E
     Copy CRC AB721F8E
     Accurately ripped (confidence 2)  [D3CB3315]  (AR v2)
     Copy OK
Track  5
     Filename C:\H\Achim Reichel\Albums\Achim Reichel - Melancholie und Sturmflut [FLAC] {(1991) 2009}\05 Aloha Heja He.wav
     Pre-gap length  0:00:02.00
     Peak level 98.8 %
     Extraction speed 9.9 X
     Track quality 100.0 %
     Test CRC CD1795FD
     Copy CRC CD1795FD
     Accurately ripped (confidence 2)  [B97F5B16]  (AR v2)
     Copy OK
Track  6
     Filename C:\H\Achim Reichel\Albums\Achim Reichel - Melancholie und Sturmflut [FLAC] {(1991) 2009}\06 Sturmflut.wav
     Pre-gap length  0:00:02.00
     Peak level 98.8 %
     Extraction speed 9.0 X
     Track quality 99.9 %
     Test CRC 298120BA
     Copy CRC 298120BA
     Accurately ripped (confidence 2)  [99C9FA6B]  (AR v2)
     Copy OK
Track  7
     Filename C:\H\Achim Reichel\Albums\Achim Reichel - Melancholie und Sturmflut [FLAC] {(1991) 2009}\07 Robert der Roboter.wav
     Pre-gap length  0:00:02.00
     Peak level 98.8 %
     Extraction speed 10.7 X
     Track quality 100.0 %
     Test CRC BF10C4DB
     Copy CRC BF10C4DB
     Accurately ripped (confidence 2)  [6CE1184C]  (AR v2)
     Copy OK
Track  8
     Filename C:\H\Achim Reichel\Albums\Achim Reichel - Melancholie und Sturmflut [FLAC] {(1991) 2009}\08 Melancholie.wav
     Pre-gap length  0:00:02.00
     Peak level 98.8 %
     Extraction speed 9.6 X
     Track quality 99.9 %
     Test CRC D84B2014
     Copy CRC D84B2014
     Accurately ripped (confidence 2)  [413DB816]  (AR v2)
     Copy OK
Track  9
     Filename C:\H\Achim Reichel\Albums\Achim Reichel - Melancholie und Sturmflut [FLAC] {(1991) 2009}\09 Karawane ins Glück.wav
     Pre-gap length  0:00:02.00
     Peak level 98.8 %
     Extraction speed 11.5 X
     Track quality 100.0 %
     Test CRC 2F45C9DE
     Copy CRC 2F45C9DE
     Accurately ripped (confidence 2)  [84B0333C]  (AR v2)
     Copy OK
Track 10
     Filename C:\H\Achim Reichel\Albums\Achim Reichel - Melancholie und Sturmflut [FLAC] {(1991) 2009}\10 Das Lied von Susi und Johnny.wav
     Pre-gap length  0:00:02.00
     Peak level 98.8 %
     Extraction speed 12.1 X
     Track quality 100.0 %
     Test CRC 50CA924E
     Copy CRC 50CA924E
     Accurately ripped (confidence 2)  [A91DE2C8]  (AR v2)
     Copy OK
Track 11
     Filename C:\H\Achim Reichel\Albums\Achim Reichel - Melancholie und Sturmflut [FLAC] {(1991) 2009}\11 Mein Herz ist ein UFO.wav
     Pre-gap length  0:00:02.00
     Peak level 98.8 %
     Extraction speed 12.4 X
     Track quality 100.0 %
     Test CRC DC0A4713
     Copy CRC DC0A4713
     Accurately ripped (confidence 2)  [BBD7FCD6]  (AR v2)
     Copy OK
Track 12
     Filename C:\H\Achim Reichel\Albums\Achim Reichel - Melancholie und Sturmflut [FLAC] {(1991) 2009}\12 Auf der Rolltreppe (Live '92).wav
     Pre-gap length  0:00:02.00
     Peak level 98.8 %
     Extraction speed 11.4 X
     Track quality 100.0 %
     Test CRC D4C35680
     Copy CRC D4C35680
     Accurately ripped (confidence 2)  [58FF5E23]  (AR v2)
     Copy OK
All tracks accurately ripped
No errors occurred
End of status report
==== Log checksum B6B7A4BFAB31F5C17CAF494D8339398FD821027F39A8078DA3DD51B2C1EC69AE ====
Код:
REM GENRE Pop-rock
REM DATE 2009
REM DISCID AA0C090C
REM COMMENT "ExactAudioCopy v1.0b3"
PERFORMER "Achim Reichel"
TITLE "Melancholie und Sturmflut"
FILE "01 Made in Paradise.wav" WAVE
  TRACK 01 AUDIO
    TITLE "Made in Paradise"
    PERFORMER "Achim Reichel"
    FLAGS DCP
    INDEX 01 00:00:00
  TRACK 02 AUDIO
    TITLE "Auf der Rolltreppe"
    PERFORMER "Achim Reichel"
    FLAGS DCP
    INDEX 00 04:08:26
FILE "02 Auf der Rolltreppe.wav" WAVE
    INDEX 01 00:00:00
  TRACK 03 AUDIO
    TITLE "Kuddel Daddel Du"
    PERFORMER "Achim Reichel"
    FLAGS DCP
    INDEX 00 04:57:55
FILE "03 Kuddel Daddel Du.wav" WAVE
    INDEX 01 00:00:00
  TRACK 04 AUDIO
    TITLE "Die Zauberin"
    PERFORMER "Achim Reichel"
    FLAGS DCP
    INDEX 00 04:45:66
FILE "04 Die Zauberin.wav" WAVE
    INDEX 01 00:00:00
  TRACK 05 AUDIO
    TITLE "Aloha Heja He"
    PERFORMER "Achim Reichel"
    FLAGS DCP
    INDEX 00 04:28:48
FILE "05 Aloha Heja He.wav" WAVE
    INDEX 01 00:00:00
  TRACK 06 AUDIO
    TITLE "Sturmflut"
    PERFORMER "Achim Reichel"
    FLAGS DCP
    INDEX 00 04:01:11
FILE "06 Sturmflut.wav" WAVE
    INDEX 01 00:00:00
  TRACK 07 AUDIO
    TITLE "Robert der Roboter"
    PERFORMER "Achim Reichel"
    FLAGS DCP
    INDEX 00 03:42:30
FILE "07 Robert der Roboter.wav" WAVE
    INDEX 01 00:00:00
  TRACK 08 AUDIO
    TITLE "Melancholie"
    PERFORMER "Achim Reichel"
    FLAGS DCP
    INDEX 00 03:48:51
FILE "08 Melancholie.wav" WAVE
    INDEX 01 00:00:00
  TRACK 09 AUDIO
    TITLE "Karawane ins Glück"
    PERFORMER "Achim Reichel"
    FLAGS DCP
    INDEX 00 03:44:31
FILE "09 Karawane ins Glück.wav" WAVE
    INDEX 01 00:00:00
  TRACK 10 AUDIO
    TITLE "Das Lied von Susi und Johnny"
    PERFORMER "Achim Reichel"
    FLAGS DCP
    INDEX 00 03:31:46
FILE "10 Das Lied von Susi und Johnny.wav" WAVE
    INDEX 01 00:00:00
  TRACK 11 AUDIO
    TITLE "Mein Herz ist ein UFO"
    PERFORMER "Achim Reichel"
    FLAGS DCP
    INDEX 00 05:17:42
FILE "11 Mein Herz ist ein UFO.wav" WAVE
    INDEX 01 00:00:00
  TRACK 12 AUDIO
    TITLE "Auf der Rolltreppe (Live '92)"
    PERFORMER "Achim Reichel"
    FLAGS DCP
    INDEX 00 03:48:68
FILE "12 Auf der Rolltreppe (Live '92).wav" WAVE
    INDEX 01 00:00:00
Код:
[CUETools log; Date: 17.05.2014 13:17:52; Version: 2.1.5]
[CTDB TOCID: 9LDbd0NJ3kSYiqg2K8vhtTaCcvo-] found.
Track | CTDB Status
  1   | (1/1) Accurately ripped
  2   | (1/1) Accurately ripped
  3   | (1/1) Accurately ripped
  4   | (1/1) Accurately ripped
  5   | (1/1) Accurately ripped
  6   | (1/1) Accurately ripped
  7   | (1/1) Accurately ripped
  8   | (1/1) Accurately ripped
  9   | (1/1) Accurately ripped
 10   | (1/1) Accurately ripped
 11   | (1/1) Accurately ripped
 12   | (1/1) Accurately ripped
[AccurateRip ID: 0017202c-00d651f6-aa0c090c] found.
Track   [  CRC   |   V2   ] Status
 01     [024141b7|3c9d9a28] (0+2/2) Accurately ripped
 02     [015bdda4|5c118849] (0+2/2) Accurately ripped
 03     [1651e44c|83ae29a8] (0+2/2) Accurately ripped
 04     [d58a4fc5|d3cb3315] (0+2/2) Accurately ripped
 05     [07aa2259|b97f5b16] (0+2/2) Accurately ripped
 06     [52be501d|99c9fa6b] (0+2/2) Accurately ripped
 07     [f919c542|6ce1184c] (0+2/2) Accurately ripped
 08     [3e08c640|413db816] (0+2/2) Accurately ripped
 09     [e4e1ac52|84b0333c] (0+2/2) Accurately ripped
 10     [8a706044|a91de2c8] (0+2/2) Accurately ripped
 11     [bd0c2cf0|bbd7fcd6] (0+2/2) Accurately ripped
 12     [a0e95282|58ff5e23] (0+2/2) Accurately ripped
Track Peak [ CRC32  ] [W/O NULL] [  LOG   ]
 --   98,8 [B6AC9817] [4D6389C4]
 01   98,8 [D3AA2B38] [710D1E39]   CRC32
 02   98,8 [226CC05C] [B8B5B7E8]   CRC32
 03   98,8 [C09ACD92] [7D271ED8]   CRC32
 04   98,8 [AB721F8E] [DA47EA32]   CRC32
 05   98,8 [CD1795FD] [A3272D86]   CRC32
 06   98,8 [298120BA] [97A9011C]   CRC32
 07   98,8 [BF10C4DB] [42868C38]   CRC32
 08   98,8 [D84B2014] [A0E02308]   CRC32
 09   98,8 [2F45C9DE] [328C18B4]   CRC32
 10   98,8 [50CA924E] [9E452AE7]   CRC32
 11   98,8 [DC0A4713] [703F0CA9]   CRC32
 12   98,8 [D4C35680] [F260863D]   CRC32
#777Треклист:
Achim Reichel - "Nachtexpress" (1994)
Tracks: 9
Total time: 42:05
Year: 1994
Disc-ID: rock / 6c09e009
1. Boxer Kutte 4:59
2. Rattentango 4:06
3. Der Minister 4:47
4. Viertelstunde Superstar 5:41
5. Jesus 2:24
6. Rose und Hyäne 3:48
7. Seidenrosenduft 4:26
8. Hotel L'Orient 5:11
9. Nachtexpress 6:43
Код:
Exact Audio Copy V1.0 beta 3 from 29. August 2011
EAC extraction logfile from 28. July 2014, 20:55
Achim Reichel / Nachtexpress
Used drive  : PLEXTOR DVD-ROM PX-130A   Adapter: 2  ID: 0
Read mode               : Secure
Utilize accurate stream : Yes
Defeat audio cache      : Yes
Make use of C2 pointers : No
Read offset correction                      : 738
Overread into Lead-In and Lead-Out          : No
Fill up missing offset samples with silence : Yes
Delete leading and trailing silent blocks   : No
Null samples used in CRC calculations       : Yes
Used interface                              : Native Win32 interface for Win NT & 2000
Gap handling                                : Appended to previous track
Used output format              : User Defined Encoder
Selected bitrate                : 1024 kBit/s
Quality                         : High
Add ID3 tag                     : No
Command line compressor         : C:\Program Files (x86)\Exact Audio Copy\Flac\flac.exe
Additional command line options : -V -8 -T "Genre=%genre%" -T "Artist=%artist%" -T "Title=%title%" -T "Album=%albumtitle%" -T "Date=%year%" -T "Tracknumber=%tracknr%" -T "Comment=%comment%" %source%
TOC of the extracted CD
     Track |   Start  |  Length  | Start sector | End sector
    ---------------------------------------------------------
        1  |  0:00.00 |  4:59.50 |         0    |    22474
        2  |  4:59.50 |  4:06.30 |     22475    |    40954
        3  |  9:06.05 |  4:47.20 |     40955    |    62499
        4  | 13:53.25 |  5:41.23 |     62500    |    88097
        5  | 19:34.48 |  2:24.42 |     88098    |    98939
        6  | 21:59.15 |  3:48.28 |     98940    |   116067
        7  | 25:47.43 |  4:26.35 |    116068    |   136052
        8  | 30:14.03 |  5:11.67 |    136053    |   159444
        9  | 35:25.70 |  6:42.35 |    159445    |   189629
Track  1
     Filename C:\H\Achim Reichel\Achim Reichel - Nachtexpress [FLAC] {(1994) 1983}\01 Boxer Kutte.wav
     Pre-gap length  0:00:02.00
     Peak level 100.0 %
     Extraction speed 1.6 X
     Track quality 100.0 %
     Test CRC 9C97267C
     Copy CRC 9C97267C
     Accurately ripped (confidence 4)  [D03AEADB]  (AR v2)
     Copy OK
Track  2
     Filename C:\H\Achim Reichel\Achim Reichel - Nachtexpress [FLAC] {(1994) 1983}\02 Rattentango.wav
     Pre-gap length  0:00:02.35
     Peak level 80.3 %
     Extraction speed 1.8 X
     Track quality 100.0 %
     Test CRC 95059C1F
     Copy CRC 95059C1F
     Accurately ripped (confidence 4)  [E5A6589C]  (AR v2)
     Copy OK
Track  3
     Filename C:\H\Achim Reichel\Achim Reichel - Nachtexpress [FLAC] {(1994) 1983}\03 Der Minister.wav
     Pre-gap length  0:00:01.67
     Peak level 80.0 %
     Extraction speed 2.0 X
     Track quality 100.0 %
     Test CRC FD302CF8
     Copy CRC FD302CF8
     Accurately ripped (confidence 3)  [6712A4D6]  (AR v2)
     Copy OK
Track  4
     Filename C:\H\Achim Reichel\Achim Reichel - Nachtexpress [FLAC] {(1994) 1983}\04 Viertelstunde Superstar.wav
     Pre-gap length  0:00:00.05
     Peak level 85.1 %
     Extraction speed 2.0 X
     Track quality 99.9 %
     Test CRC 0156616A
     Copy CRC 0156616A
     Accurately ripped (confidence 4)  [4FBE02A1]  (AR v2)
     Copy OK
Track  5
     Filename C:\H\Achim Reichel\Achim Reichel - Nachtexpress [FLAC] {(1994) 1983}\05 Jesus.wav
     Pre-gap length  0:00:01.73
     Peak level 80.0 %
     Extraction speed 2.0 X
     Track quality 100.0 %
     Test CRC 99EE19D8
     Copy CRC 99EE19D8
     Accurately ripped (confidence 4)  [32D21E4C]  (AR v2)
     Copy OK
Track  6
     Filename C:\H\Achim Reichel\Achim Reichel - Nachtexpress [FLAC] {(1994) 1983}\06 Rose und Hyaene.wav
     Pre-gap length  0:00:01.42
     Peak level 87.8 %
     Extraction speed 2.0 X
     Track quality 99.9 %
     Test CRC 3BB96A14
     Copy CRC 3BB96A14
     Accurately ripped (confidence 4)  [A8C35B59]  (AR v2)
     Copy OK
Track  7
     Filename C:\H\Achim Reichel\Achim Reichel - Nachtexpress [FLAC] {(1994) 1983}\07 Seidenrosenduft.wav
     Pre-gap length  0:00:01.15
     Peak level 56.3 %
     Extraction speed 2.4 X
     Track quality 100.0 %
     Test CRC 7EAAE677
     Copy CRC 7EAAE677
     Accurately ripped (confidence 4)  [C3F2465B]  (AR v2)
     Copy OK
Track  8
     Filename C:\H\Achim Reichel\Achim Reichel - Nachtexpress [FLAC] {(1994) 1983}\08 Hotel L'Orient.wav
     Peak level 64.3 %
     Extraction speed 2.6 X
     Track quality 100.0 %
     Test CRC BE4C5088
     Copy CRC BE4C5088
     Accurately ripped (confidence 4)  [4BE7C3E8]  (AR v2)
     Copy OK
Track  9
     Filename C:\H\Achim Reichel\Achim Reichel - Nachtexpress [FLAC] {(1994) 1983}\09 Nachtexpress.wav
     Pre-gap length  0:00:01.72
     Peak level 82.8 %
     Extraction speed 2.8 X
     Track quality 100.0 %
     Test CRC 5E7B687C
     Copy CRC 5E7B687C
     Accurately ripped (confidence 3)  [11CFCE20]  (AR v2)
     Copy OK
All tracks accurately ripped
No errors occurred
End of status report
==== Log checksum 9EF2B07E333425E773C808B29FB01E124F8CB3B983AC80E7EE8040DD86C4A815 ====
Код:
REM GENRE Deutschrock
REM DATE 1994
REM DISCID 6C09E009
REM COMMENT "ExactAudioCopy v1.0b3"
PERFORMER "Achim Reichel"
TITLE "Nachtexpress"
FILE "01 Boxer Kutte.wav" WAVE
  TRACK 01 AUDIO
    TITLE "Boxer Kutte"
    PERFORMER "Achim Reichel"
    INDEX 01 00:00:00
  TRACK 02 AUDIO
    TITLE "Rattentango"
    PERFORMER "Achim Reichel"
    INDEX 00 04:57:15
FILE "02 Rattentango.wav" WAVE
    INDEX 01 00:00:00
  TRACK 03 AUDIO
    TITLE "Der Minister"
    PERFORMER "Achim Reichel"
    INDEX 00 04:04:38
FILE "03 Der Minister.wav" WAVE
    INDEX 01 00:00:00
  TRACK 04 AUDIO
    TITLE "Viertelstunde Superstar"
    PERFORMER "Achim Reichel"
    INDEX 00 04:47:15
FILE "04 Viertelstunde Superstar.wav" WAVE
    INDEX 01 00:00:00
  TRACK 05 AUDIO
    TITLE "Jesus"
    PERFORMER "Achim Reichel"
    INDEX 00 05:39:25
FILE "05 Jesus.wav" WAVE
    INDEX 01 00:00:00
  TRACK 06 AUDIO
    TITLE "Rose und Hyaene"
    PERFORMER "Achim Reichel"
    INDEX 00 02:23:00
FILE "06 Rose und Hyaene.wav" WAVE
    INDEX 01 00:00:00
  TRACK 07 AUDIO
    TITLE "Seidenrosenduft"
    PERFORMER "Achim Reichel"
    INDEX 00 03:47:13
FILE "07 Seidenrosenduft.wav" WAVE
    INDEX 01 00:00:00
FILE "08 Hotel L'Orient.wav" WAVE
  TRACK 08 AUDIO
    TITLE "Hotel L'Orient"
    PERFORMER "Achim Reichel"
    INDEX 01 00:00:00
  TRACK 09 AUDIO
    TITLE "Nachtexpress"
    PERFORMER "Achim Reichel"
    INDEX 00 05:09:70
FILE "09 Nachtexpress.wav" WAVE
    INDEX 01 00:00:00
Код:
[CUETools log; Date: 28.07.2014 21:07:22; Version: 2.1.5]
[CTDB TOCID: nbj74SmTUl0nMCZeDGG3XGtASkU-] found.
Track | CTDB Status
  1   | (9/9) Accurately ripped
  2   | (9/9) Accurately ripped
  3   | (9/9) Accurately ripped
  4   | (9/9) Accurately ripped
  5   | (9/9) Accurately ripped
  6   | (9/9) Accurately ripped
  7   | (9/9) Accurately ripped
  8   | (9/9) Accurately ripped
  9   | (9/9) Accurately ripped
[AccurateRip ID: 000df2f4-0065fdf7-6c09e009] found.
Track   [  CRC   |   V2   ] Status
 01     [cb20f8cc|d03aeadb] (12+04/23) Accurately ripped
 02     [2c5f55ed|e5a6589c] (12+04/22) Accurately ripped
 03     [fd7b31cb|6712a4d6] (12+03/21) Accurately ripped
 04     [c09b09f5|4fbe02a1] (12+04/22) Accurately ripped
 05     [72c33637|32d21e4c] (12+04/22) Accurately ripped
 06     [9f918c48|a8c35b59] (12+04/22) Accurately ripped
 07     [dd256fb2|c3f2465b] (12+04/23) Accurately ripped
 08     [a97c67bd|4be7c3e8] (12+04/22) Accurately ripped
 09     [b05c3afc|11cfce20] (12+03/22) Accurately ripped
Offsetted by 1448:
 01     [79149498] (05/23) Accurately ripped
 02     [e2d8f1eb] (04/22) Accurately ripped
 03     [c0c40752] (04/21) Accurately ripped
 04     [64e20cd6] (04/22) Accurately ripped
 05     [3b84ab3d] (04/22) Accurately ripped
 06     [2ef61053] (04/22) Accurately ripped
 07     [6cbe1cdf] (05/23) Accurately ripped
 08     [d7b0d380] (04/22) Accurately ripped
 09     [764c6463] (05/22) Accurately ripped
Track Peak [ CRC32  ] [W/O NULL] [  LOG   ]
 --  100,0 [87383343] [4797F333]
 01  100,0 [9C97267C] [371C6984]   CRC32
 02   80,3 [95059C1F] [27C0DB4F]   CRC32
 03   80,0 [FD302CF8] [D0C2A350]   CRC32
 04   85,1 [0156616A] [0284C4F6]   CRC32
 05   80,0 [99EE19D8] [A2565A3B]   CRC32
 06   87,8 [3BB96A14] [6801EDA9]   CRC32
 07   56,2 [7EAAE677] [960522A3]   CRC32
 08   64,3 [BE4C5088] [150492A0]   CRC32
 09   82,8 [5E7B687C] [648BF72C]   CRC32
Продолжение ниже
Правила, инструкции, FAQ!!!
Торрент  Добавлен [26 мар 2019, 20:07] Скачать торрент Магнет ссылка
Скачать торрент
[ Размер 44.23 КБ / Просмотров 8 ]

Статус
Проверен 
 
Размер  3.35 ГБ
Приватный: Нет (DHT включён)
.torrent скачан  0
 


     Отправить личное сообщение
   
Страница 1 из 1
Показать сообщения за:  Поле сортировки  
Начать новую тему Ответить на тему


Сейчас этот форум просматривают: нет зарегистрированных пользователей и гости: 0


Вы не можете начинать темы
Вы не можете отвечать на сообщения
Вы не можете редактировать свои сообщения
Вы не можете удалять свои сообщения
Вы не можете добавлять вложения

Перейти:  
cron