Начать новую тему Ответить на тему
Статистика раздачи
Размер: 190.76 МБ | Добавлен: 26 мар 2019, 20:47 | Скачали: 0
Сидеров: 0  [0 байт/сек]    Личеров: 0  [0 байт/сек]
Пред. тема | След. тема 

Автор
Сообщение

СообщениеДобавлено: 26 мар 2019, 20:47 

Ответить с цитатой 

The Nylons / The Nylons
Жанр: Pop-rock, Acappella, Harmony vocal group
Страна-производитель диска: Canada
Год издания диска: 2002
Издатель (лейбл): Attic Records
Номер по каталогу: ACDM 1125
Страна: Canada
Аудиокодек: FLAC (*.flac)
Тип рипа: image+.cue
Битрейт аудио: lossless
Продолжительность: 0:34:32
Источник (релизер): собственный рип с оригинального CD
Наличие сканов в содержимом раздачи: нет
Состав:
Claude Morrison (tenor)
Marc Connors (tenor)
Paul Cooper (baritone)
Arnold Robinson (bass)
Треклист:
01. The Lion Sleeps Tonight
02. Love Potion #9 / Spooky
03. A Million Ways
04. Somethin' 'bout 'Cha
05. Duke of Earl
06. Rock & Roll Lullaby
07. Find the One I Love
08. Some People
09. Up on the Roof
10. Me and the Boys
Код:
Exact Audio Copy V1.0 beta 3 from 29. August 2011
Отчёт EAC об извлечении, выполненном 15. марта 2012, 17:54
The Nylons / The Nylons
Дисковод: Optiarc DVD RW AD-7260S   Adapter: 2  ID: 0
Режим чтения                 : Достоверность
Использование точного потока : Да
Отключение кэша аудио        : Да
Использование указателей C2  : Нет
Коррекция смещения при чтении                     : 48
Способность читать области Lead-in и Lead-out     : Нет
Заполнение пропущенных сэмплов тишиной            : Да
Удаление блоков с тишиной в начале и конце        : Нет
При вычислениях CRC использовались нулевые сэмплы : Да
Интерфейс                                         : Встроенный Win32-интерфейс для Win NT/2000
Выходной формат          : Пользовательский кодировщик
Выбранный битрейт        : 1024 kBit/s
Качество                 : Высокий
Добавление ID3-тега      : Нет
Утилита сжатия           : C:\Program Files (x86)\Exact Audio Copy\FLAC\FLAC.EXE
Дополнительные параметры : -V -8 -T "Genre=%genre%" -T "Artist=%artist%" -T "Title=%title%" -T "Album=%albumtitle%" -T "Date=%year%" -T "Tracknumber=%tracknr%" -T "Comment=%comment%" %source%
TOC извлечённого CD
     Трек |   Старт  | Длительность | Начальный сектор | Конечный сектор
    ---------------------------------------------------------------------
       1  |  0:00.32 |    4:50.03   |          32      |      21784
       2  |  4:50.35 |    3:40.12   |       21785      |      38296
       3  |  8:30.47 |    2:51.10   |       38297      |      51131
       4  | 11:21.57 |    3:20.38   |       51132      |      66169
       5  | 14:42.20 |    3:01.32   |       66170      |      79776
       6  | 17:43.52 |    4:14.55   |       79777      |      98881
       7  | 21:58.32 |    2:45.63   |       98882      |     111319
       8  | 24:44.20 |    1:58.62   |      111320      |     120231
       9  | 26:43.07 |    3:41.23   |      120232      |     136829
      10  | 30:24.30 |    4:07.52   |      136830      |     155406
Характеристики диапазона извлечения и сообщения об ошибках
Выбранный диапазон
     Имя файла C:\Раздачи\Nylons\The Nylons - The Nylons.wav
     Пиковый уровень 100.0 %
     Скорость извлечения 1.8 X
     Качество диапазона 99.9 %
     CRC теста 053E8C5B
     CRC копии 053E8C5B
     Копирование... OK
Ошибок не произошло
AccurateRip: сводка
Трек  1  точность не определена (достоверность 3)  [D02311CC], AccurateRip вернул [F87B1226]  (AR v2)
Трек  2  точность не определена (достоверность 3)  [662FEAEF], AccurateRip вернул [4447FC21]  (AR v2)
Трек  3  точность не определена (достоверность 3)  [05EE631B], AccurateRip вернул [A0AFB54B]  (AR v2)
Трек  4  точность не определена (достоверность 3)  [04ED71A4], AccurateRip вернул [461F9DB3]  (AR v2)
Трек  5  точность не определена (достоверность 3)  [35CCFECE], AccurateRip вернул [D9FDA5E8]  (AR v2)
Трек  6  точность не определена (достоверность 3)  [03D9CA97], AccurateRip вернул [75040886]  (AR v2)
Трек  7  точность не определена (достоверность 3)  [53716F77], AccurateRip вернул [86DC7411]  (AR v2)
Трек  8  точность не определена (достоверность 3)  [B39BE42A], AccurateRip вернул [713263A5]  (AR v2)
Трек  9  точность не определена (достоверность 3)  [8F5F9664], AccurateRip вернул [682FE21F]  (AR v2)
Трек 10  точность не определена (достоверность 3)  [44CA538B], AccurateRip вернул [58DFC9E4]  (AR v2)
Ни один трек не прошёл проверки на точность
В вашей базе может быть иной вариант штамповки диска
Конец отчёта
---- CUETools DB Plugin V2.1.3
[CTDB TOCID: NT0VFAYO9CF49OPHDtQqT5ViMjQ-] disk not present in database, Submit result: discs with pregaps not supported in this protocol version
==== Контрольная сумма отчёта 161352C56CEFC8C69A12ED0AA0B72D1A32650B37532B39288BDCB4A6E1CAD6BF ====
Код:
REM GENRE "A Cappella"
REM DATE 1982
REM DISCID 7E08180A
REM COMMENT "ExactAudioCopy v1.0b3"
CATALOG 0000000000000
PERFORMER "The Nylons"
TITLE "The Nylons"
FILE "The Nylons - The Nylons.flac" WAVE
  TRACK 01 AUDIO
    TITLE "The Lion Sleeps Tonight"
    PERFORMER "The Nylons"
    ISRC 000000000000
    INDEX 00 00:00:00
    INDEX 01 00:00:32
  TRACK 02 AUDIO
    TITLE "Love Potion #9 / Spooky"
    PERFORMER "The Nylons"
    ISRC 000000000000
    INDEX 00 04:49:25
    INDEX 01 04:50:35
  TRACK 03 AUDIO
    TITLE "A Million Ways"
    PERFORMER "The Nylons"
    ISRC 000000000000
    INDEX 00 08:29:10
    INDEX 01 08:30:47
  TRACK 04 AUDIO
    TITLE "Somethin' 'Bout 'Cha"
    PERFORMER "The Nylons"
    ISRC 000000000000
    INDEX 00 11:20:50
    INDEX 01 11:21:57
  TRACK 05 AUDIO
    TITLE "Duke of Earl"
    PERFORMER "The Nylons"
    ISRC 000000000000
    INDEX 00 14:40:20
    INDEX 01 14:42:20
  TRACK 06 AUDIO
    TITLE "Rock & Roll Lullaby"
    PERFORMER "The Nylons"
    ISRC 000000000000
    INDEX 00 17:43:00
    INDEX 01 17:43:52
  TRACK 07 AUDIO
    TITLE "Find the One I Love"
    PERFORMER "The Nylons"
    ISRC 000000000000
    INDEX 00 21:57:43
    INDEX 01 21:58:32
  TRACK 08 AUDIO
    TITLE "Some People"
    PERFORMER "The Nylons"
    ISRC 000000000000
    INDEX 00 24:42:57
    INDEX 01 24:44:20
  TRACK 09 AUDIO
    TITLE "Up on the Roof"
    PERFORMER "The Nylons"
    ISRC 000000000000
    INDEX 01 26:43:07
  TRACK 10 AUDIO
    TITLE "Me and the Boys"
    PERFORMER "The Nylons"
    ISRC 000000000000
    INDEX 00 30:22:72
    INDEX 01 30:24:30
Код:
-----------------------
DON'T MODIFY THIS FILE
-----------------------
PERFORMER: auCDtect Task Manager, ver. 1.0.0 Stable build 1.0.0.0
Copyright (c) 2008, 2009 y-soft. All rights reserved
[url=http://y-soft.110mb.com]http://y-soft.110mb.com[/url]
ANALYZER: auCDtect: CD records authenticity detector, version 0.8.2
Copyright (c) 2004 Oleg Berngardt. All rights reserved.
Copyright (c) 2004 Alexander Djourik. All rights reserved.
FILE: The Nylons - The Nylons.flac
  Size: 200012856 Hash: 051883BD047A709F29E227B3E23A4E01 Accuracy: -m0
  Conclusion: CDDA 100%
  Signature: 962BF53B7562E97D38ED04F2610482B96BBA91F1
Правила, инструкции, FAQ!!!
Торрент  Добавлен [26 мар 2019, 20:47] Скачать торрент Магнет ссылка
Скачать торрент
[ Размер 15.56 КБ / Просмотров 8 ]

Статус
Проверен 
 
Размер  190.76 МБ
Приватный: Нет (DHT включён)
.torrent скачан  0
 


     Отправить личное сообщение
   
Страница 1 из 1
Показать сообщения за:  Поле сортировки  
Начать новую тему Ответить на тему


Сейчас этот форум просматривают: нет зарегистрированных пользователей и гости: 0


Вы не можете начинать темы
Вы не можете отвечать на сообщения
Вы не можете редактировать свои сообщения
Вы не можете удалять свои сообщения
Вы не можете добавлять вложения

Перейти:  
cron