Начать новую тему Ответить на тему
Статистика раздачи
Размер: 398.86 МБ | Добавлен: 26 мар 2019, 20:37 | Скачали: 0
Сидеров: 1  [0 байт/сек]    Личеров: 0  [0 байт/сек]
Пред. тема | След. тема 

Автор
Сообщение

СообщениеДобавлено: 26 мар 2019, 20:37 

Ответить с цитатой 

Rino Gaetano - Un'ora con...
Жанр: Pop
Носитель: CD
Страна-производитель диска (релиза): EU
Год издания: 2012
Издатель (лейбл): RCA
Номер по каталогу: 88725455662
Страна исполнителя (группы): Italy
Аудиокодек: FLAC (*.flac)
Тип рипа: image+.cue
Битрейт аудио: lossless
Продолжительность: 1:01:05
Источник (релизер): alemar
Наличие сканов в содержимом раздачи: нет
Треклист:
1. Gianna 3:48
2. Nuntereggae Più 5:07
3. Sfiorivano Le Viole 4:57
4. Berta Filava 3:36
5. Ad Esempio A Me Piace Il Sud 4:11
6. Aida 4:20
7. Jet Set 4:35
8. Escluso Il Cane 4:12
9. E Io Ci Sto 4:01
10. Fabbricando Case 4:00
11. Ahi Maria 5:34
12. Nel letto Di Lucia 4:40
13. Ti Ti Ti Ti 3:12
14. Resta Vile Maschio Dove Vai 4:37
Код:
Exact Audio Copy V1.0 beta 6 from 9. April 2015
File di log EAC per l'estrazione del 11. Luglio 2015, 17:41
Rino Gaetano / Un'ora con...
Unità predefinita : ATAPI   iHAS124   E   Adapter: 1  ID: 0
Modalità di lettura : Burst
Correzione offset di lettura                         : 6
Compensa lettura nel Lead-In e nel Lead-Out          : No
Riempi sample offset mancanti con silenzio           : Sì
Rimuovi blocchi di silenzio ad inizio e fine traccia : No
Usa i sample nulli nel calcolo CRC                   : Sì
Interfaccia usata                                    : Interfaccia nativa Win32 Per Windows XP/Vista/Win 7
Formato di destinazione scelto          : Usa Encoder Definito Da Utente
Bitrate selezionato                     : 768 kBit/s
Qualità                                 : Alta
Aggiungi tag ID3                        : No
Compressore a riga di comando           : C:\Programmi\Exact Audio Copy\FLAC\FLAC.EXE
Parametri aggiuntivi da riga di comando : -6 -V -T "ARTIST=%artist%" -T "TITLE=%title%" -T "ALBUM=%albumtitle%" -T "DATE=%year%" -T "TRACKNUMBER=%tracknr%" -T "GENRE=%genre%" -T "COMMENT=%comment%" -T "BAND=%albuminterpret%" -T "ALBUMARTIST=%albuminterpret%" -T "COMPOSER=%composer%" %haslyrics%--tag-from-file=LYRICS="%lyricsfile%"%haslyrics% -T "DISCNUMBER=%cdnumber%" -T "TOTALDISCS=%totalcds%" -T "TOTALTRACKS=%numtracks%" %hascover%--picture="%coverfile%"%hascover% %source% -o %dest%
TOC del CD estratto
     Traccia |  Inizio  | Lunghezza | Inizio settore | Fine settore
    ----------------------------------------------------------------
         1   |  0:00.00 |   3:50.12 |          0     |     17261
         2   |  3:50.12 |   5:08.38 |      17262     |     40399
         3   |  8:58.50 |   4:57.50 |      40400     |     62724
         4   | 13:56.25 |   3:37.46 |      62725     |     79045
         5   | 17:33.71 |   4:12.09 |      79046     |     97954
         6   | 21:46.05 |   4:18.60 |      97955     |    117364
         7   | 26:04.65 |   4:41.65 |     117365     |    138504
         8   | 30:46.55 |   4:10.74 |     138505     |    157328
         9   | 34:57.54 |   4:02.43 |     157329     |    175521
        10   | 39:00.22 |   4:01.24 |     175522     |    193620
        11   | 43:01.46 |   5:33.69 |     193621     |    218664
        12   | 48:35.40 |   4:39.18 |     218665     |    239607
        13   | 53:14.58 |   3:13.45 |     239608     |    254127
        14   | 56:28.28 |   4:37.22 |     254128     |    274924
Stato intervallo ed errori
Intervallo selezionato
     Nome file D:\eac\Rino Gaetano - Un'ora con....wav
     Problema di timing 0:00:04
     Livello di picco 99.9 %
     Velocità estrazione 10.5 X
     Copia CRC 9537054F
     Copia completata con successo
Non sono stati riscontrati errori
Sommario Accuraterip
Traccia  1  Non presente nel database
Traccia  2  Non presente nel database
Traccia  3  Non presente nel database
Traccia  4  Non presente nel database
Traccia  5  Non presente nel database
Traccia  6  Non presente nel database
Traccia  7  Non presente nel database
Traccia  8  Non presente nel database
Traccia  9  Non presente nel database
Traccia 10  Non presente nel database
Traccia 11  Non presente nel database
Traccia 12  Non presente nel database
Traccia 13  Non presente nel database
Traccia 14  Non presente nel database
Nessuna delle tracce è presente nel database AccurateRip
Fine del resoconto di stato
---- CUETools DB Plugin V2.1.6
[CTDB TOCID: Dp48KkC6dd4GdLzO1LT2yo2srCk-] disk not present in database
Submit result: insufficient quality
==== Checksum del log 7C8AE00D90198388757C3017DF82F01C24F9619EC1445F2809D83111C4724315 ====
Код:
REM GENRE Pop
REM DATE 2012
REM DISCID C90E510E
REM COMMENT "ExactAudioCopy v1.0b6"
CATALOG 0887254556626
PERFORMER "Rino Gaetano"
TITLE "Un'ora con..."
FILE "Rino Gaetano - Un'ora con....flac" WAVE
  TRACK 01 AUDIO
    TITLE "Gianna"
    PERFORMER "Rino Gaetano"
    ISRC ITB008400565
    FLAGS DCP
    INDEX 01 00:00:00
  TRACK 02 AUDIO
    TITLE "Nuntereggae più"
    PERFORMER "Rino Gaetano"
    ISRC ITB008400567
    FLAGS DCP
    INDEX 01 03:50:12
  TRACK 03 AUDIO
    TITLE "Sfiorivano le viole"
    PERFORMER "Rino Gaetano"
    ISRC ITB008400549
    FLAGS DCP
    INDEX 01 08:58:50
  TRACK 04 AUDIO
    TITLE "Berta filava"
    PERFORMER "Rino Gaetano"
    ISRC ITB008400552
    FLAGS DCP
    INDEX 01 13:56:25
  TRACK 05 AUDIO
    TITLE "Ad esempio a me piace il sud"
    PERFORMER "Rino Gaetano"
    ISRC ITB008700406
    FLAGS DCP
    INDEX 01 17:33:71
  TRACK 06 AUDIO
    TITLE "Aida"
    PERFORMER "Rino Gaetano"
    ISRC ITB008400556
    FLAGS DCP
    INDEX 01 21:46:05
  TRACK 07 AUDIO
    TITLE "Jet set"
    PERFORMER "Rino Gaetano"
    ISRC ITB008000217
    FLAGS DCP
    INDEX 01 26:04:65
  TRACK 08 AUDIO
    TITLE "Escluso il cane"
    PERFORMER "Rino Gaetano"
    ISRC ITB008400560
    FLAGS DCP
    INDEX 01 30:46:55
  TRACK 09 AUDIO
    TITLE "E io ci sto"
    PERFORMER "Rino Gaetano"
    ISRC ITB008000684
    FLAGS DCP
    INDEX 01 34:57:54
  TRACK 10 AUDIO
    TITLE "Fabbricando case"
    PERFORMER "Rino Gaetano"
    ISRC ITB008400568
    FLAGS DCP
    INDEX 01 39:00:22
  TRACK 11 AUDIO
    TITLE "Ahi Maria"
    PERFORMER "Rino Gaetano"
    ISRC ITB007900802
    FLAGS DCP
    INDEX 01 43:01:46
  TRACK 12 AUDIO
    TITLE "Nel letto di Lucia"
    PERFORMER "Rino Gaetano"
    ISRC ITB007900797
    FLAGS DCP
    INDEX 01 48:35:40
  TRACK 13 AUDIO
    TITLE "Ti ti ti ti"
    PERFORMER "Rino Gaetano"
    ISRC ITB008000673
    FLAGS DCP
    INDEX 01 53:14:58
  TRACK 14 AUDIO
    TITLE "Resta vile maschio dove vai"
    PERFORMER "Rino Gaetano"
    ISRC ITB007900795
    FLAGS DCP
    INDEX 01 56:28:28
Правила, инструкции, FAQ!!!
Торрент  Добавлен [26 мар 2019, 20:37] Скачать торрент Магнет ссылка
Скачать торрент
[ Размер 31.85 КБ / Просмотров 5 ]

Статус
Проверен 
 
Размер  398.86 МБ
Приватный: Нет (DHT включён)
.torrent скачан  0
 


     Отправить личное сообщение
   
Страница 1 из 1
Показать сообщения за:  Поле сортировки  
Начать новую тему Ответить на тему


Сейчас этот форум просматривают: нет зарегистрированных пользователей и гости: 0


Вы не можете начинать темы
Вы не можете отвечать на сообщения
Вы не можете редактировать свои сообщения
Вы не можете удалять свои сообщения
Вы не можете добавлять вложения

Перейти:  
cron