Начать новую тему Ответить на тему
Статистика раздачи
Размер: 400.26 МБ | Добавлен: 09 окт 2020, 22:37 | Скачали: 0
Сидеров: 1  [0 байт/сек]    Личеров: 0  [0 байт/сек]
Пред. тема | След. тема 

Автор
Сообщение

СообщениеДобавлено: 09 окт 2020, 22:37 

Ответить с цитатой 

Machine Gun Kelly / Tickets To My Downfall
#777#777Жанр: Pop Punk, Punk
Носитель: STREAM
Страна-производитель диска (релиза): США/USA
Год издания: 2020
Издатель (лейбл): Bad Boy; Interscope Records
Страна исполнителя (группы): Хьюстон, Техас (США)
Аудиокодек: FLAC (*.flac)
Тип рипа: tracks
Продолжительность: 00:53:12
Источник: tidal.com
Наличие сканов в содержимом раздачи: Обложка альбома
Треклист:
01. title track
02. kiss kiss
03. drunk face
04. bloody valentine
05. forget me too ft. Halsey
06. all I know ft. Trippie Redd
07. lonely
08. WWIII
09. kevin and barracuda (Interlude)
10. concert for aliens
11. my ex's best friend with Blackbear
12. jawbreaker
13. nothing inside ft. Iann Dior
14. banyan tree (Interlude)
15. play this when i'm gone
16. body bag ft. YUNGBLUD & The Used and Bert McCracken
17. hangover cure
18. split a pill
19. can't look back
20. misery business ft. Travis Barker (Paramore cover)
21. bloody valentine ft. Travis Barker (Acoustic)
Код:
-----------------------
DON'T MODIFY THIS FILE
-----------------------
PERFORMER: auCDtect Task Manager, ver. 1.6.0 RC1 build 1.6.0.1
Copyright (c) 2008-2010 y-soft. All rights reserved
[url=http://y-soft.org]http://y-soft.org[/url]
ANALYZER: auCDtect: CD records authenticity detector, version 0.8.2
Copyright (c) 2004 Oleg Berngardt. All rights reserved.
Copyright (c) 2004 Alexander Djourik. All rights reserved.
FILE: 18. split a pill.flac
  Size: 23607587 Hash: 203D751D1991E6BCBA3EA557B96A475C Accuracy: -m0
  Conclusion: CDDA 49%
  Signature: 23DECF9E3CD02EAB93DBB188DA6B5AAE65915F8D
FILE: 17. hangover cure.flac
  Size: 22841214 Hash: CCB7E2F93B65714A0376BC1A9B8116FE Accuracy: -m0
  Conclusion: MPEG 92%
  Signature: BEF7A66B6371296F0F3456B5D720B2FA8E5BCF6A
FILE: 16. body bag.flac
  Size: 24539847 Hash: ED1BAD69247F8E7F948315BD9BD56252 Accuracy: -m0
  Conclusion: CDDA 54%
  Signature: DB0F2C7C8561B1AFCE7C6C30FD591A2B61AD8E97
FILE: 15. play this when i'm gone.flac
  Size: 23024834 Hash: 38817F55E494CCCF2B44D5A479D13F6F Accuracy: -m0
  Conclusion: CDDA 100%
  Signature: A7E901C505543D3B093CFFB4F0B6D6FA04AB04D9
FILE: 14. banyan tree (Interlude).flac
  Size: 10175174 Hash: 131415C76A744C4FDF37D0E54FD1E38A Accuracy: -m0
  Conclusion: CDDA 100%
  Signature: 50E707CD24D1CA520EF7C311CC545A2CF4E92C6E
FILE: 13. nothing inside.flac
  Size: 23353067 Hash: 7642823E7EA5BBBBCBF085610466BD71 Accuracy: -m0
  Conclusion: CDDA 99%
  Signature: 25E974526A03E7EEEF65854566F83BA3259A7B64
FILE: 12. jawbreaker.flac
  Size: 15683771 Hash: 5C5807CE27F0A4B20CEF1D2FD917AB45 Accuracy: -m0
  Conclusion: CDDA 100%
  Signature: 81B10A9B536A5EFDAC7AE6F02219BC61C6EEA2D7
FILE: 11. my ex's best friend.flac
  Size: 18158304 Hash: E3942FEB0D89172AA0F71A9DCAD73FF4 Accuracy: -m0
  Conclusion: CDDA 100%
  Signature: D0DADFD183FB5780AF37BFEF6415E965B1EE4954
FILE: 10. concert for aliens.flac
  Size: 22854564 Hash: B4884301C417F608B9CB95E1179F9962 Accuracy: -m0
  Conclusion: CDDA 99%
  Signature: 456E730682D6338934573F53DC1043B4E8B5B8C8
FILE: 09. kevin & barracuda (Interlude).flac
  Size: 5703957 Hash: 3A1617D5B6FF85A82C8DFB4875B756B0 Accuracy: -m0
  Conclusion: CDDA 100%
  Signature: D8D3B6079C3FAE2515EC7AA2074E4F22A9926E5F
FILE: 08. WWIII.flac
  Size: 9408422 Hash: ACBB0A7F2DB655124E25548054948689 Accuracy: -m0
  Conclusion: CDDA 100%
  Signature: E2757C16C3DC5D7526B626E3E77C33739A926256
FILE: 07. lonely.flac
  Size: 22633323 Hash: 07B23ABCDA6424FAFF95DD3AFD97E7C7 Accuracy: -m0
  Conclusion: CDDA 100%
  Signature: 1167CF207E55FCD3C209804CC76B721547A489E4
FILE: 06. all i know.flac
  Size: 15238264 Hash: 7C8D70A3ECF8A7BAF93B180D42881D61 Accuracy: -m0
  Conclusion: CDDA 100%
  Signature: D99EBE449B215E20BB596E9C0163621FBCDD9557
FILE: 05. forget me too.flac
  Size: 22868992 Hash: 0CC43406462A2C985D6B5044CC456011 Accuracy: -m0
  Conclusion: CDDA 99%
  Signature: C6C8927DD68E47A96F1F66A82D489C4F0079605C
FILE: 04. bloody valentine.flac
  Size: 29427747 Hash: 4980ECD89EF11A192437DE2C97C0DA2A Accuracy: -m0
  Conclusion: CDDA 99%
  Signature: 129D40930E4E0C8F7F57D0FA20CD858E7814F424
FILE: 03. drunk face.flac
  Size: 18902494 Hash: 61D2AC47E36AD36D9B31FAC8394E5F4D Accuracy: -m0
  Conclusion: CDDA 100%
  Signature: 8589DD0ADE6B229A47CF22A14A19428A426CA60C
FILE: 02. kiss kiss.flac
  Size: 19450712 Hash: 64FA06FA95E1B6BAF9C577BCEF1715D4 Accuracy: -m0
  Conclusion: CDDA 99%
  Signature: 2DDE602D12D1B54AA3C530AAB1698D6CAAF105D1
FILE: 01.title track.flac
  Size: 21188451 Hash: 73F8931A2E3A1AC1267C4F6D37015A19 Accuracy: -m0
  Conclusion: CDDA 100%
  Signature: 58DF8FA301108BE8C9BBB8A5D7A27237391F2AE8
FILE: 21. bloody valentine (Acoustic).flac
  Size: 23668122 Hash: D52C93088E70BC1C945D2559E1EBB2F8 Accuracy: -m0
  Conclusion: CDDA 100%
  Signature: 8A04A071962224D7A95A7A2C4BF1EA3DC7B6C055
FILE: 20. misery business.flac
  Size: 28122712 Hash: 13D7194BDEE7B9B06194C3CF5866583D Accuracy: -m0
  Conclusion: CDDA 100%
  Signature: C27388F2EA28671B5073E282CC4E4CF9B1BE17D5
FILE: 19. can't look back.flac
  Size: 17440144 Hash: 30FA8755347C8286D9D4C33093F1239F Accuracy: -m0
  Conclusion: CDDA 54%
  Signature: ADBB1D402C50FFAEC1A227FE69985ED683B3A538
Код:
foobar2000 1.5.4 / Dynamic Range Meter 1.1.1
log date: 2020-10-02 21:27:31
--------------------------------------------------------------------------------
Analyzed: Machine Gun Kelly / Tickets To My Downfall (SOLD OUT Deluxe)
--------------------------------------------------------------------------------
DR         Peak         RMS     Duration Track
--------------------------------------------------------------------------------
DR4       -0.10 dB    -6.28 dB      2:46 01-title track
DR4       -0.10 dB    -6.73 dB      2:18 02-kiss kiss
DR5       -0.10 dB    -7.22 dB      2:24 03-drunk face
DR4        0.00 dB    -4.72 dB      3:25 04-bloody valentine
DR4       -0.10 dB    -6.54 dB      2:52 05-forget me too ft. Halsey
DR5       -0.13 dB    -7.57 dB      2:09 06-all i know ft. Trippie Redd
DR5       -0.10 dB    -7.82 dB      3:10 07-lonely
DR4       -0.10 dB    -5.59 dB      1:00 08-WWIII
DR9       -3.27 dB   -15.03 dB      1:23 09-kevin & barracuda (Interlude)
DR4        0.00 dB    -4.91 dB      2:40 10-concert for aliens
DR4        0.00 dB    -5.57 dB      2:19 11-my ex's best friend with Blackbear
DR5       -0.10 dB    -6.95 dB      1:58 12-jawbreaker
DR5       -0.10 dB    -6.02 dB      2:52 13-nothing inside ft. Iann Dior
DR5       -0.10 dB   -10.37 dB      1:31 14-banyan tree (Interlude)
DR6       -0.10 dB   -10.47 dB      3:22 15-play this when i'm gone
DR4        0.00 dB    -5.17 dB      2:50 16-body bag ft. YUNGBLUD & The Used and Bert McCracken
DR4        0.00 dB    -4.79 dB      2:40 17-hangover cure
DR4        0.00 dB    -4.82 dB      2:46 18-split a pill
DR4        0.00 dB    -5.40 dB      2:10 19-can't look back
DR5        0.00 dB    -5.83 dB      3:21 20-misery business ft. Travis Barker
DR6        0.00 dB    -7.86 dB      3:16 21-bloody valentine ft. Travis Barker (Acoustic)
--------------------------------------------------------------------------------
Number of tracks:  21
Official DR value: DR5
Samplerate:        44100 Hz
Channels:          2
Bits per sample:   16
Bitrate:           908 kbps
Codec:             FLAC
================================================================================
А также:
Правила, инструкции, FAQ!!!
Торрент  Добавлен [09 окт 2020, 22:37] Скачать торрент Магнет ссылка
Скачать торрент
[ Размер 17.39 КБ / Просмотров 6 ]

Статус
Проверен 
 
Размер  400.26 МБ
Приватный: Нет (DHT включён)
.torrent скачан  0
 


     Отправить личное сообщение
   
Страница 1 из 1
Показать сообщения за:  Поле сортировки  
Начать новую тему Ответить на тему


Сейчас этот форум просматривают: нет зарегистрированных пользователей и гости: 0


Вы не можете начинать темы
Вы не можете отвечать на сообщения
Вы не можете редактировать свои сообщения
Вы не можете удалять свои сообщения
Вы не можете добавлять вложения

Перейти:  
cron