Начать новую тему Ответить на тему
Статистика раздачи
Размер: 876.9 МБ | Добавлен: 26 мар 2019, 19:10 | Скачали: 0
Сидеров: 0  [0 байт/сек]    Личеров: 0  [0 байт/сек]
Пред. тема | След. тема 

Автор
Сообщение

СообщениеДобавлено: 26 мар 2019, 19:10 

Ответить с цитатой 

The Maine


Жанр: Pop-Punk / Pop-Rock / Alternative Rock || Страна: || Годы выпуска дисков: 2007-2010 || Аудиокодек: FLAC (*.flac)
Тип рипа: tracks+.cue || Битрейт аудио: lossless || Источник: Waffles, What.cd

Albums
Страна-производитель диска: UK
Label: Fearless Records
Catalog# FRL 30132
Продолжительность: 00:44:53
Scans: комплект
Треклист:
01. Everything I Ask For
02. We All Roll Along
03. Girls Do What They Want
04. I Must Be Dreaming
05. Into Your Arms
06. Time To Go
07. This Is The End
08. Whoever She Is
09. Count' Em One, Two, Three
10. Kiss and Sell
11. You Left Me
12. We'll All Be
13. I Must Be Dreaming (Acoustic) [Bonus Track]
Код:
Exact Audio Copy V0.99 prebeta 5 from 4. May 2009
EAC extraction logfile from 17. April 2010, 16:57
The Maine / Can't Stop, Won't Stop [2009 U.K. Version]
Used drive  : PLEXTOR CD-R   PREMIUM   Adapter: 0  ID: 1
Read mode               : Secure
Utilize accurate stream : Yes
Defeat audio cache      : Yes
Make use of C2 pointers : No
Read offset correction                      : 30
Overread into Lead-In and Lead-Out          : Yes
Fill up missing offset samples with silence : Yes
Delete leading and trailing silent blocks   : No
Null samples used in CRC calculations       : Yes
Used interface                              : Native Win32 interface for Win NT & 2000
Gap handling                                : Appended to previous track
Used output format              : User Defined Encoder
Selected bitrate                : 128 kBit/s
Quality                         : High
Add ID3 tag                     : No
Command line compressor         : C:\Program Files\FLAC 1.2.1b\flac.exe
Additional command line options : -8 -V -T "ARTIST=%a" -T "TITLE=%t" -T "ALBUM=%g" -T "DATE=%y" -T "TRACKNUMBER=%n" -T "TOTALTRACKS=%x" -T "GENRE=%m" -T "ALBUM ARTIST=%v" -T "ALBUMARTIST=%v" %s
TOC of the extracted CD
     Track |   Start  |  Length  | Start sector | End sector
    ---------------------------------------------------------
        1  |  0:00.00 |  2:37.34 |         0    |    11808
        2  |  2:37.34 |  3:48.56 |     11809    |    28964
        3  |  6:26.15 |  3:12.47 |     28965    |    43411
        4  |  9:38.62 |  2:46.19 |     43412    |    55880
        5  | 12:25.06 |  3:59.17 |     55881    |    73822
        6  | 16:24.23 |  2:54.71 |     73823    |    86943
        7  | 19:19.19 |  2:54.00 |     86944    |    99993
        8  | 22:13.19 |  3:41.09 |     99994    |   116577
        9  | 25:54.28 |  2:53.48 |    116578    |   129600
       10  | 28:48.01 |  3:07.25 |    129601    |   143650
       11  | 31:55.26 |  3:29.01 |    143651    |   159326
       12  | 35:24.27 |  5:28.57 |    159327    |   183983
       13  | 40:53.09 |  3:59.51 |    183984    |   201959
       14  | 47:24.60 | 18:10.70 |    213360    |   295179
Track  1
     Filename C:\EAC Output\The Maine - 2008 - Can't Stop, Won't Stop [2009 U.K. Version]\01 - Everything I Ask For.wav
     Pre-gap length  0:00:02.00
     Peak level 100.0 %
     Track quality 100.0 %
     Test CRC DD7D5FE8
     Copy CRC DD7D5FE8
     Track not present in AccurateRip database
     Copy OK
Track  2
     Filename C:\EAC Output\The Maine - 2008 - Can't Stop, Won't Stop [2009 U.K. Version]\02 - We All Roll Along.wav
     Peak level 97.7 %
     Track quality 100.0 %
     Test CRC 21BA62D2
     Copy CRC 21BA62D2
     Track not present in AccurateRip database
     Copy OK
Track  3
     Filename C:\EAC Output\The Maine - 2008 - Can't Stop, Won't Stop [2009 U.K. Version]\03 - Girls Do What They Want.wav
     Peak level 100.0 %
     Track quality 100.0 %
     Test CRC 6A6D778A
     Copy CRC 6A6D778A
     Track not present in AccurateRip database
     Copy OK
Track  4
     Filename C:\EAC Output\The Maine - 2008 - Can't Stop, Won't Stop [2009 U.K. Version]\04 - I Must Be Dreaming.wav
     Peak level 97.7 %
     Track quality 100.0 %
     Test CRC A0E6270B
     Copy CRC A0E6270B
     Track not present in AccurateRip database
     Copy OK
Track  5
     Filename C:\EAC Output\The Maine - 2008 - Can't Stop, Won't Stop [2009 U.K. Version]\05 - Into Your Arms.wav
     Peak level 100.0 %
     Track quality 100.0 %
     Test CRC E361E4A8
     Copy CRC E361E4A8
     Track not present in AccurateRip database
     Copy OK
Track  6
     Filename C:\EAC Output\The Maine - 2008 - Can't Stop, Won't Stop [2009 U.K. Version]\06 - Time To Go.wav
     Peak level 97.7 %
     Track quality 100.0 %
     Test CRC 5C83F609
     Copy CRC 5C83F609
     Track not present in AccurateRip database
     Copy OK
Track  7
     Filename C:\EAC Output\The Maine - 2008 - Can't Stop, Won't Stop [2009 U.K. Version]\07 - This Is The End.wav
     Peak level 97.7 %
     Track quality 99.9 %
     Test CRC 86F128D5
     Copy CRC 86F128D5
     Track not present in AccurateRip database
     Copy OK
Track  8
     Filename C:\EAC Output\The Maine - 2008 - Can't Stop, Won't Stop [2009 U.K. Version]\08 - Whoever She Is.wav
     Peak level 98.8 %
     Track quality 100.0 %
     Test CRC E92C0700
     Copy CRC E92C0700
     Track not present in AccurateRip database
     Copy OK
Track  9
     Filename C:\EAC Output\The Maine - 2008 - Can't Stop, Won't Stop [2009 U.K. Version]\09 - Count'Em One, Two, Three.wav
     Peak level 97.7 %
     Track quality 100.0 %
     Test CRC EB489299
     Copy CRC EB489299
     Track not present in AccurateRip database
     Copy OK
Track 10
     Filename C:\EAC Output\The Maine - 2008 - Can't Stop, Won't Stop [2009 U.K. Version]\10 - Kiss And Sell.wav
     Peak level 97.7 %
     Track quality 100.0 %
     Test CRC 479AC1B6
     Copy CRC 479AC1B6
     Track not present in AccurateRip database
     Copy OK
Track 11
     Filename C:\EAC Output\The Maine - 2008 - Can't Stop, Won't Stop [2009 U.K. Version]\11 - You Left Me.wav
     Peak level 97.7 %
     Track quality 100.0 %
     Test CRC C4E2F35E
     Copy CRC C4E2F35E
     Track not present in AccurateRip database
     Copy OK
Track 12
     Filename C:\EAC Output\The Maine - 2008 - Can't Stop, Won't Stop [2009 U.K. Version]\12 - We'll All Be....wav
     Peak level 97.7 %
     Track quality 100.0 %
     Test CRC 09986754
     Copy CRC 09986754
     Track not present in AccurateRip database
     Copy OK
Track 13
     Filename C:\EAC Output\The Maine - 2008 - Can't Stop, Won't Stop [2009 U.K. Version]\13 - I Must Be Dreaming (Acoustic) [Bonus Track].wav
     Peak level 93.5 %
     Track quality 100.0 %
     Test CRC 9C6C2EF2
     Copy CRC 9C6C2EF2
     Track not present in AccurateRip database
     Copy OK
None of the tracks are present in the AccurateRip database
No errors occurred
End of status report
Код:
REM GENRE "Pop Punk"
REM DATE 2008
REM DISCID CC0F5F0E
REM COMMENT "ExactAudioCopy v0.99pb5"
PERFORMER "The Maine"
TITLE "Can't Stop, Won't Stop [2009 U.K. Version]"
FILE "01 - Everything I Ask For.wav" WAVE
  TRACK 01 AUDIO
    TITLE "Everything I Ask For"
    PERFORMER "The Maine"
    ISRC US5260811201
    INDEX 01 00:00:00
FILE "02 - We All Roll Along.wav" WAVE
  TRACK 02 AUDIO
    TITLE "We All Roll Along"
    PERFORMER "The Maine"
    ISRC US5260811202
    INDEX 01 00:00:00
FILE "03 - Girls Do What They Want.wav" WAVE
  TRACK 03 AUDIO
    TITLE "Girls Do What They Want"
    PERFORMER "The Maine"
    ISRC US5260811203
    INDEX 01 00:00:00
FILE "04 - I Must Be Dreaming.wav" WAVE
  TRACK 04 AUDIO
    TITLE "I Must Be Dreaming"
    PERFORMER "The Maine"
    ISRC US5260811204
    INDEX 01 00:00:00
FILE "05 - Into Your Arms.wav" WAVE
  TRACK 05 AUDIO
    TITLE "Into Your Arms"
    PERFORMER "The Maine"
    ISRC US5260811205
    INDEX 01 00:00:00
FILE "06 - Time To Go.wav" WAVE
  TRACK 06 AUDIO
    TITLE "Time To Go"
    PERFORMER "The Maine"
    ISRC US5260811206
    INDEX 01 00:00:00
FILE "07 - This Is The End.wav" WAVE
  TRACK 07 AUDIO
    TITLE "This Is The End"
    PERFORMER "The Maine"
    ISRC US5260811207
    INDEX 01 00:00:00
FILE "08 - Whoever She Is.wav" WAVE
  TRACK 08 AUDIO
    TITLE "Whoever She Is"
    PERFORMER "The Maine"
    ISRC US5260811208
    INDEX 01 00:00:00
FILE "09 - Count'Em One, Two, Three.wav" WAVE
  TRACK 09 AUDIO
    TITLE "Count'Em One, Two, Three"
    PERFORMER "The Maine"
    ISRC US5260811209
    INDEX 01 00:00:00
FILE "10 - Kiss And Sell.wav" WAVE
  TRACK 10 AUDIO
    TITLE "Kiss And Sell"
    PERFORMER "The Maine"
    ISRC US5260811210
    INDEX 01 00:00:00
FILE "11 - You Left Me.wav" WAVE
  TRACK 11 AUDIO
    TITLE "You Left Me"
    PERFORMER "The Maine"
    ISRC US5260811211
    INDEX 01 00:00:00
FILE "12 - We'll All Be....wav" WAVE
  TRACK 12 AUDIO
    TITLE "We'll All Be..."
    PERFORMER "The Maine"
    ISRC US5260811212
    INDEX 01 00:00:00
FILE "13 - I Must Be Dreaming (Acoustic) [Bonus Track].wav" WAVE
  TRACK 13 AUDIO
    TITLE "I Must Be Dreaming (Acoustic) [Bonus Track]"
    PERFORMER "The Maine"
    ISRC US5260911215
    INDEX 01 00:00:00
#777Страна-производитель диска: US
Label: Warner Bros. Records / Sire Records / Fearless Records
Catalog# 523012-2
Продолжительность: 00:35:26
Scans: комплект
Треклист:
01. Don't Stop Now (3:37)
02. Right Girl (3:37)
03. Growing Up (4:00)
04. Fuel To The Fire (3:12)
05. Inside Of You (3:51)
06. Every Road (3:37)
07. Listen To Your Heart (3:15)
08. Saving Grace (3:53)
09. Give It To Me (2:42)
10. Color (3:41)
Код:
Exact Audio Copy V0.99 prebeta 5 from 4. May 2009
EAC extraction logfile from 16. July 2010, 16:04
The Maine / Black & White
Used drive  : PLEXTOR CD-R   PREMIUM   Adapter: 0  ID: 1
Read mode               : Secure
Utilize accurate stream : Yes
Defeat audio cache      : Yes
Make use of C2 pointers : No
Read offset correction                      : 30
Overread into Lead-In and Lead-Out          : Yes
Fill up missing offset samples with silence : Yes
Delete leading and trailing silent blocks   : No
Null samples used in CRC calculations       : Yes
Used interface                              : Native Win32 interface for Win NT & 2000
Gap handling                                : Appended to previous track
Used output format              : User Defined Encoder
Selected bitrate                : 128 kBit/s
Quality                         : High
Add ID3 tag                     : No
Command line compressor         : C:\Program Files\FLAC 1.2.1b\flac.exe
Additional command line options : -8 -V -T "ARTIST=%a" -T "TITLE=%t" -T "ALBUM=%g" -T "DATE=%y" -T "TRACKNUMBER=%n" -T "TOTALTRACKS=%x" -T "GENRE=%m" -T "ALBUM ARTIST=%v" -T "ALBUMARTIST=%v" %s
TOC of the extracted CD
     Track |   Start  |  Length  | Start sector | End sector
    ---------------------------------------------------------
        1  |  0:00.00 |  3:36.39 |         0    |    16238
        2  |  3:36.39 |  3:36.74 |     16239    |    32512
        3  |  7:13.38 |  4:00.08 |     32513    |    50520
        4  | 11:13.46 |  3:11.55 |     50521    |    64900
        5  | 14:25.26 |  3:50.72 |     64901    |    82222
        6  | 18:16.23 |  3:37.37 |     82223    |    98534
        7  | 21:53.60 |  3:15.15 |     98535    |   113174
        8  | 25:09.00 |  3:53.18 |    113175    |   130667
        9  | 29:02.18 |  2:42.26 |    130668    |   142843
       10  | 31:44.44 |  3:41.29 |    142844    |   159447
Track  1
     Filename C:\EAC Output\The Maine - 2010 - Black & White\01 - Don't Stop Now.wav
     Pre-gap length  0:00:02.00
     Peak level 100.0 %
     Track quality 99.9 %
     Test CRC B78C19D4
     Copy CRC B78C19D4
     Track not present in AccurateRip database
     Copy OK
Track  2
     Filename C:\EAC Output\The Maine - 2010 - Black & White\02 - Right Girl.wav
     Peak level 100.0 %
     Track quality 100.0 %
     Test CRC 0D62A951
     Copy CRC 0D62A951
     Track not present in AccurateRip database
     Copy OK
Track  3
     Filename C:\EAC Output\The Maine - 2010 - Black & White\03 - Growing Up.wav
     Peak level 100.0 %
     Track quality 100.0 %
     Test CRC AB1AA602
     Copy CRC AB1AA602
     Track not present in AccurateRip database
     Copy OK
Track  4
     Filename C:\EAC Output\The Maine - 2010 - Black & White\04 - Fuel To The Fire.wav
     Peak level 100.0 %
     Track quality 100.0 %
     Test CRC 22FF62D1
     Copy CRC 22FF62D1
     Track not present in AccurateRip database
     Copy OK
Track  5
     Filename C:\EAC Output\The Maine - 2010 - Black & White\05 - Inside Of You.wav
     Peak level 100.0 %
     Track quality 100.0 %
     Test CRC 655A9C47
     Copy CRC 655A9C47
     Track not present in AccurateRip database
     Copy OK
Track  6
     Filename C:\EAC Output\The Maine - 2010 - Black & White\06 - Every Road.wav
     Peak level 100.0 %
     Track quality 99.9 %
     Test CRC B2359956
     Copy CRC B2359956
     Track not present in AccurateRip database
     Copy OK
Track  7
     Filename C:\EAC Output\The Maine - 2010 - Black & White\07 - Listen To Your Heart.wav
     Peak level 100.0 %
     Track quality 100.0 %
     Test CRC EF71A160
     Copy CRC EF71A160
     Track not present in AccurateRip database
     Copy OK
Track  8
     Filename C:\EAC Output\The Maine - 2010 - Black & White\08 - Saving Grace.wav
     Peak level 100.0 %
     Track quality 100.0 %
     Test CRC F5D0DECA
     Copy CRC F5D0DECA
     Track not present in AccurateRip database
     Copy OK
Track  9
     Filename C:\EAC Output\The Maine - 2010 - Black & White\09 - Give It To Me.wav
     Peak level 100.0 %
     Track quality 99.9 %
     Test CRC 99E7E779
     Copy CRC 99E7E779
     Track not present in AccurateRip database
     Copy OK
Track 10
     Filename C:\EAC Output\The Maine - 2010 - Black & White\10 - Color.wav
     Peak level 100.0 %
     Track quality 100.0 %
     Test CRC EA8BD224
     Copy CRC EA8BD224
     Track not present in AccurateRip database
     Copy OK
None of the tracks are present in the AccurateRip database
No errors occurred
End of status report
Код:
REM GENRE "Pop Punk"
REM DATE 2010
REM DISCID 84084D0A
REM COMMENT "ExactAudioCopy v0.99pb5"
CATALOG 0093624969068
PERFORMER "The Maine"
TITLE "Black & White"
FILE "01 - Don't Stop Now.wav" WAVE
  TRACK 01 AUDIO
    TITLE "Don't Stop Now"
    PERFORMER "The Maine"
    ISRC USWB11001368
    INDEX 01 00:00:00
FILE "02 - Right Girl.wav" WAVE
  TRACK 02 AUDIO
    TITLE "Right Girl"
    PERFORMER "The Maine"
    ISRC USWB11001369
    INDEX 01 00:00:00
FILE "03 - Growing Up.wav" WAVE
  TRACK 03 AUDIO
    TITLE "Growing Up"
    PERFORMER "The Maine"
    ISRC USWB11001148
    INDEX 01 00:00:00
FILE "04 - Fuel To The Fire.wav" WAVE
  TRACK 04 AUDIO
    TITLE "Fuel To The Fire"
    PERFORMER "The Maine"
    ISRC USWB11001370
    INDEX 01 00:00:00
FILE "05 - Inside Of You.wav" WAVE
  TRACK 05 AUDIO
    TITLE "Inside Of You"
    PERFORMER "The Maine"
    ISRC USWB11000906
    INDEX 01 00:00:00
FILE "06 - Every Road.wav" WAVE
  TRACK 06 AUDIO
    TITLE "Every Road"
    PERFORMER "The Maine"
    ISRC USWB11001371
    INDEX 01 00:00:00
FILE "07 - Listen To Your Heart.wav" WAVE
  TRACK 07 AUDIO
    TITLE "Listen To Your Heart"
    PERFORMER "The Maine"
    ISRC USWB11001372
    INDEX 01 00:00:00
FILE "08 - Saving Grace.wav" WAVE
  TRACK 08 AUDIO
    TITLE "Saving Grace"
    PERFORMER "The Maine"
    ISRC USWB11001373
    INDEX 01 00:00:00
FILE "09 - Give It To Me.wav" WAVE
  TRACK 09 AUDIO
    TITLE "Give It To Me"
    PERFORMER "The Maine"
    ISRC USWB11001374
    INDEX 01 00:00:00
FILE "10 - Color.wav" WAVE
  TRACK 10 AUDIO
    TITLE "Color"
    PERFORMER "The Maine"
    ISRC USWB11001375
    INDEX 01 00:00:00
Код:
[CUETools log; Date: 02.02.2011 18:08:09; Version: 2.0.9]
[CTDB TOCID: PdQwLrXMJuz89PWsf74e36sc3Y8-] found.
        [ CTDBID ] Status
        [cf5d8bb3] (1/3) Accurately ripped
        [cf5d8bb3] (2/3) Accurately ripped
[AccurateRip ID: 000d98bb-006c63ee-84084d0a] found.
Track   [ CRC    ] Status
 01     [afba8896] (6/6) Accurately ripped
 02     [3d92e916] (6/6) Accurately ripped
 03     [34bc2a63] (6/6) Accurately ripped
 04     [41d2f7b6] (6/6) Accurately ripped
 05     [3f734c82] (6/6) Accurately ripped
 06     [42483211] (6/6) Accurately ripped
 07     [9f06ad9f] (6/6) Accurately ripped
 08     [d72eb6d6] (6/6) Accurately ripped
 09     [b4385abd] (6/6) Accurately ripped
 10     [bb555482] (6/6) Accurately ripped
Track Peak [ CRC32  ] [W/O NULL] [  LOG   ]
 --  100,0 [58D24CE9] [3CE1EE56]
 01  100,0 [B78C19D4] [ABE87522]   CRC32
 02  100,0 [0D62A951] [330D3109]   CRC32
 03  100,0 [AB1AA602] [937764F9]   CRC32
 04  100,0 [22FF62D1] [16B90AFF]   CRC32
 05  100,0 [655A9C47] [AF9C3A6C]   CRC32
 06  100,0 [B2359956] [A6805E08]   CRC32
 07  100,0 [EF71A160] [EFD28F7D]   CRC32
 08  100,0 [F5D0DECA] [E5D0CFDF]   CRC32
 09  100,0 [99E7E779] [C8D8D387]   CRC32
 10  100,0 [EA8BD224] [AED13EE0]   CRC32
EPs
#777Страна-производитель диска: US
Label: Fearless Records
Catalog# FRL 30105-2
Продолжительность: 00:17:18
Scans: комплект
Треклист:
01. If I Only Had The Heart (3:31)
02. The Way We Talk (3:46)
03. Give Me Anything (3:09)
04. We Change, We Wait (3:23)
05. The Town's Been Talkin' (3:26)
Код:
EAC extraction logfile from 1. June 2008, 16:30 for CD
The Maine / The Way We Talk
Used drive  : LITE-ON COMBO SOHC-4836V   Adapter: 3  ID: 0
Read mode   : Secure with NO C2, accurate stream, disable cache
Read offset correction : 6
Overread into Lead-In and Lead-Out : No
Used output format : C:\Program Files\Exact Audio Copy\flac.exe   (User Defined Encoder)
                     128 kBit/s
                     Additional command line options : -8 -A tukey(0.25) -A gauss(0.1875) -b 4096 -V -T "artist=%a" -T "title=%t" -T "album=%g" -T "date=%y" -T "tracknumber=%n" -T "genre=%m" %s --sector-align
Other options      :
    Fill up missing offset samples with silence : Yes
    Delete leading and trailing silent blocks : No
    Native Win32 interface for Win NT & 2000
Track  1
     Filename G:\Multimedia\The Maine\The Way We Talk (FLAC)\01 - If I Only Had The Heart.wav
     Pre-gap length  0:00:02.00
     Peak level 98.8 %
     Track quality 100.0 %
     Test CRC 8F76A072
     Copy CRC 8F76A072
     Copy OK
Track  2
     Filename G:\Multimedia\The Maine\The Way We Talk (FLAC)\02 - The Way We Talk.wav
     Peak level 98.8 %
     Track quality 99.9 %
     Test CRC FB878B4D
     Copy CRC FB878B4D
     Copy OK
Track  3
     Filename G:\Multimedia\The Maine\The Way We Talk (FLAC)\03 - Give Me Anything.wav
     Peak level 98.8 %
     Track quality 99.9 %
     Test CRC FE15298E
     Copy CRC FE15298E
     Copy OK
Track  4
     Filename G:\Multimedia\The Maine\The Way We Talk (FLAC)\04 - We Change, We Wait.wav
     Peak level 98.8 %
     Track quality 100.0 %
     Test CRC 4724DA81
     Copy CRC 4724DA81
     Copy OK
Track  5
     Filename G:\Multimedia\The Maine\The Way We Talk (FLAC)\05 - The Town's Been Talkin'.wav
     Peak level 98.8 %
     Track quality 99.9 %
     Test CRC 16B63381
     Copy CRC 16B63381
     Copy OK
No errors occured
End of status report
Код:
REM GENRE Rock
REM DATE 2007
REM DISCID 36040D05
REM COMMENT "ExactAudioCopy v0.95b3"
PERFORMER "The Maine"
TITLE "The Way We Talk"
FILE "01 - If I Only Had The Heart.wav" WAVE
  TRACK 01 AUDIO
    TITLE "If I Only Had The Heart"
    PERFORMER "The Maine"
    INDEX 01 00:00:00
FILE "02 - The Way We Talk.wav" WAVE
  TRACK 02 AUDIO
    TITLE "The Way We Talk"
    PERFORMER "The Maine"
    INDEX 01 00:00:00
FILE "03 - Give Me Anything.wav" WAVE
  TRACK 03 AUDIO
    TITLE "Give Me Anything"
    PERFORMER "The Maine"
    INDEX 01 00:00:00
FILE "04 - We Change, We Wait.wav" WAVE
  TRACK 04 AUDIO
    TITLE "We Change, We Wait"
    PERFORMER "The Maine"
    INDEX 01 00:00:00
FILE "05 - The Town's Been Talkin'.wav" WAVE
  TRACK 05 AUDIO
    TITLE "The Town's Been Talkin'"
    PERFORMER "The Maine"
    INDEX 01 00:00:00
Код:
[CUETools log; Date: 02.02.2011 18:34:34; Version: 2.0.9]
[CTDB TOCID: TGb1keNxwDbI_r8tEIGWXR2WQIo-] found.
        [ CTDBID ] Status
        [b15f043d] (4/4) Accurately ripped
[AccurateRip ID: 00039941-0010bcb4-36040d05] found.
Track   [ CRC    ] Status
 01     [213d4638] (4/4) Accurately ripped
 02     [a6754e3d] (4/4) Accurately ripped
 03     [baf6ab28] (4/4) Accurately ripped
 04     [62d85fa2] (4/4) Accurately ripped
 05     [a8a20771] (4/4) Accurately ripped
Track Peak [ CRC32  ] [W/O NULL] [  LOG   ]
 --   98,8 [C947EB6A] [61D381B5]
 01   98,8 [8F76A072] [0756CFB4]   CRC32
 02   98,8 [FB878B4D] [09FA68C5]   CRC32
 03   98,8 [FE15298E] [2271ACD2]   CRC32
 04   98,8 [4724DA81] [C2FC74DB]   CRC32
 05   98,8 [16B63381] [5DFB9B89]   CRC32
#777Страна-производитель диска: US
Label: Fearless Records
Catalog# FRL 30117-2
Продолжительность: 00:14:31
Scans: Front
Треклист:
01. Ho Ho Hopefully (3:41)
02. Santa Stole My Girlfriend (3:03)
03. Mr. Winter (3:22)
04. Last Christmas (4:26)
Код:
Exact Audio Copy V1.0 beta 1 from 15. November 2010
EAC extraction logfile from 18. December 2010, 6:16
The Maine / ...And A Happy New Year [Holiday EP]
Used drive  : PLEXTOR CD-R   PREMIUM   Adapter: 0  ID: 1
Read mode               : Secure
Utilize accurate stream : Yes
Defeat audio cache      : Yes
Make use of C2 pointers : No
Read offset correction                      : 30
Overread into Lead-In and Lead-Out          : Yes
Fill up missing offset samples with silence : Yes
Delete leading and trailing silent blocks   : No
Null samples used in CRC calculations       : Yes
Used interface                              : Native Win32 interface for Win NT & 2000
Gap handling                                : Appended to previous track
Used output format              : User Defined Encoder
Selected bitrate                : 128 kBit/s
Quality                         : High
Add ID3 tag                     : No
Command line compressor         : C:\Program Files\FLAC 1.2.1b\flac.exe
Additional command line options : -8 -V -T "ARTIST=%a" -T "TITLE=%t" -T "ALBUM=%g" -T "DATE=%y" -T "TRACKNUMBER=%n" -T "TOTALTRACKS=%x" -T "GENRE=%m" -T "ALBUM ARTIST=%v" -T "ALBUMARTIST=%v" -T "DISCNUMBER=1" -T "TOTALDISCS=1" %s
TOC of the extracted CD
     Track |   Start  |  Length  | Start sector | End sector
    ---------------------------------------------------------
        1  |  0:00.00 |  3:40.61 |         0    |    16560
        2  |  3:40.61 |  3:02.72 |     16561    |    30282
        3  |  6:43.58 |  3:21.48 |     30283    |    45405
        4  | 10:05.31 |  4:25.40 |     45406    |    65320
Track  1
     Filename C:\EAC Output\The Maine - 2008 - ...And A Happy New Year [Holiday EP]\01 - Ho Ho Hopefully.wav
     Pre-gap length  0:00:02.00
     Peak level 99.1 %
     Extraction speed 3.9 X
     Track quality 99.9 %
     Test CRC 8BB00F09
     Copy CRC 8BB00F09
     Track not present in AccurateRip database
     Copy OK
Track  2
     Filename C:\EAC Output\The Maine - 2008 - ...And A Happy New Year [Holiday EP]\02 - Santa Stole My Girlfriend.wav
     Peak level 99.1 %
     Extraction speed 3.9 X
     Track quality 99.9 %
     Test CRC 9A4DE6A1
     Copy CRC 9A4DE6A1
     Track not present in AccurateRip database
     Copy OK
Track  3
     Filename C:\EAC Output\The Maine - 2008 - ...And A Happy New Year [Holiday EP]\03 - Mr. Winter.wav
     Peak level 99.1 %
     Extraction speed 5.8 X
     Track quality 100.0 %
     Test CRC DF4C7BB9
     Copy CRC DF4C7BB9
     Track not present in AccurateRip database
     Copy OK
Track  4
     Filename C:\EAC Output\The Maine - 2008 - ...And A Happy New Year [Holiday EP]\04 - Last Christmas.wav
     Peak level 99.1 %
     Extraction speed 7.2 X
     Track quality 100.0 %
     Test CRC 7B5F50A1
     Copy CRC 7B5F50A1
     Track not present in AccurateRip database
     Copy OK
None of the tracks are present in the AccurateRip database
No errors occurred
End of status report
==== Log checksum C5B1A110BA876254DA3FBE7EA2533BF31213C6B6D0FCFA953191A108E1F38533 ====
Код:
REM GENRE "Pop Punk"
REM DATE 2008
REM DISCID 1E036604
REM COMMENT "ExactAudioCopy v1.0b1"
PERFORMER "The Maine"
TITLE "...And A Happy New Year [Holiday EP]"
FILE "01 - Ho Ho Hopefully.wav" WAVE
  TRACK 01 AUDIO
    TITLE "Ho Ho Hopefully"
    PERFORMER "The Maine"
    ISRC US5260811701
    INDEX 01 00:00:00
FILE "02 - Santa Stole My Girlfriend.wav" WAVE
  TRACK 02 AUDIO
    TITLE "Santa Stole My Girlfriend"
    PERFORMER "The Maine"
    ISRC US5260811702
    INDEX 01 00:00:00
FILE "03 - Mr. Winter.wav" WAVE
  TRACK 03 AUDIO
    TITLE "Mr. Winter"
    PERFORMER "The Maine"
    ISRC US5260811703
    INDEX 01 00:00:00
FILE "04 - Last Christmas.wav" WAVE
  TRACK 04 AUDIO
    TITLE "Last Christmas"
    PERFORMER "The Maine"
    ISRC US5260811704
    INDEX 01 00:00:00

Info
Правила, инструкции, FAQ!!!
Торрент  Добавлен [26 мар 2019, 19:10] Скачать торрент Магнет ссылка
Скачать торрент
[ Размер 26.15 КБ / Просмотров 1 ]

Статус
Проверен 
 
Размер  876.9 МБ
Приватный: Нет (DHT включён)
.torrent скачан  0
 


     Отправить личное сообщение
   
Страница 1 из 1
Показать сообщения за:  Поле сортировки  
Начать новую тему Ответить на тему


Сейчас этот форум просматривают: нет зарегистрированных пользователей и гости: 0


Вы не можете начинать темы
Вы не можете отвечать на сообщения
Вы не можете редактировать свои сообщения
Вы не можете удалять свои сообщения
Вы не можете добавлять вложения

Перейти:  
cron