Начать новую тему Ответить на тему
Статистика раздачи
Размер: 266.17 МБ | Добавлен: 26 мар 2019, 20:43 | Скачали: 1
Сидеров: 2  [0 байт/сек]    Личеров: 0  [0 байт/сек]
Пред. тема | След. тема 

Автор
Сообщение

СообщениеДобавлено: 26 мар 2019, 20:43 

Ответить с цитатой 

Sally Oldfield - Water Bearer
Жанр: Pop/Prog/Folk
Год выпуска диска: 1986
Страна: Ireland
Производитель диска: Castle / CLACD 101 / Sweden
Аудио кодек: FLAC
Тип рипа: image+.cue
Битрейт аудио: lossless
Продолжительность: 42:16
Трэклист:
01) Water Bearer (3:07)
02) Songs of the Quendi (16:00)
03) Mirrors (3:30)
04) Weaver (3:34)
05) Night of the Hunter's Moon (3:28)
06) Child of Allah (3:16)
07) Song of the Bow / Fire And Honey (6:11)
08) Song of the Healer (3:06)
Состав:
Sally Oldfield - Multi Instruments and Vocal
Mike Oldfield - Mandolin
Brian Burrows - Tenor Sax
Herbie Flowers - Double Bass
Dave Lawson - Synthesisers
Jean Price - Harp
Frank Ricotti - Percussion
Tim Wheaton - Percussion & Cymbals
Trevor Spence - Drums & percussion
Доп. информация: http://www.progarchives.com/artist.asp?id=5740
Код:
Exact Audio Copy V0.99 prebeta 5 from 4. May 2009
EAC extraction logfile from 10. September 2010, 1:04
Sally Oldfield / Water Bearer
Used drive  : TEAC    CD-W552E   Adapter: 1  ID: 0
Read mode               : Secure
Utilize accurate stream : Yes
Defeat audio cache      : Yes
Make use of C2 pointers : No
Read offset correction                      : 6
Overread into Lead-In and Lead-Out          : No
Fill up missing offset samples with silence : Yes
Delete leading and trailing silent blocks   : No
Null samples used in CRC calculations       : Yes
Used interface                              : Installed external ASPI interface
Used output format              : User Defined Encoder
Selected bitrate                : 32 kBit/s
Quality                         : High
Add ID3 tag                     : No
Command line compressor         : C:\Program Files\Exact Audio Copy\FLAC\FLAC.EXE
Additional command line options : -8 -V %s
TOC of the extracted CD
     Track |   Start  |  Length  | Start sector | End sector
    ---------------------------------------------------------
        1  |  0:00.33 |  3:07.67 |        33    |    14124
        2  |  3:08.25 | 16:00.05 |     14125    |    86129
        3  | 19:08.30 |  3:30.70 |     86130    |   101949
        4  | 22:39.25 |  3:34.10 |    101950    |   118009
        5  | 26:13.35 |  3:28.18 |    118010    |   133627
        6  | 29:41.53 |  3:16.22 |    133628    |   148349
        7  | 32:58.00 |  6:11.48 |    148350    |   176222
        8  | 39:09.48 |  3:06.30 |    176223    |   190202
Range status and errors
Selected range
     Filename E:\Muzons\Sally Oldfield - Water Bearer (1978, 1986)\Sally Oldfield - Water Bearer.wav
     Peak level 100.0 %
     Range quality 100.0 %
     Test CRC 7FDE90A2
     Copy CRC 7FDE90A2
     Copy OK
No errors occurred
AccurateRip summary
Track  1  accurately ripped (confidence 5)  [67A2F91C]
Track  2  accurately ripped (confidence 6)  [551725BD]
Track  3  accurately ripped (confidence 6)  [3F192319]
Track  4  accurately ripped (confidence 6)  [59CB9BF5]
Track  5  accurately ripped (confidence 5)  [D46220D4]
Track  6  accurately ripped (confidence 6)  [8F6E2D2D]
Track  7  accurately ripped (confidence 4)  [AA95C481]
Track  8  accurately ripped (confidence 6)  [2E11FCA3]
All tracks accurately ripped
End of status report
Код:
REM GENRE Celtic
REM DATE 1978
REM DISCID 6009E808
REM COMMENT "ExactAudioCopy v0.99pb5"
PERFORMER "Sally Oldfield"
TITLE "Water Bearer"
FILE "Sally Oldfield - Water Bearer.flac" WAVE
  TRACK 01 AUDIO
    TITLE "Water Bearer"
    PERFORMER "Sally Oldfield"
    INDEX 00 00:00:00
    INDEX 01 00:00:33
  TRACK 02 AUDIO
    TITLE "Songs of the Quendi"
    PERFORMER "Sally Oldfield"
    INDEX 01 03:08:25
  TRACK 03 AUDIO
    TITLE "Mirrors"
    PERFORMER "Sally Oldfield"
    INDEX 00 19:06:65
    INDEX 01 19:08:30
  TRACK 04 AUDIO
    TITLE "Weaver"
    PERFORMER "Sally Oldfield"
    INDEX 00 22:37:38
    INDEX 01 22:39:25
  TRACK 05 AUDIO
    TITLE "Night of the Hunter's Moon"
    PERFORMER "Sally Oldfield"
    INDEX 00 26:10:55
    INDEX 01 26:13:35
  TRACK 06 AUDIO
    TITLE "Child of Allah"
    PERFORMER "Sally Oldfield"
    INDEX 01 29:41:53
  TRACK 07 AUDIO
    TITLE "Song of the Bow ~ Fire and Honey"
    PERFORMER "Sally Oldfield"
    INDEX 01 32:58:00
  TRACK 08 AUDIO
    TITLE "Song of The Healer"
    PERFORMER "Sally Oldfield"
    INDEX 01 39:09:48
источник: мой рип, картинки.
Правила, инструкции, FAQ!!!
Торрент  Добавлен [26 мар 2019, 20:43] Скачать торрент Магнет ссылка
Скачать торрент
[ Размер 11.22 КБ / Просмотров 5 ]

Статус
Проверен 
 
Размер  266.17 МБ
Приватный: Нет (DHT включён)
.torrent скачан  1
 


     Отправить личное сообщение
   
Страница 1 из 1
Показать сообщения за:  Поле сортировки  
Начать новую тему Ответить на тему


Сейчас этот форум просматривают: нет зарегистрированных пользователей и гости: 0


Вы не можете начинать темы
Вы не можете отвечать на сообщения
Вы не можете редактировать свои сообщения
Вы не можете удалять свои сообщения
Вы не можете добавлять вложения

Перейти:  
cron