Начать новую тему Ответить на тему
Статистика раздачи
Размер: 197.54 МБ | Добавлен: 26 мар 2019, 20:06 | Скачали: 0
Сидеров: 0  [0 байт/сек]    Личеров: 0  [0 байт/сек]
Пред. тема | След. тема 

Автор
Сообщение

СообщениеДобавлено: 26 мар 2019, 20:06 

Ответить с цитатой 

Sally Oldfield - Playing In The Flame
Жанр: Pop/Prog/Folk
Год выпуска диска: 1981, 1990
Страна: Ireland
Производитель диска: Castle / CLACD 215
Аудио кодек: FLAC
Тип рипа: image+.cue
Битрейт аудио: lossless
Продолжительность: 37:12
Наличие сканов в содержимом раздачи: да
Трэклист:
01. Playing in the Flame (5:08)
02. Love of a Lifetime (4:17)
03. River of My Childhood (4:05)
04. Let It All Go (3:03)
05. Song of the Lamp (3:25)
06. Rare Lightning (4:48)
07. Manchild (3:58)
08. It's a Long Time (3:38)
09. Song of the Being (4:45)
Sally Oldfield - Guitar, Vocals
Robert Ahwry - Guitar
Aswad
Eddie Blair - Trumpet
Hugh Burns - Guitar
Sarah Cawley - Vocals
Mel Collins - Saxophone
Betsy Cook - Synthesizer
Dave Davani - Organ
Wynford Evans - Vocals
Herbie Flowers - Bass
Sarah Franklyn - Vocals
Colin Green - Guitar
Melanie Howard - Vocals
Bob Jenkins - Drums
Steve Lipson - Guitar, Vocals
Julian Littman - Vocals
Andrew McCrorie Shand - Synthesizer
Charlie Morgan - Drums
Ray Oldfield - Vocals
Kevin Peek - Guitar
Frank Ricotti - Percussion
Gary Twigg - Bass
Peter Van Hooke - Drums
Godfrey Wang - Synthesizer
Derek Watkins - Horn
Pete Willsher - Guitar (Steel)
Gavyn Wright - Viola
Доп. информация: http://www.progarchives.com/artist.asp?id=5740
Код:
Exact Audio Copy V0.99 prebeta 5 from 4. May 2009
Отчёт EAC об извлечении, выполненном 17. января 2011, 16:33
Sally Oldfield / Playing In The Flame
Дисковод: TEAC    CD-W552E   Adapter: 1  ID: 0
Режим чтения                 : Достоверность
Использование точного потока : Да
Отключение кэша аудио        : Да
Использование указателей C2  : Нет
Коррекция смещения при чтении                     : 6
Способность читать области Lead-in и Lead-out     : Нет
Заполнение пропущенных сэмплов тишиной            : Да
Удаление блоков с тишиной в начале и конце        : Нет
При вычислениях CRC использовались нулевые сэмплы : Да
Интерфейс                                         : Установленный внешний ASPI-интерфейс
Выходной формат          : Пользовательский кодировщик
Выбранный битрейт        : 32 kBit/s
Качество                 : Высокий
Добавление ID3-тэга      : Нет
Утилита сжатия           : C:\Program Files\Exact Audio Copy\FLAC\FLAC.EXE
Дополнительные параметры : -8 -V %s
TOC извлечённого CD
     Трек |   Старт  | Длительность | Начальный сектор | Конечный сектор
    ---------------------------------------------------------------------
       1  |  0:00.32 |    5:08.70   |          32      |      23201
       2  |  5:09.27 |    4:17.25   |       23202      |      42501
       3  |  9:26.52 |    4:05.60   |       42502      |      60936
       4  | 13:32.37 |    3:03.58   |       60937      |      74719
       5  | 16:36.20 |    3:25.65   |       74720      |      90159
       6  | 20:02.10 |    4:48.52   |       90160      |     111811
       7  | 24:50.62 |    3:58.03   |      111812      |     129664
       8  | 28:48.65 |    3:38.22   |      129665      |     146036
       9  | 32:27.12 |    4:45.40   |      146037      |     167451
Характеристики диапазона извлечения и сообщения об ошибках
Выбранный диапазон
     Имя файла C:\Program Files\BitComet\Downloads\Sally Oldfield - Playing In The Flame (1981)\Sally Oldfield - Playing In The Flame.wav
     Пиковый уровень 100.0 %
     Качество диапазона 100.0 %
     CRC теста F0909309
     CRC копии F0909309
     Копирование... OK
Ошибок не произошло
AccurateRip: сводка
Трек  1  точное извлечение (доверие 6)  [B0DC4BB4]
Трек  2  точное извлечение (доверие 6)  [2A16AA25]
Трек  3  точное извлечение (доверие 6)  [841A87D2]
Трек  4  точное извлечение (доверие 6)  [370BFEEA]
Трек  5  точное извлечение (доверие 5)  [BF4F7BF5]
Трек  6  точное извлечение (доверие 6)  [9BCD728B]
Трек  7  точное извлечение (доверие 6)  [1B88D5F0]
Трек  8  точное извлечение (доверие 6)  [939E7F1D]
Трек  9  точное извлечение (доверие 6)  [565A40DA]
Все треки извлечены точно
Конец отчёта
Код:
REM GENRE "Progressive Rock"
REM DATE 1981
REM DISCID 7A08B809
REM COMMENT "ExactAudioCopy v0.99pb5"
PERFORMER "Sally Oldfield"
TITLE "Playing In The Flame"
FILE "Sally Oldfield - Playing In The Flame.flac" WAVE
  TRACK 01 AUDIO
    TITLE "Playing In The Flame"
    PERFORMER "Sally Oldfield"
    INDEX 00 00:00:00
    INDEX 01 00:00:32
  TRACK 02 AUDIO
    TITLE "Love Of A Lifetime"
    PERFORMER "Sally Oldfield"
    INDEX 00 05:07:65
    INDEX 01 05:09:27
  TRACK 03 AUDIO
    TITLE "River Of My Childhood"
    PERFORMER "Sally Oldfield"
    INDEX 00 09:24:02
    INDEX 01 09:26:52
  TRACK 04 AUDIO
    TITLE "Let It All Go"
    PERFORMER "Sally Oldfield"
    INDEX 00 13:29:62
    INDEX 01 13:32:37
  TRACK 05 AUDIO
    TITLE "Song Of The Lamp"
    PERFORMER "Sally Oldfield"
    INDEX 00 16:33:42
    INDEX 01 16:36:20
  TRACK 06 AUDIO
    TITLE "Rare Lightning"
    PERFORMER "Sally Oldfield"
    INDEX 00 19:59:45
    INDEX 01 20:02:10
  TRACK 07 AUDIO
    TITLE "Man Child"
    PERFORMER "Sally Oldfield"
    INDEX 00 24:49:40
    INDEX 01 24:50:62
  TRACK 08 AUDIO
    TITLE "It's A Long Time"
    PERFORMER "Sally Oldfield"
    INDEX 00 28:48:05
    INDEX 01 28:48:65
  TRACK 09 AUDIO
    TITLE "Song Of The Being"
    PERFORMER "Sally Oldfield"
    INDEX 00 32:25:15
    INDEX 01 32:27:12
Код:
[CUETools log; Date: 18.01.2011 0:49:58; Version: 2.0.9]
Pregap length 00:00:32.
[CTDB TOCID: upF2fZiONzLL5lQ6NXt39L.1j3s-] disk not present in database.
[AccurateRip ID: 000ceab7-005db4b3-7a08b809] found.
Track   [ CRC    ] Status
 01     [b0dc4bb4] (06/10) Accurately ripped
 02     [2a16aa25] (06/10) Accurately ripped
 03     [841a87d2] (06/10) Accurately ripped
 04     [370bfeea] (06/10) Accurately ripped
 05     [bf4f7bf5] (05/09) Accurately ripped
 06     [9bcd728b] (06/10) Accurately ripped
 07     [1b88d5f0] (06/10) Accurately ripped
 08     [939e7f1d] (06/10) Accurately ripped
 09     [565a40da] (06/10) Accurately ripped
Offsetted by -295:
 01     [3e259f56] (04/10) Accurately ripped
 02     [406be615] (04/10) Accurately ripped
 03     [f980820d] (04/10) Accurately ripped
 04     [80187d6c] (04/10) Accurately ripped
 05     [e2447429] (04/09) Accurately ripped
 06     [5c87e42d] (04/10) Accurately ripped
 07     [9a30f63b] (04/10) No match but offset
 08     [21e4dbb8] (04/10) Accurately ripped
 09     [c3b1eb60] (04/10) Accurately ripped
Track Peak [ CRC32  ] [W/O NULL] [  LOG   ]
 --  100,0 [F0909309] [A9A4B9CC]   CRC32
 01  100,0 [3346CB25] [BB286F3C]
 02   89,4 [1D8D2296] [23AC482B]
 03   68,6 [95D2F970] [FEDAF340]
 04   54,2 [0D0084B7] [3379D675]
 05   55,4 [7B4DD537] [F50A2701]
 06   69,5 [249B92CD] [0F6F0B8D]
 07   70,9 [FAEBFAD1] [27FD4E3B]
 08   50,6 [A8A9B665] [64A16F33]
 09   57,3 [B11F344B] [4A373EBB]
источник: erro
Правила, инструкции, FAQ!!!
Торрент  Добавлен [26 мар 2019, 20:06] Скачать торрент Магнет ссылка
Скачать торрент
[ Размер 16.28 КБ / Просмотров 7 ]

Статус
Проверен 
 
Размер  197.54 МБ
Приватный: Нет (DHT включён)
.torrent скачан  0
 


     Отправить личное сообщение
   
Страница 1 из 1
Показать сообщения за:  Поле сортировки  
Начать новую тему Ответить на тему


Сейчас этот форум просматривают: нет зарегистрированных пользователей и гости: 0


Вы не можете начинать темы
Вы не можете отвечать на сообщения
Вы не можете редактировать свои сообщения
Вы не можете удалять свои сообщения
Вы не можете добавлять вложения

Перейти:  
cron