Начать новую тему Ответить на тему
Статистика раздачи
Размер: 257.98 МБ | Добавлен: 26 мар 2019, 19:39 | Скачали: 0
Сидеров: 0  [0 байт/сек]    Личеров: 0  [0 байт/сек]
Пред. тема | След. тема 

Автор
Сообщение

СообщениеДобавлено: 26 мар 2019, 19:39 

Ответить с цитатой 

Sally Oldfield - Easy
Жанр: Pop/Prog/Folk
Год выпуска диска: 1979, 2007
Страна: Ireland
Производитель диска: Universal / POCE-1118 / Japan
Аудио кодек: FLAC
Тип рипа: image+.cue
Битрейт аудио: lossless
Продолжительность: 42:24
Наличие сканов в содержимом раздачи: да
Трэклист:
01. Sun in My Eyes (4:29)
02. You Set My Gypsy Blood Free (3:47)
03. Answering You (4:21)
04. Boulevard Song (3:39)
05. Easy (3:52)
06. Sons of the Free (3:56)
07. Hide & Seek (4:31)
08. First Born of the Earth (4:36)
09. Man of Storm (5:27)
10. Sun in My Eyes (Remix Version) (3:42)
Sally Oldfield - Guitar, Keyboards, Vocals, Wind
Robert Ahwry - Guitar
Herbie Flowers - Bass
Ken Freeman - Synthesizer
Graham Jarvis - Drums
Nigel Jenkins - Guitar
Terence Johns - Horn
Dave Mattacks - Drums
Andrew McGavin - Horn
Simon Mortimer - Percussion
Kevin Peek - Guitar
Frank Ricotti - Percussion
Darryl Runswick - Bass
Pete Willsher - Guitar (Steel)
Hans Zimmer - Synthesizer
Доп. информация: http://www.progarchives.com/artist.asp?id=5740
Код:
Exact Audio Copy V0.99 prebeta 5 from 4. May 2009
Отчёт EAC об извлечении, выполненном 17. января 2011, 16:20
Sally Oldfield / Easy
Дисковод: PLEXTOR DVDR   PX-810SA   Adapter: 3  ID: 1
Режим чтения                 : Достоверность
Использование точного потока : Да
Отключение кэша аудио        : Да
Использование указателей C2  : Нет
Коррекция смещения при чтении                     : 48
Способность читать области Lead-in и Lead-out     : Нет
Заполнение пропущенных сэмплов тишиной            : Да
Удаление блоков с тишиной в начале и конце        : Нет
При вычислениях CRC использовались нулевые сэмплы : Да
Интерфейс                                         : Установленный внешний ASPI-интерфейс
Выходной формат          : Пользовательский кодировщик
Выбранный битрейт        : 32 kBit/s
Качество                 : Высокий
Добавление ID3-тэга      : Нет
Утилита сжатия           : C:\Program Files\Exact Audio Copy\FLAC\FLAC.EXE
Дополнительные параметры : -8 -V %s
TOC извлечённого CD
     Трек |   Старт  | Длительность | Начальный сектор | Конечный сектор
    ---------------------------------------------------------------------
       1  |  0:00.00 |    4:29.43   |           0      |      20217
       2  |  4:29.43 |    3:47.30   |       20218      |      37272
       3  |  8:16.73 |    4:21.30   |       37273      |      56877
       4  | 12:38.28 |    3:39.60   |       56878      |      73362
       5  | 16:18.13 |    3:52.10   |       73363      |      90772
       6  | 20:10.23 |    3:56.25   |       90773      |     108497
       7  | 24:06.48 |    4:31.07   |      108498      |     128829
       8  | 28:37.55 |    4:36.70   |      128830      |     149599
       9  | 33:14.50 |    5:27.16   |      149600      |     174140
      10  | 38:41.66 |    3:42.27   |      174141      |     190817
Характеристики диапазона извлечения и сообщения об ошибках
Выбранный диапазон
     Имя файла C:\Program Files\BitComet\Downloads\Sally Oldfield - Easy (1979) (2007- Remaster)\Sally Oldfield - Easy.wav
     Пиковый уровень 96.6 %
     Качество диапазона 99.9 %
     CRC теста CCBF9077
     CRC копии CCBF9077
     Копирование... OK
Ошибок не произошло
AccurateRip: сводка
Трек  1  нет в базе данных
Трек  2  нет в базе данных
Трек  3  нет в базе данных
Трек  4  нет в базе данных
Трек  5  нет в базе данных
Трек  6  нет в базе данных
Трек  7  нет в базе данных
Трек  8  нет в базе данных
Трек  9  нет в базе данных
Трек 10  нет в базе данных
Ни одного трека нет в базе AccurateRip
Конец отчёта
Код:
REM GENRE "Progressive Rock"
REM DATE 1979
REM DISCID 8B09F00A
REM COMMENT "ExactAudioCopy v0.99pb5"
PERFORMER "Sally Oldfield"
TITLE "Easy"
FILE "Sally Oldfield - Easy.flac" WAVE
  TRACK 01 AUDIO
    TITLE "The Sun in my Eyes"
    PERFORMER "Sally Oldfield"
    INDEX 01 00:00:00
  TRACK 02 AUDIO
    TITLE "You Set my Gypsy Blood Free"
    PERFORMER "Sally Oldfield"
    INDEX 01 04:29:43
  TRACK 03 AUDIO
    TITLE "Answering You"
    PERFORMER "Sally Oldfield"
    INDEX 01 08:16:73
  TRACK 04 AUDIO
    TITLE "The Boulevard Song"
    PERFORMER "Sally Oldfield"
    INDEX 01 12:38:28
  TRACK 05 AUDIO
    TITLE "Easy"
    PERFORMER "Sally Oldfield"
    INDEX 01 16:18:13
  TRACK 06 AUDIO
    TITLE "Sons of the Free"
    PERFORMER "Sally Oldfield"
    INDEX 01 20:10:23
  TRACK 07 AUDIO
    TITLE "Hide and Seek"
    PERFORMER "Sally Oldfield"
    INDEX 01 24:06:48
  TRACK 08 AUDIO
    TITLE "Firstborn of the Earth"
    PERFORMER "Sally Oldfield"
    INDEX 01 28:37:55
  TRACK 09 AUDIO
    TITLE "Man of Storm"
    PERFORMER "Sally Oldfield"
    INDEX 01 33:14:50
  TRACK 10 AUDIO
    TITLE "The Sun in my Eyes (Remix Version)"
    PERFORMER "Sally Oldfield"
    INDEX 00 38:38:08
    INDEX 01 38:41:66
Код:
[CUETools log; Date: 18.01.2011 1:22:39; Version: 2.0.9]
[CTDB TOCID: g4AFVcXCHguNOyRBMjf5HCLmPBA-] disk not present in database.
[AccurateRip ID: 000fb8f8-007e297b-8b09f00a] disk not present in database.
Track Peak [ CRC32  ] [W/O NULL] [  LOG   ]
 --   96,6 [CCBF9077] [8C5A4E33]   CRC32
 01   96,5 [A888AEF2] [8038AE87]
 02   94,1 [D7086119] [08202F15]
 03   92,6 [76AA15D5] [276F205E]
 04   96,1 [28F61432] [B113B023]
 05   96,6 [5535C6A1] [CE1C61D4]
 06   93,3 [1C60D440] [19058DED]
 07   96,6 [F7083427] [E192AF8E]
 08   91,9 [2BEC037E] [1F29AFC1]
 09   88,9 [8BAEFF9E] [5D2D1A40]
 10   95,3 [E600D73B] [33D68897]
Код:
AUDIOCHECKER v1.2 - by Dester - opdester@freemail.hu
~~~~~~~~~~~~~~~~~
1 -===- C:\Program Files\BitComet\Downloads\Sally Oldfield - Easy (1979) (2007- Remaster)\Sally Oldfield - Easy.flac
  Extracted successfully
  Conclusion: This track looks like CDDA with probability 100%
источник: erro
Правила, инструкции, FAQ!!!
Торрент  Добавлен [26 мар 2019, 19:39] Скачать торрент Магнет ссылка
Скачать торрент
[ Размер 10.83 КБ / Просмотров 6 ]

Статус
Проверен 
 
Размер  257.98 МБ
Приватный: Нет (DHT включён)
.torrent скачан  0
 


     Отправить личное сообщение
   
Страница 1 из 1
Показать сообщения за:  Поле сортировки  
Начать новую тему Ответить на тему


Сейчас этот форум просматривают: нет зарегистрированных пользователей и гости: 0


Вы не можете начинать темы
Вы не можете отвечать на сообщения
Вы не можете редактировать свои сообщения
Вы не можете удалять свои сообщения
Вы не можете добавлять вложения

Перейти:  
cron