Начать новую тему Ответить на тему
Статистика раздачи
Размер: 246.98 МБ | Добавлен: 26 мар 2019, 20:24 | Скачали: 1
Сидеров: 0  [0 байт/сек]    Личеров: 1  [0 байт/сек]
Пред. тема | След. тема 

Автор
Сообщение

СообщениеДобавлено: 26 мар 2019, 20:24 

Ответить с цитатой 

Gene Pitney - Gene Pitney Anthology 1961-1968
Жанр: Pop
Год выпуска диска: 1986
Производитель диска: USA
Аудио кодек: APE
Тип рипа: image+.cue
Битрейт аудио: lossless
Продолжительность: 44:22
Трэклист:
1. (I Wanna) Love My Life Away (1:55)
2. Every Breath I Take (2:48)
3. Town Without Pity (2:56)
4. (The Man Who Shot) Liberty Valance (2:57)
5. Only Love Can Break A Heart (2:53)
6. Half Heaven-Half Heartache (2:46)
7. Mecca (2:23)
8. True Love Never Runs Smooth (2:28)
9. Twenty Four Hours From Tulsa (3:01)
10. That Girl Belongs To Yesterday (2:53)
11. It Hurts To Be In Love (2:37)
12. I'm Gonna Be Strong (2:17)
13. Last Chance To Turn Around (3:07)
14. Looking Through The Eyes Of Love (3:18)
15. Just One Smile (2:47)
16. She's A Heartbreaker (3:16)
Exact Audio Copy V0.99 prebeta 4 from 23. January 2008
EAC extraction logfile from 15. September 2009, 19:34
Gene Pitney / Gene Pitney Anthology 1961-1968
Used drive : Optiarc DVD RW AD-7630A Adapter: 1 ID: 0
Read mode : Secure
Utilize accurate stream : Yes
Defeat audio cache : Yes
Make use of C2 pointers : No
Read offset correction : 48
Overread into Lead-In and Lead-Out : No
Fill up missing offset samples with silence : Yes
Delete leading and trailing silent blocks : No
Null samples used in CRC calculations : Yes
Used interface : Installed external ASPI interface
Used output format : Internal WAV Routines
Sample format : 44.100 Hz; 16 Bit; Stereo
TOC of the extracted CD
Track | Start | Length | Start sector | End sector
---------------------------------------------------------
1 | 0:00.00 | 1:55.60 | 0 | 8684
2 | 1:55.60 | 2:48.62 | 8685 | 21346
3 | 4:44.47 | 2:56.68 | 21347 | 34614
4 | 7:41.40 | 2:57.45 | 34615 | 47934
5 | 10:39.10 | 2:53.67 | 47935 | 60976
6 | 13:33.02 | 2:46.40 | 60977 | 73466
7 | 16:19.42 | 2:23.18 | 73467 | 84209
8 | 18:42.60 | 2:28.62 | 84210 | 95371
9 | 21:11.47 | 3:01.28 | 95372 | 108974
10 | 24:13.00 | 2:53.45 | 108975 | 121994
11 | 27:06.45 | 2:37.02 | 121995 | 133771
12 | 29:43.47 | 2:17.60 | 133772 | 144106
13 | 32:01.32 | 3:07.55 | 144107 | 158186
14 | 35:09.12 | 3:18.73 | 158187 | 173109
15 | 38:28.10 | 2:47.20 | 173110 | 185654
16 | 41:15.30 | 3:16.70 | 185655 | 200424
Range status and errors
Selected range
Filename C:\temp\Gene Pitney - Gene Pitney Anthology 1961-1968.wav
Peak level 96.0 %
Range quality 99.9 %
Copy CRC CCA896A1
Copy OK
No errors occurred
AccurateRip summary
Track 1 cannot be verified as accurate (confidence 2) [F5CAA3C5], AccurateRip returned [2990A0D2]
Track 2 cannot be verified as accurate (confidence 2) [671187D5], AccurateRip returned [97B63A13]
Track 3 cannot be verified as accurate (confidence 2) [BE1878BB], AccurateRip returned [2BAE3C7E]
Track 4 cannot be verified as accurate (confidence 2) [DE782509], AccurateRip returned [A2989C16]
Track 5 cannot be verified as accurate (confidence 2) [05C62118], AccurateRip returned [30A2D929]
Track 6 cannot be verified as accurate (confidence 2) [3909329F], AccurateRip returned [5B91328D]
Track 7 cannot be verified as accurate (confidence 2) [27213A73], AccurateRip returned [83CFCA3D]
Track 8 cannot be verified as accurate (confidence 2) [8A252369], AccurateRip returned [9D2F0C49]
Track 9 cannot be verified as accurate (confidence 2) [F5176255], AccurateRip returned [745FFC87]
Track 10 cannot be verified as accurate (confidence 2) [C1DB2DE1], AccurateRip returned [8F37DA26]
Track 11 cannot be verified as accurate (confidence 2) [44CCB3C6], AccurateRip returned [D10D7668]
Track 12 cannot be verified as accurate (confidence 2) [4495004D], AccurateRip returned [64287309]
Track 13 cannot be verified as accurate (confidence 2) [05FC42B3], AccurateRip returned [60B59926]
Track 14 cannot be verified as accurate (confidence 2) [76E9A3BB], AccurateRip returned [CF136A49]
Track 15 cannot be verified as accurate (confidence 2) [2A4968B9], AccurateRip returned [F017C64D]
Track 16 cannot be verified as accurate (confidence 2) [C608B974], AccurateRip returned [3BBE8C73]
No tracks could be verified as accurate
You may have a different pressing from the one(s) in the database
End of status report
Правила, инструкции, FAQ!!!
Торрент  Добавлен [26 мар 2019, 20:24] Скачать торрент Магнет ссылка
Скачать торрент
[ Размер 20.1 КБ / Просмотров 11 ]

Статус
Проверен 
 
Размер  246.98 МБ
Приватный: Нет (DHT включён)
.torrent скачан  1
 


     Отправить личное сообщение
   
Страница 1 из 1
Показать сообщения за:  Поле сортировки  
Начать новую тему Ответить на тему


Сейчас этот форум просматривают: нет зарегистрированных пользователей и гости: 0


Вы не можете начинать темы
Вы не можете отвечать на сообщения
Вы не можете редактировать свои сообщения
Вы не можете удалять свои сообщения
Вы не можете добавлять вложения

Перейти:  
cron