Начать новую тему Ответить на тему
Статистика раздачи
Размер: 608.02 МБ | Добавлен: 26 мар 2019, 19:30 | Скачали: 0
Сидеров: 0  [0 байт/сек]    Личеров: 0  [0 байт/сек]
Пред. тема | След. тема 

Автор
Сообщение

СообщениеДобавлено: 26 мар 2019, 19:30 

Ответить с цитатой 

Max Pezzali - Max 20
Жанр: Pop
Носитель: CD
Страна-производитель диска: E.U.
Год издания: 2013
Издатель (лейбл): Warner Music Italia
Номер по каталогу: 5053105780129
Страна: Italy
Аудиокодек: FLAC (*.flac)
Тип рипа: tracks+.cue
Битрейт аудио: lossless
Продолжительность: 1:17:40.280
Источник (релизер): WWW
Наличие сканов в содержимом раздачи: да
Треклист:
01. Welcome Mr. President [2:13]
02. Il presidente di tutto il mondo [3:47]
03. I cowboy non mollano [4:12]
04. Ragazzo inadeguato [3:41]
05. L'universo tranne noi [4:16]
06. Tieni il tempo 2013 (feat. Lorenzo Jovanotti Cherubini) [3:35]
07. Lo strano percorso (feat. Eros Ramazzotti) [4:11]
08. Ti sento vivere (feat. Giuliano Sangiorgi) [3:53]
09. Gli anni (feat. Cesare Cremonini) [4:15]
10. Come mai (feat. Claudio Baglioni) [4:16]
11. Sei un mito (feat. Fiorello) [4:19]
12. Quello che capita (feat. Antonello Venditti) [4:00]
13. Sei fantastica (feat. Raf) [3:42]
14. Come deve andare (feat. Davide Van De Sfroos) [4:35]
15. Nessun rimpianto (feat. Nek) [4:21]
16. Eccoti (feat. Francesco Renga) [4:05]
17. La dura legge del gol (feat. Edoardo Bennato) [4:41]
18. Rotta x casa di Dio (feat. Gianluca Grignani) [5:00]
19. Nord sud ovest est (feat. Elio) [4:28]
Код:
Exact Audio Copy V1.0 beta 3 from 29. August 2011
EAC extraction logfile from 13. December 2013, 14:12
Max Pezzali / Max 20
Used drive  : TSSTcorpDVDWBD SH-B123L   Adapter: 5  ID: 0
Read mode               : Secure
Utilize accurate stream : Yes
Defeat audio cache      : Yes
Make use of C2 pointers : No
Read offset correction                      : 6
Overread into Lead-In and Lead-Out          : No
Fill up missing offset samples with silence : Yes
Delete leading and trailing silent blocks   : No
Null samples used in CRC calculations       : Yes
Used interface                              : Installed external ASPI interface
Gap handling                                : Appended to previous track
Used output format              : User Defined Encoder
Selected bitrate                : 1024 kBit/s
Quality                         : High
Add ID3 tag                     : No
Command line compressor         : C:\Program Files (x86)\Exact Audio Copy\Flac\flac.exe
Additional command line options : -8 -V -T "ARTIST=%artist%" -T "TITLE=%title%" -T "ALBUM=%albumtitle%" -T "DATE=%year%" -T "TRACKNUMBER=%tracknr%" -T "GENRE=%genre%" -T "PERFORMER=%albuminterpret%" -T "COMPOSER=%composer%" %haslyrics%--tag-from-file=LYRICS="%lyricsfile%"%haslyrics% -T "ALBUMARTIST=%albumartist%" -T "DISCNUMBER=%cdnumber%" -T "TOTALDISCS=%totalcds%" -T "TOTALTRACKS=%numtracks%" -T "COMMENT= EAC Secure Mode, Test & Copy, AccurateRip, FLAC -8 %comment%" %source% -o %dest%
TOC of the extracted CD
     Track |   Start  |  Length  | Start sector | End sector
    ---------------------------------------------------------
        1  |  0:00.00 |  2:13.38 |         0    |    10012
        2  |  2:13.38 |  3:47.10 |     10013    |    27047
        3  |  6:00.48 |  4:12.21 |     27048    |    45968
        4  | 10:12.69 |  3:41.38 |     45969    |    62581
        5  | 13:54.32 |  4:16.21 |     62582    |    81802
        6  | 18:10.53 |  3:35.60 |     81803    |    97987
        7  | 21:46.38 |  4:11.12 |     97988    |   116824
        8  | 25:57.50 |  3:53.68 |    116825    |   134367
        9  | 29:51.43 |  4:15.64 |    134368    |   153556
       10  | 34:07.32 |  4:16.30 |    153557    |   172786
       11  | 38:23.62 |  4:19.60 |    172787    |   192271
       12  | 42:43.47 |  4:00.43 |    192272    |   210314
       13  | 46:44.15 |  3:42.72 |    210315    |   227036
       14  | 50:27.12 |  4:35.03 |    227037    |   247664
       15  | 55:02.15 |  4:21.48 |    247665    |   267287
       16  | 59:23.63 |  4:05.51 |    267288    |   285713
       17  | 63:29.39 |  4:41.61 |    285714    |   306849
       18  | 68:11.25 |  5:00.29 |    306850    |   329378
       19  | 73:11.54 |  4:28.42 |    329379    |   349520
Track  1
     Filename C:\EAC\01. Max Pezzali - Welcome Mr. President (feat. Mauro Repetto).wav
     Pre-gap length  0:00:02.00
     Peak level 98.6 %
     Extraction speed 2.1 X
     Track quality 100.0 %
     Test CRC 2495A908
     Copy CRC 2495A908
     Track not present in AccurateRip database
     Copy OK
Track  2
     Filename C:\EAC\02. Max Pezzali - Il presidente di tutto il mondo.wav
     Peak level 97.3 %
     Extraction speed 2.3 X
     Track quality 100.0 %
     Test CRC 489D3F11
     Copy CRC 489D3F11
     Track not present in AccurateRip database
     Copy OK
Track  3
     Filename C:\EAC\03. Max Pezzali - I cowboy non mollano.wav
     Peak level 98.6 %
     Extraction speed 2.6 X
     Track quality 100.0 %
     Test CRC B2B09086
     Copy CRC B2B09086
     Track not present in AccurateRip database
     Copy OK
Track  4
     Filename C:\EAC\04. Max Pezzali - Ragazzo inadeguato.wav
     Peak level 98.6 %
     Extraction speed 2.7 X
     Track quality 100.0 %
     Test CRC 90E7A15E
     Copy CRC 90E7A15E
     Track not present in AccurateRip database
     Copy OK
Track  5
     Filename C:\EAC\05. Max Pezzali - L'universo tranne noi.wav
     Peak level 98.8 %
     Extraction speed 2.4 X
     Track quality 99.9 %
     Test CRC 10C53457
     Copy CRC 10C53457
     Track not present in AccurateRip database
     Copy OK
Track  6
     Filename C:\EAC\06. Max Pezzali - Tieni il tempo 2013 (feat. Jovanotti).wav
     Peak level 98.6 %
     Extraction speed 2.4 X
     Track quality 99.9 %
     Test CRC 1D50F7E5
     Copy CRC 1D50F7E5
     Track not present in AccurateRip database
     Copy OK
Track  7
     Filename C:\EAC\07. Max Pezzali - Lo strano percorso (feat. Eros Ramazzotti).wav
     Peak level 98.6 %
     Extraction speed 3.2 X
     Track quality 100.0 %
     Test CRC D21D419D
     Copy CRC D21D419D
     Track not present in AccurateRip database
     Copy OK
Track  8
     Filename C:\EAC\08. Max Pezzali - Ti sento vivere (feat. Giuliano Sangiorgi).wav
     Peak level 98.6 %
     Extraction speed 3.3 X
     Track quality 100.0 %
     Test CRC 02C1BD94
     Copy CRC 02C1BD94
     Track not present in AccurateRip database
     Copy OK
Track  9
     Filename C:\EAC\09. Max Pezzali - Gli anni (feat. Cesare Cremonini).wav
     Peak level 97.7 %
     Extraction speed 3.5 X
     Track quality 100.0 %
     Test CRC F41CF820
     Copy CRC F41CF820
     Track not present in AccurateRip database
     Copy OK
Track 10
     Filename C:\EAC\10. Max Pezzali - Come mai (feat. Claudio Baglioni).wav
     Peak level 97.7 %
     Extraction speed 3.7 X
     Track quality 100.0 %
     Test CRC 3AF253B3
     Copy CRC 3AF253B3
     Track not present in AccurateRip database
     Copy OK
Track 11
     Filename C:\EAC\11. Max Pezzali - Sei un mito (feat. Fiorello).wav
     Peak level 98.8 %
     Extraction speed 3.8 X
     Track quality 100.0 %
     Test CRC FD773A7C
     Copy CRC FD773A7C
     Track not present in AccurateRip database
     Copy OK
Track 12
     Filename C:\EAC\12. Max Pezzali - Quello che capita (feat. Antonello Venditti).wav
     Peak level 98.6 %
     Extraction speed 3.9 X
     Track quality 100.0 %
     Test CRC 0DB712CF
     Copy CRC 0DB712CF
     Track not present in AccurateRip database
     Copy OK
Track 13
     Filename C:\EAC\13. Max Pezzali - Sei fantastica (feat. Raf).wav
     Peak level 98.6 %
     Extraction speed 3.9 X
     Track quality 100.0 %
     Test CRC A1655BE7
     Copy CRC A1655BE7
     Track not present in AccurateRip database
     Copy OK
Track 14
     Filename C:\EAC\14. Max Pezzali - Come deve andare (feat. Davide Van de Sfroos).wav
     Peak level 98.6 %
     Extraction speed 4.2 X
     Track quality 100.0 %
     Test CRC 0B7ABF1F
     Copy CRC 0B7ABF1F
     Track not present in AccurateRip database
     Copy OK
Track 15
     Filename C:\EAC\15. Max Pezzali - Nessun rimpianto (feat. Nek).wav
     Peak level 98.6 %
     Extraction speed 4.3 X
     Track quality 100.0 %
     Test CRC F7250696
     Copy CRC F7250696
     Track not present in AccurateRip database
     Copy OK
Track 16
     Filename C:\EAC\16. Max Pezzali - Eccoti (feat. Francesco Renga).wav
     Peak level 98.6 %
     Extraction speed 3.1 X
     Track quality 99.9 %
     Test CRC 8ADFDAD9
     Copy CRC 8ADFDAD9
     Track not present in AccurateRip database
     Copy OK
Track 17
     Filename C:\EAC\17. Max Pezzali - La dura legge del gol (feat. Edoardo Bennato).wav
     Peak level 98.8 %
     Extraction speed 4.4 X
     Track quality 100.0 %
     Test CRC 9547B2CA
     Copy CRC 9547B2CA
     Track not present in AccurateRip database
     Copy OK
Track 18
     Filename C:\EAC\18. Max Pezzali - Rotta x casa di Dio (feat. Gianluca Grignani).wav
     Peak level 98.6 %
     Extraction speed 4.7 X
     Track quality 100.0 %
     Test CRC 222D46B8
     Copy CRC 222D46B8
     Track not present in AccurateRip database
     Copy OK
Track 19
     Filename C:\EAC\19. Max Pezzali - Nord sud ovest est (feat. Elio).wav
     Peak level 98.6 %
     Extraction speed 3.4 X
     Track quality 99.9 %
     Test CRC 36C00940
     Copy CRC 36C00940
     Track not present in AccurateRip database
     Copy OK
None of the tracks are present in the AccurateRip database
No errors occurred
End of status report
---- CUETools DB Plugin V2.1.4
[CTDB TOCID: YGKFgMStzgG8kNrqbj4cs_bWA0c-] disk not present in database
Submit result: YGKFgMStzgG8kNrqbj4cs_bWA0c- has been uploaded
==== Log checksum E93BA7FF8F42FA001C09FE611BE684B43EA35358E9E33EE523C1739F12024530 ====
Код:
REM GENRE Pop
REM DATE 2013
REM DISCID 09123413
REM COMMENT "ExactAudioCopy v1.0b3"
PERFORMER "Max Pezzali"
TITLE "Max 20"
FILE "01. Max Pezzali - Welcome Mr. President (feat. Mauro Repetto).wav" WAVE
  TRACK 01 AUDIO
    TITLE "Welcome Mr. President"
    PERFORMER "Max Pezzali"
    ISRC ITQ001300080
    INDEX 01 00:00:00
FILE "02. Max Pezzali - Il presidente di tutto il mondo.wav" WAVE
  TRACK 02 AUDIO
    TITLE "Il presidente di tutto il mondo"
    PERFORMER "Max Pezzali"
    ISRC ITQ001300081
    INDEX 01 00:00:00
FILE "03. Max Pezzali - I cowboy non mollano.wav" WAVE
  TRACK 03 AUDIO
    TITLE "I cowboy non mollano"
    PERFORMER "Max Pezzali"
    ISRC ITQ001300075
    INDEX 01 00:00:00
FILE "04. Max Pezzali - Ragazzo inadeguato.wav" WAVE
  TRACK 04 AUDIO
    TITLE "Ragazzo inadeguato"
    PERFORMER "Max Pezzali"
    ISRC ITQ001300086
    INDEX 01 00:00:00
FILE "05. Max Pezzali - L'universo tranne noi.wav" WAVE
  TRACK 05 AUDIO
    TITLE "L'universo tranne noi"
    PERFORMER "Max Pezzali"
    ISRC ITQ001300051
    INDEX 01 00:00:00
FILE "06. Max Pezzali - Tieni il tempo 2013 (feat. Jovanotti).wav" WAVE
  TRACK 06 AUDIO
    TITLE "Tieni il tempo 2013 (feat. Lorenzo Jovanotti Cherubini)"
    PERFORMER "Max Pezzali"
    ISRC ITQ001300072
    INDEX 01 00:00:00
FILE "07. Max Pezzali - Lo strano percorso (feat. Eros Ramazzotti).wav" WAVE
  TRACK 07 AUDIO
    TITLE "Lo strano percorso (feat. Eros Ramazzotti)"
    PERFORMER "Max Pezzali"
    ISRC ITQ001300071
    INDEX 01 00:00:00
FILE "08. Max Pezzali - Ti sento vivere (feat. Giuliano Sangiorgi).wav" WAVE
  TRACK 08 AUDIO
    TITLE "Ti sento vivere (feat. Giuliano Sangiorgi)"
    PERFORMER "Max Pezzali"
    ISRC ITQ001300071
    INDEX 01 00:00:00
FILE "09. Max Pezzali - Gli anni (feat. Cesare Cremonini).wav" WAVE
  TRACK 09 AUDIO
    TITLE "Gli anni (feat. Cesare Cremonini)"
    PERFORMER "Max Pezzali"
    ISRC ITQ001300074
    INDEX 01 00:00:00
FILE "10. Max Pezzali - Come mai (feat. Claudio Baglioni).wav" WAVE
  TRACK 10 AUDIO
    TITLE "Come mai (feat. Claudio Baglioni)"
    PERFORMER "Max Pezzali"
    ISRC ITQ001300076
    INDEX 01 00:00:00
FILE "11. Max Pezzali - Sei un mito (feat. Fiorello).wav" WAVE
  TRACK 11 AUDIO
    TITLE "Sei un mito (feat. Fiorello)"
    PERFORMER "Max Pezzali"
    ISRC ITQ001300077
    INDEX 01 00:00:00
FILE "12. Max Pezzali - Quello che capita (feat. Antonello Venditti).wav" WAVE
  TRACK 12 AUDIO
    TITLE "Quello che capita (feat. Antonello Venditti)"
    PERFORMER "Max Pezzali"
    ISRC ITQ001300087
    INDEX 01 00:00:00
FILE "13. Max Pezzali - Sei fantastica (feat. Raf).wav" WAVE
  TRACK 13 AUDIO
    TITLE "Sei fantastica (feat. Raf)"
    PERFORMER "Max Pezzali"
    ISRC ITQ001300079
    INDEX 01 00:00:00
FILE "14. Max Pezzali - Come deve andare (feat. Davide Van de Sfroos).wav" WAVE
  TRACK 14 AUDIO
    TITLE "Come deve andare (feat. Davide Van De Sfroos)"
    PERFORMER "Max Pezzali"
    ISRC ITQ001300082
    INDEX 01 00:00:00
FILE "15. Max Pezzali - Nessun rimpianto (feat. Nek).wav" WAVE
  TRACK 15 AUDIO
    TITLE "Nessun rimpianto (feat. Nek)"
    PERFORMER "Max Pezzali"
    ISRC ITQ001300082
    INDEX 01 00:00:00
FILE "16. Max Pezzali - Eccoti (feat. Francesco Renga).wav" WAVE
  TRACK 16 AUDIO
    TITLE "Eccoti (feat. Francesco Renga)"
    PERFORMER "Max Pezzali"
    ISRC ITQ001300085
    INDEX 01 00:00:00
FILE "17. Max Pezzali - La dura legge del gol (feat. Edoardo Bennato).wav" WAVE
  TRACK 17 AUDIO
    TITLE "La dura legge del gol (feat. Edoardo Bennato)"
    PERFORMER "Max Pezzali"
    ISRC ITQ001300078
    INDEX 01 00:00:00
FILE "18. Max Pezzali - Rotta x casa di Dio (feat. Gianluca Grignani).wav" WAVE
  TRACK 18 AUDIO
    TITLE "Rotta x casa di Dio (feat. Gianluca Grignani)"
    PERFORMER "Max Pezzali"
    ISRC ITQ001300088
    INDEX 01 00:00:00
FILE "19. Max Pezzali - Nord sud ovest est (feat. Elio).wav" WAVE
  TRACK 19 AUDIO
    TITLE "Nord sud ovest est (feat. Elio)"
    PERFORMER "Max Pezzali"
    ISRC ITQ001300084
    INDEX 01 00:00:00
Код:
-----------------------
DON'T MODIFY THIS FILE
-----------------------
PERFORMER: auCDtect Task Manager, ver. 1.6.0 RC1 build 1.6.0.1
Copyright (c) 2008-2010 y-soft. All rights reserved
[url=http://y-soft.org]http://y-soft.org[/url]
ANALYZER: auCDtect: CD records authenticity detector, version 0.8.2
Copyright (c) 2004 Oleg Berngardt. All rights reserved.
Copyright (c) 2004 Alexander Djourik. All rights reserved.
FILE: 01. Max Pezzali - Welcome Mr. President (feat. Mauro Repetto).flac
  Size: 16066302 Hash: 78182ADA1167E293AEF7E4C15EDA5A41 Accuracy: -m0
  Conclusion: CDDA 100%
  Signature: E6F7AA46F31BF90237B4C142A88ECACF1EADEDB9
FILE: 02. Max Pezzali - Il presidente di tutto il mondo.flac
  Size: 28267422 Hash: 5A5829D6BCDABFC77C65A8EA846A7BB4 Accuracy: -m0
  Conclusion: CDDA 100%
  Signature: 1388F888E851350C8453701E3C1FF63DC9FD8AE0
FILE: 03. Max Pezzali - I cowboy non mollano.flac
  Size: 34549014 Hash: 720243051E25B224C549791A8844A4DD Accuracy: -m0
  Conclusion: CDDA 100%
  Signature: F4A34322E3A0004B00FE79FBE5AED8C94261C256
FILE: 04. Max Pezzali - Ragazzo inadeguato.flac
  Size: 30263193 Hash: 10BC16E4ADF8EC974EE6EB7520248818 Accuracy: -m0
  Conclusion: CDDA 100%
  Signature: CCECA7D9008452511F25B12858D98760BFDFBCF8
FILE: 05. Max Pezzali - L'universo tranne noi.flac
  Size: 28756955 Hash: 6C12639E481FCA173EB1CD79E59267D3 Accuracy: -m0
  Conclusion: CDDA 100%
  Signature: 1346FC42A68A7BE16F7C8DA86D30950D6914BFFC
FILE: 06. Max Pezzali - Tieni il tempo 2013 (feat. Jovanotti).flac
  Size: 30052038 Hash: 9756A1CD38CB34B3984BFACE3D871FC4 Accuracy: -m0
  Conclusion: CDDA 100%
  Signature: FCF79E500783F40B05E04D89BB8335C77E98A715
FILE: 07. Max Pezzali - Lo strano percorso (feat. Eros Ramazzotti).flac
  Size: 33671009 Hash: 42AEB2D1BFE2E08BB3CB2211DED9CAD3 Accuracy: -m0
  Conclusion: CDDA 100%
  Signature: EECCE365C059AF8B82AA04D2F0C0DEA2BE286342
FILE: 08. Max Pezzali - Ti sento vivere (feat. Giuliano Sangiorgi).flac
  Size: 28123746 Hash: 40E3FE5410B6CCBB93304D316B4EABE3 Accuracy: -m0
  Conclusion: CDDA 100%
  Signature: 8C0CE71ACE764CD53CE203ABF68DCDB29B5417FD
FILE: 09. Max Pezzali - Gli anni (feat. Cesare Cremonini).flac
  Size: 31115219 Hash: 61D12D41794BA5871A6AC1FF616F1E88 Accuracy: -m0
  Conclusion: CDDA 100%
  Signature: 57ED0CF07849A0B4862AD62C0E2F1B2B08A1C165
FILE: 10. Max Pezzali - Come mai (feat. Claudio Baglioni).flac
  Size: 30416496 Hash: 06870FFE8DB26A37A8DF01A2CCD3D90E Accuracy: -m0
  Conclusion: CDDA 100%
  Signature: 4482BE54618430D187DEA86A1F92F6BE7557B34C
FILE: 11. Max Pezzali - Sei un mito (feat. Fiorello).flac
  Size: 35408648 Hash: 13D29889387FEE9EE70029B00E444955 Accuracy: -m0
  Conclusion: CDDA 100%
  Signature: D18395F150031A36A44B0B1EB321812B4C2900AE
FILE: 12. Max Pezzali - Quello che capita (feat. Antonello Venditti).flac
  Size: 30101511 Hash: D03558A49D8206DBED2BC7C225DEE499 Accuracy: -m0
  Conclusion: CDDA 99%
  Signature: 1BD162298A636B4CA8278E610C0F79120BE9051F
FILE: 13. Max Pezzali - Sei fantastica (feat. Raf).flac
  Size: 29385784 Hash: 5212B8EEC529B6A603B1F080F79638E8 Accuracy: -m0
  Conclusion: CDDA 100%
  Signature: 6E0DEA2F92456BF580A188B8AF6F57E4B1E7E511
FILE: 14. Max Pezzali - Come deve andare (feat. Davide Van de Sfroos).flac
  Size: 33027627 Hash: 370D5900D81B8C8647C2E86E90DED394 Accuracy: -m0
  Conclusion: CDDA 100%
  Signature: 4963FC116D28CC213359CA8E6AB0B792CC838152
FILE: 15. Max Pezzali - Nessun rimpianto (feat. Nek).flac
  Size: 29972655 Hash: 73BB71D3D7504A422C8F5BDAB7ED45C7 Accuracy: -m0
  Conclusion: CDDA 99%
  Signature: F64193CD6B7E8A68DF126DC818D68BE22C33C2EF
FILE: 16. Max Pezzali - Eccoti (feat. Francesco Renga).flac
  Size: 30166467 Hash: C2A058A1E0D480FBECF25926D8AF9C4E Accuracy: -m0
  Conclusion: CDDA 100%
  Signature: 837C117B2B0C7990C52044753A62AB08F9090555
FILE: 17. Max Pezzali - La dura legge del gol (feat. Edoardo Bennato).flac
  Size: 35355676 Hash: 22D705231B752D2A29E058EF8D6CBE17 Accuracy: -m0
  Conclusion: CDDA 100%
  Signature: 2AE633F08B9EA08EA634C972A73E5600C709594B
FILE: 18. Max Pezzali - Rotta x casa di Dio (feat. Gianluca Grignani).flac
  Size: 39201475 Hash: C139DD761C2D6C260AB1E68DD82708AB Accuracy: -m0
  Conclusion: CDDA 100%
  Signature: D65858E1CA14A0CF0F44171BE58482B20C32BB48
FILE: 19. Max Pezzali - Nord sud ovest est (feat. Elio).flac
  Size: 35591539 Hash: A9AFF838E185D8D7C2F96A54AFE2A357 Accuracy: -m0
  Conclusion: CDDA 100%
  Signature: 460957396949AE9F8B22FCC3BCE518C2EACB802D
Правила, инструкции, FAQ!!!
Торрент  Добавлен [26 мар 2019, 19:30] Скачать торрент Магнет ссылка
Скачать торрент
[ Размер 14.77 КБ / Просмотров 1 ]

Статус
Проверен 
 
Размер  608.02 МБ
Приватный: Нет (DHT включён)
.torrent скачан  0
 


     Отправить личное сообщение
   
Страница 1 из 1
Показать сообщения за:  Поле сортировки  
Начать новую тему Ответить на тему


Сейчас этот форум просматривают: нет зарегистрированных пользователей и гости: 0


Вы не можете начинать темы
Вы не можете отвечать на сообщения
Вы не можете редактировать свои сообщения
Вы не можете удалять свои сообщения
Вы не можете добавлять вложения

Перейти:  
cron