Начать новую тему Ответить на тему
Статистика раздачи
Размер: 317.43 МБ | Добавлен: 26 мар 2019, 20:28 | Скачали: 0
Сидеров: 0  [0 байт/сек]    Личеров: 0  [0 байт/сек]
Пред. тема | След. тема 

Автор
Сообщение

СообщениеДобавлено: 26 мар 2019, 20:28 

Ответить с цитатой 

Marie Mai / Version 3.0
Жанр: Pop
Год издания: 2009
Страна: Spain
Аудиокодек: FLAC (*.flac)
Тип рипа: tracks
Битрейт аудио: lossless
Источник (релизер): CDDA
Наличие сканов в содержимом раздачи: нет
Треклист:
01 Déjà Loin 3:31
02 J'attendrai Mon Tour 3:25
03 C'est Moi 3:26
04 Garde Tes Larmes 3:14
05 Secrets 3:43
06 Tout 3:17
07 Pour Une Fois 3:36
08 Comme Avant 3:31
09 Plaisirs Amers 3:20
10 Rebâtir Notre Histoire 3:35
11 Tu L'emportes Sur Moi 3:18
12 Do You 3:33
Код:
Exact Audio Copy V0.99 prebeta 5 from 4. May 2009
Archivo Log de extracciones desde 17. Mayo 2012, 15:13
Marie Mai / Version 3.0
Usar unidad  : TSSTcorpCD/DVDW TS-L632D   Adapter: 1  ID: 0
Modo de Lectura           : Seguro
Utilizar Corriente Exacta : Sí
Descartar Audio caché     : No
Utilizar los punteros C2  : No
Corrección de Desplazamiento de Lectura         : 667
Sobreleer tanto en Lead-In como en Lead-Out     : No
Rellenar las muestras faltantes con silencios   : Sí
Eliminar silencios inicial y final              : No
Se han usado muestras nulas en los cálculos CRC : Sí
Interfaz usada                                  : Interfaz propio de Win32 para Windowns NT y 2000
Gestión de Gaps                                 : No detectada, pero añadida a la pista previa
Formato de Salida utilizado               : Compresor definido por el usuario
Bitrate seleccionado                      : 128 kBit/s
Calidad                                   : Alta
Añadir Etiqueta ID3                       : No
Compresor de linea de comandos            : D:\Música\flac.exe
Opciones adicionales en línea de comandos : -8 -A tukey(0.25) -A gauss(0.1875) -b 4096 -V -T "artist=%a" -T "title=%t" -T "album=%g" -T "date=%y" -T "tracknumber=%n" -T "genre=%m" %s
TOC del CD extraido
     Pista |  Inicio  | Duración | Sector inicial | Sector final
    -------------------------------------------------------------
        1  |  0:00.00 |  3:30.72 |          0     |     15821
        2  |  3:30.72 |  3:25.15 |      15822     |     31211
        3  |  6:56.12 |  3:26.63 |      31212     |     46724
        4  | 10:23.00 |  3:14.45 |      46725     |     61319
        5  | 13:37.45 |  3:42.73 |      61320     |     78042
        6  | 17:20.43 |  3:17.27 |      78043     |     92844
        7  | 20:37.70 |  3:36.31 |      92845     |    109075
        8  | 24:14.26 |  3:31.59 |     109076     |    124959
        9  | 27:46.10 |  3:20.35 |     124960     |    139994
       10  | 31:06.45 |  3:35.49 |     139995     |    156168
       11  | 34:42.19 |  3:18.33 |     156169     |    171051
       12  | 38:00.52 |  3:33.50 |     171052     |    187076
Pista  1
     Nombre de Archivo C:\Documents and Settings\Usuario\Escritorio\01 Déjà Loin.wav
     Nivel Pico 100.0 %
     Calidad de Pista 100.0 %
     Copiar CRC C03404B4
     Copia OK
Pista  2
     Nombre de Archivo C:\Documents and Settings\Usuario\Escritorio\02 J'attendrai Mon Tour.wav
     Nivel Pico 100.0 %
     Calidad de Pista 99.9 %
     Copiar CRC CB851A65
     Copia OK
Pista  3
     Nombre de Archivo C:\Documents and Settings\Usuario\Escritorio\03 C'est Moi.wav
     Nivel Pico 100.0 %
     Calidad de Pista 100.0 %
     Copiar CRC BE8A8E33
     Copia OK
Pista  4
     Nombre de Archivo C:\Documents and Settings\Usuario\Escritorio\04 Gardes Tes Larmes.wav
     Nivel Pico 100.0 %
     Calidad de Pista 99.9 %
     Copiar CRC 7BBA0327
     Copia OK
Pista  5
     Nombre de Archivo C:\Documents and Settings\Usuario\Escritorio\05 Secrets.wav
     Nivel Pico 100.0 %
     Calidad de Pista 100.0 %
     Copiar CRC 7A52A66C
     Copia OK
Pista  6
     Nombre de Archivo C:\Documents and Settings\Usuario\Escritorio\06 Tout.wav
     Nivel Pico 100.0 %
     Calidad de Pista 100.0 %
     Copiar CRC F9D83296
     Copia OK
Pista  7
     Nombre de Archivo C:\Documents and Settings\Usuario\Escritorio\07 Pour Une Fois.wav
     Nivel Pico 100.0 %
     Calidad de Pista 100.0 %
     Copiar CRC 19C37685
     Copia OK
Pista  8
     Nombre de Archivo C:\Documents and Settings\Usuario\Escritorio\08 Comme Avant.wav
     Nivel Pico 100.0 %
     Calidad de Pista 100.0 %
     Copiar CRC 77322CDE
     Copia OK
Pista  9
     Nombre de Archivo C:\Documents and Settings\Usuario\Escritorio\09 Plaisirs Amers.wav
     Nivel Pico 100.0 %
     Calidad de Pista 100.0 %
     Copiar CRC 5657638C
     Copia OK
Pista 10
     Nombre de Archivo C:\Documents and Settings\Usuario\Escritorio\10 Rebâtir Notre Histoire.wav
     Nivel Pico 100.0 %
     Calidad de Pista 100.0 %
     Copiar CRC 076036EC
     Copia OK
Pista 11
     Nombre de Archivo C:\Documents and Settings\Usuario\Escritorio\11 Tu L'emportes Sur Moi.wav
     Nivel Pico 100.0 %
     Calidad de Pista 100.0 %
     Copiar CRC 1031C872
     Copia OK
Pista 12
     Nombre de Archivo C:\Documents and Settings\Usuario\Escritorio\12 Do You.wav
     Nivel Pico 100.0 %
     Calidad de Pista 100.0 %
     Copiar CRC F8980DFC
     Copia OK
Sin Errores
Final del Informe
Правила, инструкции, FAQ!!!
Торрент  Добавлен [26 мар 2019, 20:28] Скачать торрент Магнет ссылка
Скачать торрент
[ Размер 13.54 КБ / Просмотров 1 ]

Статус
Проверен 
 
Размер  317.43 МБ
Приватный: Нет (DHT включён)
.torrent скачан  0
 


     Отправить личное сообщение
   
Страница 1 из 1
Показать сообщения за:  Поле сортировки  
Начать новую тему Ответить на тему


Сейчас этот форум просматривают: нет зарегистрированных пользователей и гости: 0


Вы не можете начинать темы
Вы не можете отвечать на сообщения
Вы не можете редактировать свои сообщения
Вы не можете удалять свои сообщения
Вы не можете добавлять вложения

Перейти:  
cron