Начать новую тему Ответить на тему
Статистика раздачи
Размер: 346.75 МБ | Добавлен: 26 мар 2019, 18:40 | Скачали: 0
Сидеров: 0  [0 байт/сек]    Личеров: 0  [0 байт/сек]
Пред. тема | След. тема 

Автор
Сообщение

СообщениеДобавлено: 26 мар 2019, 18:40 

Ответить с цитатой 

Julian Le Play / Melodrom
Жанр: Pop
Носитель: CD
Страна-производитель диска: Germany
Год издания: 2014
Издатель (лейбл): Blankomusik
Аудиокодек: FLAC (*.flac)
Тип рипа: tracks+.cue
Битрейт аудио: lossless
Продолжительность: 59:24
Источник (релизер): мой рип
Наличие сканов в содержимом раздачи: нет
Треклист:
Julian Le Play - "Melodrom" (2014)
Tracks: 14
Total time: 59:24
Year: 2014
Disc-ID: a70df10e
1. Melodrom 1:48
2. Mein Anker 4:07
3. Phönix 3:41
4. Benzin 4:14
5. Wir haben noch das ganze Leben 4:53
6. Miss Curly Hair 3:18
7. Blue Jeans 4:10
8. Piloten 5:07
9. Rollercoaster 3:36
10. Karussell 4:36
11. Fallschirm 4:02
12. Der Wolf 3:26
13. Kartenhaus 4:42
14. In ein neues Land 7:50
Код:
Exact Audio Copy V1.0 beta 3 from 29. August 2011
EAC extraction logfile from 19. May 2014, 20:18
Julian Le Play / Melodrom
Used drive  : PLEXTOR CD-R   PX-W4012A   Adapter: 2  ID: 0
Read mode               : Secure
Utilize accurate stream : Yes
Defeat audio cache      : Yes
Make use of C2 pointers : No
Read offset correction                      : 98
Overread into Lead-In and Lead-Out          : No
Fill up missing offset samples with silence : Yes
Delete leading and trailing silent blocks   : No
Null samples used in CRC calculations       : Yes
Used interface                              : Native Win32 interface for Win NT & 2000
Gap handling                                : Appended to previous track
Used output format              : User Defined Encoder
Selected bitrate                : 1024 kBit/s
Quality                         : High
Add ID3 tag                     : No
Command line compressor         : C:\Program Files (x86)\Exact Audio Copy\Flac\flac.exe
Additional command line options : -V -8 -T "Genre=%genre%" -T "Artist=%artist%" -T "Title=%title%" -T "Album=%albumtitle%" -T "Date=%year%" -T "Tracknumber=%tracknr%" -T "Comment=%comment%" %source%
TOC of the extracted CD
     Track |   Start  |  Length  | Start sector | End sector
    ---------------------------------------------------------
        1  |  0:00.00 |  1:48.01 |         0    |     8100
        2  |  1:48.01 |  4:06.60 |      8101    |    26610
        3  |  5:54.61 |  3:41.29 |     26611    |    43214
        4  |  9:36.15 |  4:13.50 |     43215    |    62239
        5  | 13:49.65 |  4:52.66 |     62240    |    84205
        6  | 18:42.56 |  3:18.14 |     84206    |    99069
        7  | 22:00.70 |  4:10.24 |     99070    |   117843
        8  | 26:11.19 |  5:06.67 |    117844    |   140860
        9  | 31:18.11 |  3:36.14 |    140861    |   157074
       10  | 34:54.25 |  4:35.63 |    157075    |   177762
       11  | 39:30.13 |  4:01.42 |    177763    |   195879
       12  | 43:31.55 |  3:25.42 |    195880    |   211296
       13  | 46:57.22 |  4:42.16 |    211297    |   232462
       14  | 51:39.38 |  7:50.09 |    232463    |   267721
Track  1
     Filename C:\H\Julian Le Play flac\01 Melodrom.wav
     Pre-gap length  0:00:02.00
     Peak level 98.6 %
     Extraction speed 7.6 X
     Track quality 100.0 %
     Test CRC 5231765C
     Copy CRC 5231765C
     Track not present in AccurateRip database
     Copy OK
Track  2
     Filename C:\H\Julian Le Play flac\02 Mein Anker.wav
     Peak level 99.4 %
     Extraction speed 8.7 X
     Track quality 100.0 %
     Test CRC 27208831
     Copy CRC 27208831
     Track not present in AccurateRip database
     Copy OK
Track  3
     Filename C:\H\Julian Le Play flac\03 Phoenix.wav
     Peak level 98.8 %
     Extraction speed 9.5 X
     Track quality 100.0 %
     Test CRC 66A2DEA8
     Copy CRC 66A2DEA8
     Track not present in AccurateRip database
     Copy OK
Track  4
     Filename C:\H\Julian Le Play flac\04 Benzin.wav
     Peak level 98.6 %
     Extraction speed 10.2 X
     Track quality 100.0 %
     Test CRC 0B3364CD
     Copy CRC 0B3364CD
     Track not present in AccurateRip database
     Copy OK
Track  5
     Filename C:\H\Julian Le Play flac\05 Wir haben noch das ganze Leben.wav
     Peak level 98.6 %
     Extraction speed 11.3 X
     Track quality 100.0 %
     Test CRC ABCB1F2E
     Copy CRC ABCB1F2E
     Track not present in AccurateRip database
     Copy OK
Track  6
     Filename C:\H\Julian Le Play flac\06 Miss Curly Hair.wav
     Peak level 98.6 %
     Extraction speed 9.8 X
     Track quality 99.9 %
     Test CRC CB835713
     Copy CRC CB835713
     Track not present in AccurateRip database
     Copy OK
Track  7
     Filename C:\H\Julian Le Play flac\07 Blue Jeans.wav
     Peak level 98.6 %
     Extraction speed 10.7 X
     Track quality 99.9 %
     Test CRC DB106A73
     Copy CRC DB106A73
     Track not present in AccurateRip database
     Copy OK
Track  8
     Filename C:\H\Julian Le Play flac\08 Piloten.wav
     Peak level 98.6 %
     Extraction speed 13.3 X
     Track quality 100.0 %
     Test CRC AFEB42E2
     Copy CRC AFEB42E2
     Track not present in AccurateRip database
     Copy OK
Track  9
     Filename C:\H\Julian Le Play flac\09 Rollercoster.wav
     Peak level 98.6 %
     Extraction speed 13.6 X
     Track quality 100.0 %
     Test CRC 0A2528A8
     Copy CRC 0A2528A8
     Track not present in AccurateRip database
     Copy OK
Track 10
     Filename C:\H\Julian Le Play flac\10 Karussell.wav
     Peak level 98.6 %
     Extraction speed 14.5 X
     Track quality 100.0 %
     Test CRC BC224EAC
     Copy CRC BC224EAC
     Track not present in AccurateRip database
     Copy OK
Track 11
     Filename C:\H\Julian Le Play flac\11 Fallschirm.wav
     Peak level 98.6 %
     Extraction speed 14.9 X
     Track quality 100.0 %
     Test CRC 6DBF71F4
     Copy CRC 6DBF71F4
     Track not present in AccurateRip database
     Copy OK
Track 12
     Filename C:\H\Julian Le Play flac\12 Der Wolf.wav
     Peak level 98.6 %
     Extraction speed 15.0 X
     Track quality 100.0 %
     Test CRC 9E2F4951
     Copy CRC 9E2F4951
     Track not present in AccurateRip database
     Copy OK
Track 13
     Filename C:\H\Julian Le Play flac\13 Kartenhaus.wav
     Peak level 98.6 %
     Extraction speed 13.4 X
     Track quality 99.9 %
     Test CRC C69902E2
     Copy CRC C69902E2
     Track not present in AccurateRip database
     Copy OK
Track 14
     Filename C:\H\Julian Le Play flac\14 In ein neues Land.wav
     Pre-gap length  0:00:05.44
     Peak level 98.6 %
     Extraction speed 14.1 X
     Track quality 99.9 %
     Test CRC FA00C3A7
     Copy CRC FA00C3A7
     Track not present in AccurateRip database
     Copy OK
None of the tracks are present in the AccurateRip database
No errors occurred
End of status report
==== Log checksum C12EBB9E339078E80165367356A25244355A8DB0B4EF66A2671466C0F98AB851 ====
Код:
REM GENRE Pop
REM DATE 2014
REM DISCID A70DF10E
REM COMMENT "ExactAudioCopy v1.0b3"
PERFORMER "Julian Le Play"
TITLE "Melodrom"
FILE "01 Melodrom.wav" WAVE
  TRACK 01 AUDIO
    TITLE "Melodrom"
    PERFORMER "Julian Le Play"
    ISRC DEL051340001
    FLAGS DCP
    INDEX 01 00:00:00
FILE "02 Mein Anker.wav" WAVE
  TRACK 02 AUDIO
    TITLE "Mein Anker"
    PERFORMER "Julian Le Play"
    ISRC DEL051340002
    FLAGS DCP
    INDEX 01 00:00:00
FILE "03 Phoenix.wav" WAVE
  TRACK 03 AUDIO
    TITLE "Phoenix"
    PERFORMER "Julian Le Play"
    ISRC DEL051340003
    FLAGS DCP
    INDEX 01 00:00:00
FILE "04 Benzin.wav" WAVE
  TRACK 04 AUDIO
    TITLE "Benzin"
    PERFORMER "Julian Le Play"
    ISRC DEL051340004
    FLAGS DCP
    INDEX 01 00:00:00
FILE "05 Wir haben noch das ganze Leben.wav" WAVE
  TRACK 05 AUDIO
    TITLE "Wir haben noch das ganze Leben"
    PERFORMER "Julian Le Play"
    ISRC DEL051340005
    FLAGS DCP
    INDEX 01 00:00:00
FILE "06 Miss Curly Hair.wav" WAVE
  TRACK 06 AUDIO
    TITLE "Miss Curly Hair"
    PERFORMER "Julian Le Play"
    ISRC DEL051340006
    FLAGS DCP
    INDEX 01 00:00:00
FILE "07 Blue Jeans.wav" WAVE
  TRACK 07 AUDIO
    TITLE "Blue Jeans"
    PERFORMER "Julian Le Play"
    ISRC DEL051340007
    FLAGS DCP
    INDEX 01 00:00:00
FILE "08 Piloten.wav" WAVE
  TRACK 08 AUDIO
    TITLE "Piloten"
    PERFORMER "Julian Le Play"
    ISRC DEL051340008
    FLAGS DCP
    INDEX 01 00:00:00
FILE "09 Rollercoster.wav" WAVE
  TRACK 09 AUDIO
    TITLE "Rollercoster"
    PERFORMER "Julian Le Play"
    ISRC DEL051340009
    FLAGS DCP
    INDEX 01 00:00:00
FILE "10 Karussell.wav" WAVE
  TRACK 10 AUDIO
    TITLE "Karussell"
    PERFORMER "Julian Le Play"
    ISRC DEL051340010
    FLAGS DCP
    INDEX 01 00:00:00
FILE "11 Fallschirm.wav" WAVE
  TRACK 11 AUDIO
    TITLE "Fallschirm"
    PERFORMER "Julian Le Play"
    ISRC DEL051340011
    FLAGS DCP
    INDEX 01 00:00:00
FILE "12 Der Wolf.wav" WAVE
  TRACK 12 AUDIO
    TITLE "Der Wolf"
    PERFORMER "Julian Le Play"
    ISRC DEL051340012
    FLAGS DCP
    INDEX 01 00:00:00
FILE "13 Kartenhaus.wav" WAVE
  TRACK 13 AUDIO
    TITLE "Kartenhaus"
    PERFORMER "Julian Le Play"
    ISRC DEL051340013
    FLAGS DCP
    INDEX 01 00:00:00
  TRACK 14 AUDIO
    TITLE "In ein neues Land"
    PERFORMER "Julian Le Play"
    ISRC DEL051340014
    FLAGS DCP
    INDEX 00 04:36:47
FILE "14 In ein neues Land.wav" WAVE
    INDEX 01 00:00:00
Код:
[CUETools log; Date: 19.05.2014 20:19:22; Version: 2.1.5]
[CTDB TOCID: doxAwI0JT.neR_w.wQvXOIOxSUw-] found.
Track | CTDB Status
  1   | (1/1) Accurately ripped
  2   | (1/1) Accurately ripped
  3   | (1/1) Accurately ripped
  4   | (1/1) Accurately ripped
  5   | (1/1) Accurately ripped
  6   | (1/1) Accurately ripped
  7   | (1/1) Accurately ripped
  8   | (1/1) Accurately ripped
  9   | (1/1) Accurately ripped
 10   | (1/1) Accurately ripped
 11   | (1/1) Accurately ripped
 12   | (1/1) Accurately ripped
 13   | (1/1) Accurately ripped
 14   | (1/1) Accurately ripped
[AccurateRip ID: 001bd65c-012f64bf-a70df10e] disk not present in database.
Track Peak [ CRC32  ] [W/O NULL] [  LOG   ]
 --   99,4 [8C3FCAFE] [E0CFC8D6]
 01   98,6 [5231765C] [AA4FADD6]   CRC32
 02   99,4 [27208831] [BA1524AB]   CRC32
 03   98,8 [66A2DEA8] [DAF14DF2]   CRC32
 04   98,6 [0B3364CD] [B8B6CCD8]   CRC32
 05   98,6 [ABCB1F2E] [DCB0C876]   CRC32
 06   98,6 [CB835713] [A605E46F]   CRC32
 07   98,6 [DB106A73] [1C15C335]   CRC32
 08   98,6 [AFEB42E2] [6AAB6A69]   CRC32
 09   98,6 [0A2528A8] [993A17A0]   CRC32
 10   98,6 [BC224EAC] [95A86171]   CRC32
 11   98,6 [6DBF71F4] [59EAE062]   CRC32
 12   98,6 [9E2F4951] [7C7FAE94]   CRC32
 13   98,6 [C69902E2] [E9FD70A2]   CRC32
 14   98,6 [FA00C3A7] [63058BBB]   CRC32
Правила, инструкции, FAQ!!!
Торрент  Добавлен [26 мар 2019, 18:40] Скачать торрент Магнет ссылка
Скачать торрент
[ Размер 16.02 КБ / Просмотров 1 ]

Статус
Проверен 
 
Размер  346.75 МБ
Приватный: Нет (DHT включён)
.torrent скачан  0
 


     Отправить личное сообщение
   
Страница 1 из 1
Показать сообщения за:  Поле сортировки  
Начать новую тему Ответить на тему


Сейчас этот форум просматривают: нет зарегистрированных пользователей и гости: 0


Вы не можете начинать темы
Вы не можете отвечать на сообщения
Вы не можете редактировать свои сообщения
Вы не можете удалять свои сообщения
Вы не можете добавлять вложения

Перейти:  
cron