Начать новую тему Ответить на тему
Статистика раздачи
Размер: 201.61 МБ | Добавлен: 26 мар 2019, 19:43 | Скачали: 0
Сидеров: 0  [0 байт/сек]    Личеров: 0  [0 байт/сек]
Пред. тема | След. тема 

Автор
Сообщение

СообщениеДобавлено: 26 мар 2019, 19:43 

Ответить с цитатой 


Crying Day Care Choir

Wilting Rooting Blooming





• Жанр: Pop | Folk
• Носитель: WEB
• Год издания: 2018
• Издатель: WM Sweden
• Страна: Sweden
• Аудиокодек: FLAC (*.flac)
• Тип рипа: tracks
• Продолжительность: 00:35:34
• Источник (спасибо): NBMus
• WEB релиз: ссылка
• Наличие сканов: front

01 - Fuck It I'm A Flower (00:03:16)
02 - Bigger Heart (00:03:46)
03 - Sad Season (00:02:38)
04 - Branches (00:03:27)
05 - Follow (00:04:04)
06 - Read On (00:03:59)
07 - Someone Else (00:03:23)
08 - Archipelago (00:03:42)
09 - We Are Birds Now (00:03:34)
10 - The Moon (00:03:41)



Код:
foobar2000 1.3.9 / Замер динамического диапазона (DR) 1.1.1
Дата отчёта:  2018-10-22 15:23:50
--------------------------------------------------------------------------------
Анализ:   Crying Day Care Choir / Wilting Rooting Blooming
--------------------------------------------------------------------------------
DR         Пики         RMS           Продолжительность трека
--------------------------------------------------------------------------------
DR5       -0.32 дБ    -7.35 дБ      3:16 01-Fuck It I'm A Flower
DR9       -0.80 дБ   -11.54 дБ      3:46 02-Bigger Heart
DR5       -0.40 дБ    -7.40 дБ      2:39 03-Sad Season
DR14      -0.80 дБ   -18.11 дБ      3:28 04-Branches
DR10      -0.80 дБ   -13.00 дБ      4:04 05-Follow
DR8       -0.80 дБ   -11.19 дБ      4:00 06-Read On
DR8       -0.80 дБ   -10.71 дБ      3:24 07-Someone Else
DR7       -0.10 дБ   -10.14 дБ      3:43 08-Archipelago
DR8       -0.80 дБ   -10.90 дБ      3:34 09-We Are Birds Now
DR8       -0.80 дБ   -12.18 дБ      3:41 10-The Moon
--------------------------------------------------------------------------------
Количество треков: 10
Реальные значения DR: DR8
Частота:   44100 Гц
Каналов:   2
Разрядность:   16
Битрейт:   753 кбит/с
Кодек:   FLAC
================================================================================

Код:
-----------------------
DON'T MODIFY THIS FILE
-----------------------
PERFORMER: auCDtect Task Manager, ver. 1.5.1RC3 build 1.5.1.4
Copyright (c) 2008-2010 y-soft. All rights reserved
[url=http://y-soft.org]http://y-soft.org[/url]
ANALYZER: auCDtect: CD records authenticity detector, version 0.8.2
Copyright (c) 2004 Oleg Berngardt. All rights reserved.
Copyright (c) 2004 Alexander Djourik. All rights reserved.
FILE: Crying Day Care Choir-10.flac
  Size: 21458441 Hash: 04CAA19790B0EA789CEC11EAF4B8BEEA Accuracy: -m0
  Conclusion: CDDA 100%
  Signature: B39BEF181C1334DEF26387336EA5B8A02B540B58
FILE: Crying Day Care Choir-09.flac
  Size: 22147472 Hash: 6EF11E910888A533AC5100E8D0BD184C Accuracy: -m0
  Conclusion: CDDA 100%
  Signature: 8992EB4B1CACC26BD085CB02F0F94C7871D2A6A8
FILE: Crying Day Care Choir-08.flac
  Size: 23354273 Hash: 9A6822FA814FA9AEB819999623A3C999 Accuracy: -m0
  Conclusion: CDDA 100%
  Signature: 5F7F67F77E9FB68E8B3CE8D758AB4F49E9A5D9C0
FILE: Crying Day Care Choir-07.flac
  Size: 21969188 Hash: 26044C50268C2360B7E0FA00C7CFB890 Accuracy: -m0
  Conclusion: CDDA 100%
  Signature: F722BC4F5D59736C0FD132DFEBACEB87E3B9E7EB
FILE: Crying Day Care Choir-06.flac
  Size: 22442148 Hash: 3736EE138BAA8A2541AF22FB8363D87E Accuracy: -m0
  Conclusion: CDDA 100%
  Signature: 385B2685C46AA47A1E6EDA2998264C65625BE4F4
FILE: Crying Day Care Choir-05.flac
  Size: 24486481 Hash: 9359BABAA107B43F601A2224F388C9E1 Accuracy: -m0
  Conclusion: CDDA 100%
  Signature: CB775E41059A611555E1EBC46A4BC6BEE0828BD1
FILE: Crying Day Care Choir-04.flac
  Size: 14527860 Hash: 58634F62A7F2882B1B904E6BC083136C Accuracy: -m0
  Conclusion: CDDA 100%
  Signature: C8F5D6BFCF438BC77CF838BD3C93781B25B59AA5
FILE: Crying Day Care Choir-03.flac
  Size: 18109484 Hash: FB83181F024BBA82D2A975D57D8B050D Accuracy: -m0
  Conclusion: MPEG 95%
  Signature: 7A118A857BDE3C29753F45D218A28DFE8140433C
FILE: Crying Day Care Choir-02.flac
  Size: 23949324 Hash: 27B21BCA17823C7CBD0FA25F238D41DB Accuracy: -m0
  Conclusion: CDDA 100%
  Signature: DFEF6CE19E75513E7A06B94D651369CD98C2B577
FILE: Crying Day Care Choir-01.flac
  Size: 23524657 Hash: 893280BBA624AFADF6CAA7ED8DDB1ABF Accuracy: -m0
  Conclusion: CDDA 100%
  Signature: E293D8533AC3C4A97F6D3042500F98027BD67159

Правила, инструкции, FAQ!!!
Торрент  Добавлен [26 мар 2019, 19:43] Скачать торрент Магнет ссылка
Скачать торрент
[ Размер 16.77 КБ / Просмотров 1 ]

Статус
Проверен 
 
Размер  201.61 МБ
Приватный: Нет (DHT включён)
.torrent скачан  0
 


     Отправить личное сообщение
   
Страница 1 из 1
Показать сообщения за:  Поле сортировки  
Начать новую тему Ответить на тему


Сейчас этот форум просматривают: нет зарегистрированных пользователей и гости: 0


Вы не можете начинать темы
Вы не можете отвечать на сообщения
Вы не можете редактировать свои сообщения
Вы не можете удалять свои сообщения
Вы не можете добавлять вложения

Перейти:  
cron