Начать новую тему Ответить на тему
Статистика раздачи
Размер: 398.12 МБ | Добавлен: 26 мар 2019, 20:43 | Скачали: 0
Сидеров: 0  [0 байт/сек]    Личеров: 0  [0 байт/сек]
Пред. тема | След. тема 

Автор
Сообщение

СообщениеДобавлено: 26 мар 2019, 20:43 

Ответить с цитатой 

Momus - The philosophy of Momus
Жанр: Pop, Electronic, Acoustic
Дата выпуска: May 1995
Производитель диска, страна: Cherry Red Records / UK
Аудио кодек: FLAC
Тип рипа: image+.cue
Битрейт аудио: lossless
Включает: Full artwork, png
Продолжительность: 1h 9m 56s
Трэклист:
01 - Toothbrushed (1:35)
02 - The Madness Of Lee Scratch Perry (5:37)
03 - It's Important To Be Trendy (4:12)
04 - Quark & Charm, The Robot Twins (4:07)
05 - Girlish Boy (3:40)
06 - Yokohama Chinatown (2:54)
07 - Withinity (3:57)
08 - K's Diary (2:41)
09 - Virtual Valerie (4:03)
10 - Red Pyjamas (2:42)
11 - The Cabinet Of Kuniyoshi Kaneko (4:09)
12 - Side Projector Lie Detector (3:47)
13 - Microworlds (4:11)
14 - Complicated (3:06)
15 - If I Had A Girl (2:47)
16 - The Philosophy Of Momus (3:29)
17 - The Loneliness Of Lift Music (4:07)
18 - Paranoid Acoustic Seduction Machine (3:06)
19 - The Sadness Of Things (5:30)
Доп. информация:
The Philosophy Of Momus.
1994 is an extraordinary year for Momus. He rescues Shazna from Bangladesh, they marry and move to Paris. He moves back to Cherry Red and makes this album.
Stylistically confused, the music veers between reggae, techno, blues and acoustic styles. Its main theme is the way the digital age is changing our ways of thinking about sex, memory, and liberty.
Interview with momus : http://imomus.com/index44.html
#777
Exact Audio Copy V0.99 prebeta 4 from 23. January 2008
EAC extraction logfile from 3. December 2008, 12:07
Momus / The philosophy of Momus
Used drive : PIONEER DVD-RW DVR-212 Adapter: 3 ID: 0
Read mode : Secure
Utilize accurate stream : Yes
Defeat audio cache : Yes
Make use of C2 pointers : No
Read offset correction : 48
Overread into Lead-In and Lead-Out : No
Fill up missing offset samples with silence : Yes
Delete leading and trailing silent blocks : No
Null samples used in CRC calculations : No
Used interface : Native Win32 interface for Win NT & 2000
Used output format : Internal WAV Routines
Sample format : 44.100 Hz; 16 Bit; Stereo
TOC of the extracted CD
Track | Start | Length | Start sector | End sector
---------------------------------------------------------
1 | 0:00.32 | 1:35.40 | 32 | 7196
2 | 1:35.72 | 5:37.40 | 7197 | 32511
3 | 7:13.37 | 4:12.58 | 32512 | 51469
4 | 11:26.20 | 4:08.47 | 51470 | 70116
5 | 15:34.67 | 3:41.13 | 70117 | 86704
6 | 19:16.05 | 2:54.62 | 86705 | 99816
7 | 22:10.67 | 3:57.55 | 99817 | 117646
8 | 26:08.47 | 2:42.15 | 117647 | 129811
9 | 28:50.62 | 4:02.73 | 129812 | 148034
10 | 32:53.60 | 2:43.22 | 148035 | 160281
11 | 35:37.07 | 4:09.55 | 160282 | 179011
12 | 39:46.62 | 3:48.05 | 179012 | 196116
13 | 43:34.67 | 4:11.58 | 196117 | 214999
14 | 47:46.50 | 3:06.45 | 215000 | 228994
15 | 50:53.20 | 2:48.00 | 228995 | 241594
16 | 53:41.20 | 3:29.67 | 241595 | 257336
17 | 57:11.12 | 4:07.60 | 257337 | 275921
18 | 61:18.72 | 3:06.55 | 275922 | 289926
19 | 64:25.52 | 5:30.20 | 289927 | 314696
Range status and errors
Selected range
Filename J:\extract\Momus - The philosophy of Momus.wav
Peak level 96.8 %
Range quality 99.9 %
Copy CRC B398B2E5
Copy OK
No errors occurred
AccurateRip summary
Track 1 not present in database
Track 2 not present in database
Track 3 not present in database
Track 4 not present in database
Track 5 not present in database
Track 6 not present in database
Track 7 not present in database
Track 8 not present in database
Track 9 not present in database
Track 10 not present in database
Track 11 not present in database
Track 12 not present in database
Track 13 not present in database
Track 14 not present in database
Track 15 not present in database
Track 16 not present in database
Track 17 not present in database
Track 18 not present in database
Track 19 not present in database
None of the tracks are present in the AccurateRip database
End of status report
Правила, инструкции, FAQ!!!
Торрент  Добавлен [26 мар 2019, 20:43] Скачать торрент Магнет ссылка
Скачать торрент
[ Размер 32.13 КБ / Просмотров 5 ]

Статус
Проверен 
 
Размер  398.12 МБ
Приватный: Нет (DHT включён)
.torrent скачан  0
 


     Отправить личное сообщение
   
Страница 1 из 1
Показать сообщения за:  Поле сортировки  
Начать новую тему Ответить на тему


Сейчас этот форум просматривают: нет зарегистрированных пользователей и гости: 0


Вы не можете начинать темы
Вы не можете отвечать на сообщения
Вы не можете редактировать свои сообщения
Вы не можете удалять свои сообщения
Вы не можете добавлять вложения

Перейти:  
cron