Начать новую тему Ответить на тему
Статистика раздачи
Размер: 502.92 МБ | Добавлен: 26 мар 2019, 20:35 | Скачали: 2
Сидеров: 0  [0 байт/сек]    Личеров: 2  [0 байт/сек]
Пред. тема | След. тема 

Автор
Сообщение

СообщениеДобавлено: 26 мар 2019, 20:35 

Ответить с цитатой 

Bruce Willis - The Universal Masters Collection
Жанр: Pop, Easy Listening
Год выпуска диска: 2001
Производитель диска: USA (Universal)
Аудио кодек: APE
Тип рипа: image+.cue
Битрейт аудио: lossless
Продолжительность: 1:14:54
Трэклист:
1. Under the Boardwalk
2. Respect Yourself
3. Down in Hollywood
4. Young Blood
5. Comin' Right Up
6. Secret Agent Man/James Bond Is Back
7. Save the Last Dance for Me
8. Fun Time
9. Lose Myself
10. Flirting With Disaster
11. Jackpot (Bruno's Bop)
12. Blues for Mr. D
13. Tenth Avenue Tango
14. Love Makes the World Go Round
15. Here Comes Trouble Again
16. Soul Shake
17. I'll Go Crazy
18. Respect Yourself [Extended 12" Version]
Доп. информация: Куплено в "Пурпурном Легионе". Петербургский филиал. Весь буклет, коврики и диск отсканированы. Наслаждайтесь!
Log -
Exact Audio Copy V0.99 prebeta 4 from 23. January 2008
Отчёт EAC об извлечении, выполненном 26. июня 2010, 15:59
Bruce Willis / Classic Bruce Willis
Дисковод: _NEC DVD_RW ND-3540A Adapter: 3 ID: 1
Режим чтения : Достоверность
Использование точного потока : Да
Отключение кэша аудио : Да
Использование указателей C2 : Нет
Коррекция смещения при чтении : 48
Способность читать области Lead-in и Lead-out : Нет
Заполнение пропущенных сэмплов тишиной : Да
Удаление блоков с тишиной в начале и конце : Нет
При вычислениях CRC использовались нулевые сэмплы : Да
Интерфейс : Установленный внешний ASPI-интерфейс
Выходной формат : Внутренние WAV-операции
Формат сэмплов : 44.100 Гц; 16 бит; стерео
TOC извлечённого CD
Трек | Старт | Длительность | Начальный сектор | Конечный сектор
---------------------------------------------------------------------
1 | 0:00.00 | 3:03.54 | 0 | 13778
2 | 3:03.54 | 3:52.63 | 13779 | 31241
3 | 6:56.42 | 5:19.65 | 31242 | 55231
4 | 12:16.32 | 4:08.55 | 55232 | 73886
5 | 16:25.12 | 3:29.23 | 73887 | 89584
6 | 19:54.35 | 4:47.45 | 89585 | 111154
7 | 24:42.05 | 3:50.37 | 111155 | 128441
8 | 28:32.42 | 3:38.23 | 128442 | 144814
9 | 32:10.65 | 3:57.05 | 144815 | 162594
10 | 36:07.70 | 4:29.20 | 162595 | 182789
11 | 40:37.15 | 4:11.70 | 182790 | 201684
12 | 44:49.10 | 5:26.42 | 201685 | 226176
13 | 50:15.52 | 4:05.00 | 226177 | 244551
14 | 54:20.52 | 2:55.25 | 244552 | 257701
15 | 57:16.02 | 4:53.18 | 257702 | 279694
16 | 62:09.20 | 2:53.70 | 279695 | 292739
17 | 65:03.15 | 3:30.40 | 292740 | 308529
18 | 68:33.55 | 6:36.56 | 308530 | 338285
Характеристики диапазона извлечения и сообщения об ошибках
Выбранный диапазон
Имя файла F:\BitTorrent Downloads\Bruce Willis - Classic Bruce Willis.wav
Пиковый уровень 96.2 %
Качество диапазона 100.0 %
CRC копии A6851B2A
Копирование... OK
Ошибок не произошло
AccurateRip: сводка
Трек 1 точное извлечение (доверие 8) [A53E13FF]
Трек 2 точное извлечение (доверие 8) [14009C9A]
Трек 3 точное извлечение (доверие 8) [B2D4B86D]
Трек 4 точное извлечение (доверие 8) [8AD4870F]
Трек 5 точное извлечение (доверие 8) [12BB71BF]
Трек 6 точное извлечение (доверие 8) [CAEFB5BE]
Трек 7 точное извлечение (доверие 8) [F882685D]
Трек 8 точное извлечение (доверие 8) [0B1B765E]
Трек 9 точное извлечение (доверие 8) [64F24D7C]
Трек 10 точное извлечение (доверие 8) [AAB44BA5]
Трек 11 точное извлечение (доверие 8) [C3E948F5]
Трек 12 точное извлечение (доверие 8) [43E9BF18]
Трек 13 точное извлечение (доверие 8) [E66A098A]
Трек 14 точное извлечение (доверие 8) [6BEEB848]
Трек 15 точное извлечение (доверие 8) [BD7787C8]
Трек 16 точное извлечение (доверие 8) [0B67AC57]
Трек 17 точное извлечение (доверие 8) [819202B9]
Трек 18 точное извлечение (доверие 8) [C8412F31]
Все треки извлечены точно
Конец отчёта
Правила, инструкции, FAQ!!!
Торрент  Добавлен [26 мар 2019, 20:35] Скачать торрент Магнет ссылка
Скачать торрент
[ Размер 20.52 КБ / Просмотров 13 ]

Статус
Проверен 
 
Размер  502.92 МБ
Приватный: Нет (DHT включён)
.torrent скачан  2
 


     Отправить личное сообщение
   
Страница 1 из 1
Показать сообщения за:  Поле сортировки  
Начать новую тему Ответить на тему


Сейчас этот форум просматривают: нет зарегистрированных пользователей и гости: 0


Вы не можете начинать темы
Вы не можете отвечать на сообщения
Вы не можете редактировать свои сообщения
Вы не можете удалять свои сообщения
Вы не можете добавлять вложения

Перейти:  
cron