Начать новую тему Ответить на тему
Статистика раздачи
Размер: 127.31 МБ | Добавлен: 01 янв 2020, 23:08 | Скачали: 0
Сидеров: 3  [0 байт/сек]    Личеров: 1  [0 байт/сек]
Пред. тема | След. тема 

Автор
Сообщение

СообщениеДобавлено: 01 янв 2020, 23:08 

Ответить с цитатой 

Dalida / Salma Ya Salama - La Tumba
Жанр: Pop, Disco, Techno
Носитель: CD
Год издания: 1997
Издатель (лейбл): Barclay
Номер по каталогу: 571 538-2
Аудиокодек: FLAC (*.flac)
Тип рипа: tracks+.cue
Битрейт аудио: lossless
Продолжительность: 16:13
Источник (релизер): CD5
Наличие сканов в содержимом раздачи: да
Треклист:
1. Salma Ya Salama (Sueno Flamenco) [Version Hispano-Egyptienne] 4:37
2. La Tumba (Blue Mary Mix) 3:43
3. Salma Ya Salama (Sueno Flamenco) [Version Franco-Espagnole] 4:37
4. La Tumba (Amazonia Mix) 3:14
Код:
Exact Audio Copy V1.0 beta 3 from 29. August 2011
EAC extraction logfile from 28. May 2014, 21:23
Dalida / Salma Ya Salama
Used drive  : PIONEER BD-RW   BDR-202   Adapter: 1  ID: 0
Read mode               : Secure
Utilize accurate stream : Yes
Defeat audio cache      : Yes
Make use of C2 pointers : No
Read offset correction                      : 667
Overread into Lead-In and Lead-Out          : No
Fill up missing offset samples with silence : Yes
Delete leading and trailing silent blocks   : No
Null samples used in CRC calculations       : Yes
Used interface                              : Native Win32 interface for Win NT & 2000
Gap handling                                : Appended to previous track
Used output format              : User Defined Encoder
Selected bitrate                : 896 kBit/s
Quality                         : High
Add ID3 tag                     : Yes
Command line compressor         : C:\Program Files\Exact Audio Copy\FLAC\FLAC.EXE
Additional command line options : -8 -V -T "ARTIST=%artist%" -T "TITLE=%title%" -T "ALBUM=%albumtitle%" -T "DATE=%year%" -T "TRACKNUMBER=%tracknr%" -T "GENRE=%genre%" -T "COMMENT=%comment%" -T "BAND=%albuminterpret%" -T "ALBUMARTIST=%albuminterpret%" -T "COMPOSER=%composer%" %haslyrics%--tag-from-file=LYRICS="%lyricsfile%"%haslyrics% -T "DISCNUMBER=%cdnumber%" -T "TOTALDISCS=%totalcds%" -T "TOTALTRACKS=%numtracks%" %hascover%--picture="%coverfile%"%hascover% %source% -o %dest%
TOC of the extracted CD
     Track |   Start  |  Length  | Start sector | End sector
    ---------------------------------------------------------
        1  |  0:00.00 |  4:37.50 |         0    |    20824
        2  |  4:37.50 |  3:43.27 |     20825    |    37576
        3  |  8:21.02 |  4:37.35 |     37577    |    58386
        4  | 12:58.37 |  3:14.58 |     58387    |    72994
Track  1
     Filename R:\Dalida\Dalida - [1997] - Salma Ya Salama\01 - Salma Ya Salama (Sueno Flamenco) (Version Hispano-Egyptienne).wav
     Pre-gap length  0:00:02.00
     Peak level 97.7 %
     Extraction speed 4.1 X
     Track quality 100.0 %
     Test CRC 43D016AD
     Copy CRC 43D016AD
     Accurately ripped (confidence 2)  [608D5D33]  (AR v1)
     Copy OK
Track  2
     Filename R:\Dalida\Dalida - [1997] - Salma Ya Salama\02 - La Tumba (Blue Mary Mix).wav
     Pre-gap length  0:00:01.13
     Peak level 98.2 %
     Extraction speed 4.4 X
     Track quality 100.0 %
     Test CRC 4A2A896E
     Copy CRC 4A2A896E
     Accurately ripped (confidence 2)  [E40A1F76]  (AR v1)
     Copy OK
Track  3
     Filename R:\Dalida\Dalida - [1997] - Salma Ya Salama\03 - Salma Ya Salama (Sueno Flamenco) (Version Franco-Espagnole).wav
     Peak level 98.8 %
     Extraction speed 4.9 X
     Track quality 100.0 %
     Test CRC 1BA3CF0B
     Copy CRC 1BA3CF0B
     Accurately ripped (confidence 2)  [372053DE]  (AR v1)
     Copy OK
Track  4
     Filename R:\Dalida\Dalida - [1997] - Salma Ya Salama\04 - La Tumba (Amazonia Mix).wav
     Pre-gap length  0:00:01.45
     Peak level 97.6 %
     Extraction speed 4.9 X
     Track quality 100.0 %
     Test CRC 7C4CA1D9
     Copy CRC 7C4CA1D9
     Accurately ripped (confidence 2)  [1A0FBDBB]  (AR v1)
     Copy OK
All tracks accurately ripped
No errors occurred
End of status report
---- CUETools DB Plugin V2.1.3
[CTDB TOCID: zUpZO0.vPxCfyvecooAVHrT7nT0-] disk not present in database, Submit result: zUpZO0.vPxCfyvecooAVHrT7nT0- has been uploaded
==== Log checksum 53685A37C9AD55F8631986919DFAB1FC35B1BB163D2FDDFD2773E3375DAF4FA0 ====
Код:
REM GENRE Pop
REM DATE 1997
REM DISCID 2B03CD04
REM COMMENT "ExactAudioCopy v1.0b3"
PERFORMER "Dalida"
TITLE "Salma Ya Salama"
FILE "01 - Salma Ya Salama (Sueno Flamenco) (Version Hispano-Egyptienne).wav" WAVE
  TRACK 01 AUDIO
    TITLE "Salma Ya Salama (Sueno Flamenco) (Version Hispano-Egyptienne)"
    PERFORMER "Dalida"
    INDEX 01 00:00:00
  TRACK 02 AUDIO
    TITLE "La Tumba (Blue Mary Mix)"
    PERFORMER "Dalida"
    INDEX 00 04:36:37
FILE "02 - La Tumba (Blue Mary Mix).wav" WAVE
    INDEX 01 00:00:00
FILE "03 - Salma Ya Salama (Sueno Flamenco) (Version Franco-Espagnole).wav" WAVE
  TRACK 03 AUDIO
    TITLE "Salma Ya Salama (Sueno Flamenco) (Version Franco-Espagnole)"
    PERFORMER "Dalida"
    INDEX 01 00:00:00
  TRACK 04 AUDIO
    TITLE "La Tumba (Amazonia Mix)"
    PERFORMER "Dalida"
    INDEX 00 04:35:65
FILE "04 - La Tumba (Amazonia Mix).wav" WAVE
    INDEX 01 00:00:00
Правила, инструкции, FAQ!!!
Торрент  Добавлен [01 янв 2020, 23:08] Скачать торрент Магнет ссылка
Скачать торрент
[ Размер 20.91 КБ / Просмотров 1 ]

Статус
Проверен 
 
Размер  127.31 МБ
Приватный: Нет (DHT включён)
.torrent скачан  0
 


     Отправить личное сообщение
   
Страница 1 из 1
Показать сообщения за:  Поле сортировки  
Начать новую тему Ответить на тему


Сейчас этот форум просматривают: нет зарегистрированных пользователей и гости: 0


Вы не можете начинать темы
Вы не можете отвечать на сообщения
Вы не можете редактировать свои сообщения
Вы не можете удалять свои сообщения
Вы не можете добавлять вложения

Перейти:  
cron