Начать новую тему Ответить на тему
Статистика раздачи
Размер: 70.58 МБ | Добавлен: 26 мар 2019, 19:42 | Скачали: 2
Сидеров: 1  [0 байт/сек]    Личеров: 0  [0 байт/сек]
Пред. тема | След. тема 

Автор
Сообщение

СообщениеДобавлено: 26 мар 2019, 19:42 

Ответить с цитатой 


David Charvet - Jusqu'au Bout / Leap Of Faith
(Cardboard CD-Single)
Жанр: Pop
Страна-производитель диска: France
Год издания диска: 2002
Издатель (лейбл): Mercury
Номер по каталогу: 5889092
Аудиокодек: FLAC (*.flac)
Тип рипа: image+.cue
Битрейт аудио: lossless
Продолжительность: 0:08:13
Источник (релизер): DENnv
Наличие сканов в содержимом раздачи: да, PNG (300 dpi)
Треклист:
1. Jusqu'Au Bout (4:05)
2. Leap Of Faith (Radio Edit) (4:05)


Код:
Exact Audio Copy V1.0 beta 3 from 29. August 2011
Отчёт EAC об извлечении, выполненном 2. апреля 2012, 20:06
David Charvet / Jusqu'au Bout (CDS)
Дисковод: LITE-ON DVDRW SHM-165P6S   Adapter: 0  ID: 0
Режим чтения                 : Достоверность
Использование точного потока : Да
Отключение кэша аудио        : Да
Использование указателей C2  : Нет
Коррекция смещения при чтении                     : 6
Способность читать области Lead-in и Lead-out     : Нет
Заполнение пропущенных сэмплов тишиной            : Да
Удаление блоков с тишиной в начале и конце        : Нет
При вычислениях CRC использовались нулевые сэмплы : Да
Интерфейс                                         : Встроенный Win32-интерфейс для Win NT/2000
Выходной формат          : Пользовательский кодировщик
Выбранный битрейт        : 896 kBit/s
Качество                 : Высокий
Добавление ID3-тега      : Нет
Утилита сжатия           : C:\Program Files\Exact Audio Copy\Flac\flac.exe
Дополнительные параметры : -V -8 -T "Date=%year%" -T "Genre=%genre%" %source%
TOC извлечённого CD
     Трек |   Старт  | Длительность | Начальный сектор | Конечный сектор
    ---------------------------------------------------------------------
       1  |  0:00.00 |    4:08.17   |           0      |      18616
       2  |  4:08.17 |    4:05.40   |       18617      |      37031
       3  | 10:45.57 |    0:26.07   |       48432      |      50388
Характеристики диапазона извлечения и сообщения об ошибках
Выбранный диапазон
     Имя файла E:\2222222222\David Charvet - Jusqu'au Bout (CDS) (2002) (lossless-DENnv)\David Charvet - Jusqu'au Bout (CDS).wav
     Пиковый уровень 96.5 %
     Скорость извлечения 2.3 X
     Качество диапазона 100.0 %
     CRC теста 284A4123
     CRC копии 284A4123
     Копирование... OK
Ошибок не произошло
AccurateRip: сводка
Трек  1  : извлечено точно (доверие 2)  [C47F8C26]  (AR v1)
Трек  2  : извлечено точно (доверие 2)  [371BC166]  (AR v1)
Все треки извлечены точно
Конец отчёта
==== Контрольная сумма отчёта 09E5039C45BA2EEBCC5405C8DE245ADAE29F342C92AF59CF5DE2E1614B035EBD ====

Мои рипы с фирменных дисков, как и все мои лосслесс раздачи.
"СПАСИБО!" и разносторонние комментарии
будут приятны и не дадут теме уйти в неизвестность.

Молчание качающих провоцирует лень релизёра. Учтите это!


Раздача проходит под девизом:


Правила, инструкции, FAQ!!!
Торрент  Добавлен [26 мар 2019, 19:42] Скачать торрент Магнет ссылка
Скачать торрент
[ Размер 11.93 КБ / Просмотров 4 ]

Статус
Проверен 
 
Размер  70.58 МБ
Приватный: Нет (DHT включён)
.torrent скачан  2
 


     Отправить личное сообщение
   
Страница 1 из 1
Показать сообщения за:  Поле сортировки  
Начать новую тему Ответить на тему


Сейчас этот форум просматривают: нет зарегистрированных пользователей и гости: 0


Вы не можете начинать темы
Вы не можете отвечать на сообщения
Вы не можете редактировать свои сообщения
Вы не можете удалять свои сообщения
Вы не можете добавлять вложения

Перейти:  
cron