Начать новую тему Ответить на тему
Статистика раздачи
Размер: 307.25 МБ | Добавлен: 01 янв 2020, 22:54 | Скачали: 1
Сидеров: 2  [0 байт/сек]    Личеров: 1  [0 байт/сек]
Пред. тема | След. тема 

Автор
Сообщение

СообщениеДобавлено: 01 янв 2020, 22:54 

Ответить с цитатой 

Dalida - Sings Arabic (Chante En Arabe)
Жанр: Pop
Год выпуска диска: 2003
Производитель диска: French
Аудио кодек: APE
Тип рипа: image+.cue
Битрейт аудио: lossless
Продолжительность: 44:06
Трэклист:
1. Dalida Dalida
2. Ahssan Nass
3. Salma Ya Salami
4. Aghany Aghany
5. Heliwa Ya Balady
6. Gamil El Soura
7. Ahssan Nass (instrumental)
8. Salma Y Salama (French)
Exact Audio Copy V0.99 prebeta 3 from 28. July 2007
Отчёт EAC об извлечении, выполненном 6. августа 2008, 3:32
Dalida / Dalida Chante En Arabe
Дисковод: Optiarc DVD RW AD-7173S Adapter: 0 ID: 1
Режим чтения : Достоверность
Использование точного потока : Да
Отключение кэша аудио : Да
Использование указателей C2 : Нет
Коррекция смещения при чтении: 48
Способность читать области Lead-in и Lead-out : Нет
Заполнение пропущенных сэмплов тишиной : Да
Удаление блоков с тишиной в начале и конце : Нет
: Нет
Интерфейс : Встроенный Win32-интерфейс для Win NT/2000
Выходной формат : Внутренние WAV-операции
Формат сэмплов : 44.100 Гц; 16 бит; стерео
TOC извлечённого CD
Трек | Старт | Длительность | Начальный сектор | Конечный сектор
---------------------------------------------------------------------
1 | 0:00.02 | 9:25.50 | 2 | 42426
2 | 9:25.52 | 6:21.57 | 42427 | 71058
3 | 15:47.34 | 3:05.51 | 71059 | 84984
4 | 18:53.10 | 7:16.36 | 84985 | 117720
5 | 26:09.46 | 3:31.68 | 117721 | 133613
6 | 29:41.39 | 3:47.40 | 133614 | 150678
7 | 33:29.04 | 6:33.68 | 150679 | 180221
8 | 40:02.72 | 3:01.26 | 180222 | 193822
Характеристики диапазона извлечения и сообщения об ошибках
Выбранный диапазон
Имя файла F:\music\Dalida-losless\Dalida - Dalida Chante En Arabe.wav
Пиковый уровень 100.0 %
Качество диапазона 99.9 %
CRC копии 4B085DFF
Копирование... OK
Ошибок не произошло
Конец отчёта
Правила, инструкции, FAQ!!!
Торрент  Добавлен [01 янв 2020, 22:54] Скачать торрент Магнет ссылка
Скачать торрент
[ Размер 12.61 КБ / Просмотров 7 ]

Статус
Проверен 
 
Размер  307.25 МБ
Приватный: Нет (DHT включён)
.torrent скачан  1
 


     Отправить личное сообщение
   
Страница 1 из 1
Показать сообщения за:  Поле сортировки  
Начать новую тему Ответить на тему


Сейчас этот форум просматривают: нет зарегистрированных пользователей и гости: 0


Вы не можете начинать темы
Вы не можете отвечать на сообщения
Вы не можете редактировать свои сообщения
Вы не можете удалять свои сообщения
Вы не можете добавлять вложения

Перейти:  
cron