Начать новую тему Ответить на тему
Статистика раздачи
Размер: 296.46 МБ | Добавлен: 01 янв 2020, 22:53 | Скачали: 0
Сидеров: 0  [0 байт/сек]    Личеров: 0  [0 байт/сек]
Пред. тема | След. тема 

Автор
Сообщение

СообщениеДобавлено: 01 янв 2020, 22:53 

Ответить с цитатой 

Sylvie Vartan / Toutes les femmes ont un secret
Жанр: Pop, chanson
Носитель: CD
Страна-производитель диска: France
Год издания: 1996
Издатель (лейбл): Mercury
Страна: France
Аудиокодек: FLAC (*.flac)
Тип рипа: image+.cue
Битрейт аудио: lossless
Продолжительность: 45:09
Источник (релизер): Диск из собственной коллекции
Наличие сканов в содержимом раздачи: нет
Треклист:
1. Back to L.A.
2. Je N'Aime Encore Que Toi
3. Forte et Fragile
4. Il Pense A Son Corps
5. Toutes Les Femmes Ont un Secret
6. Des Mots d'Amour
7. Amour Arrete, L'
8. Seule Pour un Soir
9. Ne Quittez Pas
10. Jour d'Hiver
11. Ton Cinéma
12. Quelqu'un M'Attend
Код:
Exact Audio Copy V1.0 beta 3 from 29. August 2011
Отчёт EAC об извлечении, выполненном 13. июля 2014, 20:12
Sylvie Vartan / Toutes les femmes ont un secret
Дисковод: MATSHITADVD-RAM UJ8B0AW   Adapter: 0  ID: 1
Режим чтения                 : Достоверность
Использование точного потока : Да
Отключение кэша аудио        : Да
Использование указателей C2  : Нет
Коррекция смещения при чтении                     : 102
Способность читать области Lead-in и Lead-out     : Нет
Заполнение пропущенных сэмплов тишиной            : Да
Удаление блоков с тишиной в начале и конце        : Нет
При вычислениях CRC использовались нулевые сэмплы : Да
Интерфейс                                         : Встроенный Win32-интерфейс для Win NT/2000
Выходной формат          : Пользовательский кодировщик
Выбранный битрейт        : 128 kBit/s
Качество                 : Высокий
Добавление ID3-тега      : Нет
Утилита сжатия           : C:\Program Files (x86)\Exact Audio Copy\Flac\flac.exe
Дополнительные параметры : -V -8 %source%
TOC извлечённого CD
     Трек |   Старт  | Длительность | Начальный сектор | Конечный сектор
    ---------------------------------------------------------------------
       1  |  0:00.00 |    4:02.15   |           0      |      18164
       2  |  4:02.15 |    3:44.67   |       18165      |      35031
       3  |  7:47.07 |    3:41.38   |       35032      |      51644
       4  | 11:28.45 |    4:30.00   |       51645      |      71894
       5  | 15:58.45 |    3:58.00   |       71895      |      89744
       6  | 19:56.45 |    4:02.42   |       89745      |     107936
       7  | 23:59.12 |    2:35.08   |      107937      |     119569
       8  | 26:34.20 |    3:18.22   |      119570      |     134441
       9  | 29:52.42 |    3:28.48   |      134442      |     150089
      10  | 33:21.15 |    3:49.55   |      150090      |     167319
      11  | 37:10.70 |    4:05.25   |      167320      |     185719
      12  | 41:16.20 |    3:52.45   |      185720      |     203164
Характеристики диапазона извлечения и сообщения об ошибках
Выбранный диапазон
     Имя файла C:\Мои раздачи\Sylvie Vartan - Toutes les femmes ont un secret\Sylvie Vartan - Toutes les femmes ont un secret.wav
     Пиковый уровень 100.0 %
     Скорость извлечения 1.9 X
     Качество диапазона 100.0 %
     CRC теста 81193553
     CRC копии 81193553
     Копирование... OK
Ошибок не произошло
AccurateRip: сводка
Трек  1  : извлечено точно (доверие 2)  [ADA7C01B]  (AR v1)
Трек  2  : извлечено точно (доверие 2)  [BE281383]  (AR v1)
Трек  3  : извлечено точно (доверие 2)  [DF484DFE]  (AR v1)
Трек  4  : извлечено точно (доверие 2)  [6E129DFD]  (AR v1)
Трек  5  : извлечено точно (доверие 2)  [119CAEC0]  (AR v1)
Трек  6  : извлечено точно (доверие 2)  [032F2211]  (AR v1)
Трек  7  : извлечено точно (доверие 2)  [7D391357]  (AR v1)
Трек  8  : извлечено точно (доверие 2)  [C30AD242]  (AR v1)
Трек  9  : извлечено точно (доверие 2)  [C8CFE002]  (AR v1)
Трек 10  : извлечено точно (доверие 2)  [95C729BE]  (AR v1)
Трек 11  : извлечено точно (доверие 2)  [EEA65230]  (AR v1)
Трек 12  : извлечено точно (доверие 2)  [203F6EEA]  (AR v1)
Все треки извлечены точно
Конец отчёта
==== Контрольная сумма отчёта 3BBC48490C72F3F3CEC3CFB3EFBD036086F7DEF0DCA4378FF90B4A6D7130AC27 ====
Код:
REM GENRE Pop
REM DATE 1996
REM DISCID A70A940C
REM COMMENT "ExactAudioCopy v1.0b3"
PERFORMER "Sylvie Vartan"
TITLE "Toutes les femmes ont un secret"
FILE "Sylvie Vartan - Toutes les femmes ont un secret.flac" WAVE
  TRACK 01 AUDIO
    TITLE "Back to L.A."
    PERFORMER "Sylvie Vartan"
    INDEX 01 00:00:00
  TRACK 02 AUDIO
    TITLE "Je n'aime encore que toi"
    PERFORMER "Sylvie Vartan"
    INDEX 00 04:02:12
    INDEX 01 04:02:15
  TRACK 03 AUDIO
    TITLE "Forte e fragile"
    PERFORMER "Sylvie Vartan"
    INDEX 00 07:47:05
    INDEX 01 07:47:07
  TRACK 04 AUDIO
    TITLE "Il pense a son corps"
    PERFORMER "Sylvie Vartan"
    INDEX 00 11:28:42
    INDEX 01 11:28:45
  TRACK 05 AUDIO
    TITLE "Toutes les femmes ont un secret"
    PERFORMER "Sylvie Vartan"
    INDEX 00 15:58:42
    INDEX 01 15:58:45
  TRACK 06 AUDIO
    TITLE "Des mots d'amour"
    PERFORMER "Sylvie Vartan"
    INDEX 00 19:56:42
    INDEX 01 19:56:45
  TRACK 07 AUDIO
    TITLE "L'amour s'arrete"
    PERFORMER "Sylvie Vartan"
    INDEX 00 23:59:10
    INDEX 01 23:59:12
  TRACK 08 AUDIO
    TITLE "Seuls pour un soir"
    PERFORMER "Sylvie Vartan"
    INDEX 00 26:34:17
    INDEX 01 26:34:20
  TRACK 09 AUDIO
    TITLE "Ne quittez pas"
    PERFORMER "Sylvie Vartan"
    INDEX 00 29:52:40
    INDEX 01 29:52:42
  TRACK 10 AUDIO
    TITLE "Jour d'hiver"
    PERFORMER "Sylvie Vartan"
    INDEX 00 33:21:12
    INDEX 01 33:21:15
  TRACK 11 AUDIO
    TITLE "Ton cinema"
    PERFORMER "Sylvie Vartan"
    INDEX 00 37:10:67
    INDEX 01 37:10:70
  TRACK 12 AUDIO
    TITLE "Quelqu'un m'attend"
    PERFORMER "Sylvie Vartan"
    INDEX 00 41:15:20
    INDEX 01 41:16:20
Правила, инструкции, FAQ!!!
Торрент  Добавлен [01 янв 2020, 22:53] Скачать торрент Магнет ссылка
Скачать торрент
[ Размер 12.35 КБ / Просмотров 4 ]

Статус
Проверен 
 
Размер  296.46 МБ
Приватный: Нет (DHT включён)
.torrent скачан  0
 


     Отправить личное сообщение
   
Страница 1 из 1
Показать сообщения за:  Поле сортировки  
Начать новую тему Ответить на тему


Сейчас этот форум просматривают: нет зарегистрированных пользователей и гости: 0


Вы не можете начинать темы
Вы не можете отвечать на сообщения
Вы не можете редактировать свои сообщения
Вы не можете удалять свои сообщения
Вы не можете добавлять вложения

Перейти:  
cron