Начать новую тему Ответить на тему
Статистика раздачи
Размер: 263.24 МБ | Добавлен: 01 янв 2020, 22:49 | Скачали: 0
Сидеров: 0  [0 байт/сек]    Личеров: 0  [0 байт/сек]
Пред. тема | След. тема 

Автор
Сообщение

СообщениеДобавлено: 01 янв 2020, 22:49 

Ответить с цитатой 

Ours / Pops
Жанр: Pop, Chanson
Носитель: WEB
Страна-производитель диска (релиза): 2017
Год издания: 2017
Издатель (лейбл): CAPITOL
Страна исполнителя (группы): France
Аудиокодек: FLAC (*.flac)
Тип рипа: tracks
Битрейт аудио: lossless
Продолжительность: 00:40:51
Источник (релизер): qobuz
Наличие сканов в содержимом раздачи: Front
Треклист:
01. Jamais su danser
02. Comment faire ?
03. Au cinéma
04. Le grand noir avec une chaussure blonde
05. De temps en temps
06. Chacun y voit
07. Amour en morse
08. Hula hoop
09. Roseaux pliés
10. Freine (tes battements)
11. Liu Bolin
12. Tordu
Код:
foobar2000 1.1.10 / Dynamic Range Meter 1.1.1
log date: 2017-10-06 19:08:11
--------------------------------------------------------------------------------
Analyzed: Ours / Pops
--------------------------------------------------------------------------------
DR         Peak         RMS     Duration Track
--------------------------------------------------------------------------------
DR6        0.00 dB    -8.14 dB      3:39 ?-Jamais su danser
DR6        0.00 dB    -7.57 dB      3:07 ?-Comment faire ?
DR7        0.00 dB    -7.67 dB      3:37 ?-Au cinéma
DR6        0.00 dB    -8.89 dB      4:12 ?-Le grand noir avec une chaussure blonde
DR7        0.00 dB    -9.98 dB      3:49 ?-De temps en temps
DR6        0.00 dB    -8.07 dB      3:47 ?-Chacun y voit
DR7       -0.24 dB    -8.81 dB      2:45 ?-Amour en morse
DR6        0.00 dB    -7.74 dB      3:27 ?-Hula hoop
DR6        0.00 dB    -7.38 dB      3:10 ?-Roseaux pliés
DR6        0.00 dB    -7.74 dB      3:09 ?-Freine (tes battements)
DR7       -0.48 dB   -10.21 dB      3:14 ?-Liu Bolin
DR6        0.00 dB    -7.31 dB      2:55 ?-Tordu
--------------------------------------------------------------------------------
Number of tracks:  12
Official DR value: DR6
Samplerate:        44100 Hz
Channels:          2
Bits per sample:   16
Bitrate:           919 kbps
Codec:             FLAC
================================================================================
Код:
-----------------------
DON'T MODIFY THIS FILE
-----------------------
PERFORMER: auCDtect Task Manager, ver. 1.5.1RC4 build 1.5.1.5
Copyright (c) 2008-2010 y-soft. All rights reserved
[url=http://y-soft.org]http://y-soft.org[/url]
ANALYZER: auCDtect: CD records authenticity detector, version 0.8.2
Copyright (c) 2004 Oleg Berngardt. All rights reserved.
Copyright (c) 2004 Alexander Djourik. All rights reserved.
FILE: 12. Tordu.flac
  Size: 20240218 Hash: 2E8F18E3E28C7F6520CD8ABA8CDB8EB5 Accuracy: -m0
  Conclusion: CDDA 100%
  Signature: 6A671D6A332B97406A1EB3FF3F29CCB327D8EE23
FILE: 11. Liu Bolin.flac
  Size: 18346912 Hash: 59A71C4779E856D7E9B4559F32C8F4AF Accuracy: -m0
  Conclusion: CDDA 100%
  Signature: AA76A803D03AC916A2175E217A016F4BE79F1290
FILE: 10. Freine (tes battements).flac
  Size: 20779660 Hash: 5B382575886B07F6CA8EFFC883AAB937 Accuracy: -m0
  Conclusion: CDDA 100%
  Signature: F65CCF2D137F8ACC67FCA5727DFDDD0E9E5FF82D
FILE: 09. Roseaux pliés.flac
  Size: 22918742 Hash: F359D567C24C3879C6583839BF079EEC Accuracy: -m0
  Conclusion: CDDA 100%
  Signature: ED204826E11EE099A66FFCF829D51A3E301348D0
FILE: 08. Hula hoop.flac
  Size: 23285186 Hash: B13EC6CEA097A725B9F25FCC046D0435 Accuracy: -m0
  Conclusion: CDDA 100%
  Signature: 94DB820A57A6B60206E0448D96A8D60535580ED0
FILE: 07. Amour en morse.flac
  Size: 18371658 Hash: B2F08E4844F49113030463EF77AD8A50 Accuracy: -m0
  Conclusion: CDDA 100%
  Signature: 3B2D6A399208D32AC8BA4405271A0061A7A7EE0E
FILE: 06. Chacun y voit.flac
  Size: 27358821 Hash: 04AF74CB39D173CA54A5A29001F29357 Accuracy: -m0
  Conclusion: CDDA 100%
  Signature: 90C76FD1A1137B5CDBD4B4ADE4AA43D1E46B60C3
FILE: 05. De temps en temps.flac
  Size: 23125310 Hash: 76FB9AD6905E0F8F8CBDE1CB1CA09056 Accuracy: -m0
  Conclusion: CDDA 99%
  Signature: 154359F3F46147E8926670DEE171CCF0E9E7F99B
FILE: 04. Le grand noir avec une chaussure blonde.flac
  Size: 28452853 Hash: A9EC71BABFE6D316B491280EDE81D77B Accuracy: -m0
  Conclusion: CDDA 100%
  Signature: 88477D76F6D9A8D39AFB8C6ECB30BB03ADAE9FEF
FILE: 03. Au cinéma.flac
  Size: 24873167 Hash: E1422AB1CECB63125197D3D53EE8F84F Accuracy: -m0
  Conclusion: CDDA 100%
  Signature: 5F78F39ADD779A3143FA8E7A0BC88EA2A2BCBD96
FILE: 02. Comment faire .flac
  Size: 22485231 Hash: C310AC8BD9A5B292F86F9075752EF07E Accuracy: -m0
  Conclusion: CDDA 100%
  Signature: 580744E62CDBDD8C553A7AE9836A8A83A1AD7194
FILE: 01. Jamais su danser.flac
  Size: 25640039 Hash: E343B33C96BB282BB4E9E0197966100D Accuracy: -m0
  Conclusion: CDDA 100%
  Signature: 16EABC9D0D32EC2C1460BD2DD2DA7BB55993F04B
Правила, инструкции, FAQ!!!
Торрент  Добавлен [01 янв 2020, 22:49] Скачать торрент Магнет ссылка
Скачать торрент
[ Размер 11.48 КБ / Просмотров 3 ]

Статус
Проверен 
 
Размер  263.24 МБ
Приватный: Нет (DHT включён)
.torrent скачан  0
 


     Отправить личное сообщение
   
Страница 1 из 1
Показать сообщения за:  Поле сортировки  
Начать новую тему Ответить на тему


Сейчас этот форум просматривают: нет зарегистрированных пользователей и гости: 0


Вы не можете начинать темы
Вы не можете отвечать на сообщения
Вы не можете редактировать свои сообщения
Вы не можете удалять свои сообщения
Вы не можете добавлять вложения

Перейти:  
cron