Начать новую тему Ответить на тему
Статистика раздачи
Размер: 184.1 МБ | Добавлен: 01 янв 2020, 22:51 | Скачали: 0
Сидеров: 0  [0 байт/сек]    Личеров: 0  [0 байт/сек]
Пред. тема | След. тема 

Автор
Сообщение

СообщениеДобавлено: 01 янв 2020, 22:51 

Ответить с цитатой 

Mouloudji / Comme une feuille en automne
Жанр: Pop, Chanson
Носитель: WEB
Год издания: 1978/2015
Издатель (лейбл): Mercury
Страна исполнителя (группы): France
Аудиокодек: FLAC (*.flac)
Тип рипа: tracks
Битрейт аудио: lossless
Продолжительность: 00:35:29
Источник (релизер): qobuz
Наличие сканов в содержимом раздачи: Front
Треклист:
01. L'important c'est la liberté
02. J'ai tant besoin d'amour
03. Où est Marie-Berthe la douce ?
04. Pour un sou d'amour
05. La laide que voila
06. Suis je au nord suis je au sud
07. Comme une feuille en automne
08. On s'est connu bêtement
09. Les amours mortes, ça nous connait
10. La java des primaires
11. La sirène
Код:
foobar2000 1.1.10 / Dynamic Range Meter 1.1.1
log date: 2017-12-31 19:59:06
--------------------------------------------------------------------------------
Analyzed: Mouloudji / Comme une feuille en automne 1978
--------------------------------------------------------------------------------
DR         Peak         RMS     Duration Track
--------------------------------------------------------------------------------
DR14      -1.26 dB   -17.75 dB      2:45 ?-L'important c'est la liberté
DR15      -0.51 dB   -18.45 dB      3:13 ?-J'ai tant besoin d'amour
DR12      -1.32 dB   -17.92 dB      3:30 ?-Où est Marie-Berthe la douce ?
DR15      -0.41 dB   -18.68 dB      2:39 ?-Pour un sou d'amour
DR13      -1.28 dB   -17.94 dB      3:31 ?-La laide que voila
DR16      -0.06 dB   -18.07 dB      3:20 ?-Suis je au nord suis je au sud
DR12      -1.34 dB   -16.69 dB      3:13 ?-Comme une feuille en automne
DR16      -0.49 dB   -19.69 dB      3:24 ?-On s'est connu bêtement
DR15      -0.83 dB   -19.70 dB      2:53 ?-Les amours mortes, ça nous connait
DR16      -0.17 dB   -17.92 dB      3:26 ?-La java des primaires
DR12      -2.24 dB   -19.01 dB      3:35 ?-La sirène
--------------------------------------------------------------------------------
Number of tracks:  11
Official DR value: DR14
Samplerate:        44100 Hz
Channels:          2
Bits per sample:   16
Bitrate:           713 kbps
Codec:             FLAC
================================================================================
Код:
-----------------------
DON'T MODIFY THIS FILE
-----------------------
PERFORMER: auCDtect Task Manager, ver. 1.5.1RC4 build 1.5.1.5
Copyright (c) 2008-2010 y-soft. All rights reserved
[url=http://y-soft.org]http://y-soft.org[/url]
ANALYZER: auCDtect: CD records authenticity detector, version 0.8.2
Copyright (c) 2004 Oleg Berngardt. All rights reserved.
Copyright (c) 2004 Alexander Djourik. All rights reserved.
FILE: 11. La sirène.flac
  Size: 19280809 Hash: 53EF353AACB9DB2421FB3075668ECEEE Accuracy: -m0
  Conclusion: CDDA 100%
  Signature: 6C25E4C9746B841AAE29372AB6883BE287DDA8FD
FILE: 10. La java des primaires.flac
  Size: 18770691 Hash: 149EC415E0AB041B372A85D7AEDB119A Accuracy: -m0
  Conclusion: CDDA 100%
  Signature: CD26C72A58E65EBCF3E7B8ABAA6789643071E557
FILE: 09. Les amours mortes, ça nous connait.flac
  Size: 14586848 Hash: 3E605F57024967087920D05611E4C19A Accuracy: -m0
  Conclusion: CDDA 100%
  Signature: 8EF1F68988DAA89FF6061E6E9CC65894BDB8C274
FILE: 08. On s'est connu bêtement.flac
  Size: 16358760 Hash: F10B1E01FB0BCEE139AFA967211C76FF Accuracy: -m0
  Conclusion: CDDA 100%
  Signature: EB20D007D2415905F909C9729C7A68B56C16D589
FILE: 07. Comme une feuille en automne.flac
  Size: 17556579 Hash: C140CE3F20F533F51B79E3B77A45FB45 Accuracy: -m0
  Conclusion: CDDA 100%
  Signature: D257B4F818F5984AD306D54C95EF8A94FD31DAE5
FILE: 06. Suis je au nord suis je au sud.flac
  Size: 20157587 Hash: 70F0BA068EA8A00D097325FF5DCDC707 Accuracy: -m0
  Conclusion: CDDA 100%
  Signature: FEC924B58FCD3B78A973FF6342A6E637AF7190DC
FILE: 05. La laide que voila.flac
  Size: 17985358 Hash: BD76D5C08580BB0BA4961A6DA44CF54D Accuracy: -m0
  Conclusion: CDDA 100%
  Signature: 4AD09D3821F178A7CD880A2A5C517D7C1D010242
FILE: 04. Pour un sou d'amour.flac
  Size: 14194838 Hash: 90883D4DB2EEE9650655BE71FF61EB59 Accuracy: -m0
  Conclusion: CDDA 100%
  Signature: A890E93C3B34ABDD308437CA9F651E04F7050A5B
FILE: 03. Où est Marie-Berthe la douce .flac
  Size: 19703193 Hash: 58928C97E405704B16DFA8D2DB0205B6 Accuracy: -m0
  Conclusion: CDDA 100%
  Signature: 2C69FEEB57D1FAEEFC534F16CE9952977C6D73BD
FILE: 02. J'ai tant besoin d'amour.flac
  Size: 17122676 Hash: 757D578B58D6302B96912285AE6E32C0 Accuracy: -m0
  Conclusion: CDDA 100%
  Signature: 12A95A1005DD2AD1389018F2E301F78A1A2C3D1D
FILE: 01. L'important c'est la liberté.flac
  Size: 17156466 Hash: 7A239B4EC2A0CCC57617458657694CA9 Accuracy: -m0
  Conclusion: CDDA 100%
  Signature: EF11A828111F04244365061CD5533F5AFA724733
Правила, инструкции, FAQ!!!
Торрент  Добавлен [01 янв 2020, 22:51] Скачать торрент Магнет ссылка
Скачать торрент
[ Размер 15.65 КБ / Просмотров 3 ]

Статус
Проверен 
 
Размер  184.1 МБ
Приватный: Нет (DHT включён)
.torrent скачан  0
 


     Отправить личное сообщение
   
Страница 1 из 1
Показать сообщения за:  Поле сортировки  
Начать новую тему Ответить на тему


Сейчас этот форум просматривают: нет зарегистрированных пользователей и гости: 0


Вы не можете начинать темы
Вы не можете отвечать на сообщения
Вы не можете редактировать свои сообщения
Вы не можете удалять свои сообщения
Вы не можете добавлять вложения

Перейти:  
cron