Начать новую тему Ответить на тему
Статистика раздачи
Размер: 228.03 МБ | Добавлен: 01 янв 2020, 22:53 | Скачали: 0
Сидеров: 0  [0 байт/сек]    Личеров: 0  [0 байт/сек]
Пред. тема | След. тема 

Автор
Сообщение

СообщениеДобавлено: 01 янв 2020, 22:53 

Ответить с цитатой 

Mireille Mathieu / Mireille Mathieu (1991)
Жанр: Pop, Chanson
Страна-производитель диска: France
Год издания диска: 1991
Издатель (лейбл): Carrere
Номер по каталогу: 9031.76106-2
Аудио кодек: FLAC (*.flac)
Тип рипа: image+.cue
Битрейт аудио: lossless
Продолжительность: 00:38:32
Источник (релизер): рип мой . cd тоже .
Наличие сканов в содержимом раздачи: нет
Треклист:
01. QUE POUR TOI (3:42)
02. LA MUSIQUE DU BONHEUR (4:57)
03. ENFANTS D`AMOUR ET D`AVENIR (3:53)
04. L`ENFANT DE L`IRLANDE (2:47)
05. POUR LA VIE (4:05)
06. L`AMOUR VIENDRA (3:10)
07. MES SOIRS DE BLUES (3:48)
08. MARIA ROSA (4:14)
09. CONTE DE FEES (3:49)
10. COMME SI C`ETAIT ECRIT (4:07)
Код:
Exact Audio Copy V0.99 prebeta 5 from 4. May 2009
Отчёт EAC об извлечении, выполненном 21. сентября 2010, 12:02
Mireilie Mathieu / Mireilie Mathieu
Дисковод: SONY    DVD RW DRX-S70U   Adapter: 1  ID: 0
Режим чтения                 : Достоверность
Использование точного потока : Да
Отключение кэша аудио        : Да
Использование указателей C2  : Нет
Коррекция смещения при чтении                     : 48
Способность читать области Lead-in и Lead-out     : Нет
Заполнение пропущенных сэмплов тишиной            : Да
Удаление блоков с тишиной в начале и конце        : Нет
При вычислениях CRC использовались нулевые сэмплы : Да
Интерфейс                                         : Встроенный Win32-интерфейс для Win NT/2000
Выходной формат          : Пользовательский кодировщик
Выбранный битрейт        : 768 kBit/s
Качество                 : Высокий
Добавление ID3-тэга      : Нет
Утилита сжатия           : H:\Program Files\Exact Audio Copy\Flac\flac.exe
Дополнительные параметры : -6 -V -T "ARTIST=%a" -T "TITLE=%t" -T "ALBUM=%g" -T "DATE=%y" -T "TRACKNUMBER=%n" -T "GENRE=%m" -T "COMMENT=%e" %s -o %d
TOC извлечённого CD
     Трек |   Старт  | Длительность | Начальный сектор | Конечный сектор
    ---------------------------------------------------------------------
       1  |  0:00.32 |    3:42.20   |          32      |      16701
       2  |  3:42.52 |    4:57.00   |       16702      |      38976
       3  |  8:39.52 |    3:52.68   |       38977      |      56444
       4  | 12:32.45 |    2:46.67   |       56445      |      68961
       5  | 15:19.37 |    4:05.00   |       68962      |      87336
       6  | 19:24.37 |    3:10.23   |       87337      |     101609
       7  | 22:34.60 |    3:48.05   |      101610      |     118714
       8  | 26:22.65 |    4:13.45   |      118715      |     137734
       9  | 30:36.35 |    3:48.62   |      137735      |     154896
      10  | 34:25.22 |    4:06.50   |      154897      |     173396
Характеристики диапазона извлечения и сообщения об ошибках
Выбранный диапазон
     Имя файла F:\Mireille Mathieu\Mireilie Mathieu 1991\Mireilie Mathieu - Mireilie Mathieu.wav
     Пиковый уровень 100.0 %
     Качество диапазона 99.9 %
     CRC теста 198F0C77
     CRC копии 198F0C77
     Копирование... OK
Ошибок не произошло
AccurateRip: сводка
Трек  1  точное извлечение (доверие 2)  [50EBCE69]
Трек  2  точное извлечение (доверие 2)  [F3D47A1E]
Трек  3  точное извлечение (доверие 2)  [5A14ACDC]
Трек  4  точное извлечение (доверие 2)  [7D4662B9]
Трек  5  точное извлечение (доверие 2)  [3AE6C7C9]
Трек  6  точное извлечение (доверие 2)  [9C9E9F59]
Трек  7  точное извлечение (доверие 2)  [FEDDD5BC]
Трек  8  точное извлечение (доверие 2)  [10BEABDB]
Трек  9  точное извлечение (доверие 2)  [2C8B6170]
Трек 10  точное извлечение (доверие 2)  [BE309A9E]
Все треки извлечены точно
Конец отчёта
Код:
REM GENRE Chanson
REM DATE 1991
REM DISCID 8009070A
REM COMMENT "ExactAudioCopy v0.99pb5"
PERFORMER "Mireilie Mathieu"
TITLE "Mireilie Mathieu"
FILE "Mireilie Mathieu - Mireilie Mathieu.flac" WAVE
  TRACK 01 AUDIO
    TITLE "QUE POUR TOI"
    PERFORMER "Mireilie Mathieu"
    INDEX 00 00:00:00
    INDEX 01 00:00:32
  TRACK 02 AUDIO
    TITLE "LA MUSIQUE DU BONHEUR"
    PERFORMER "Mireilie Mathieu"
    INDEX 00 03:40:27
    INDEX 01 03:42:52
  TRACK 03 AUDIO
    TITLE "ENFANTS D`AMOUR ET D`AVENIR"
    PERFORMER "Mireilie Mathieu"
    INDEX 00 08:37:07
    INDEX 01 08:39:52
  TRACK 04 AUDIO
    TITLE "L`ENFANT DE L`IRLANDE"
    PERFORMER "Mireilie Mathieu"
    INDEX 00 12:30:15
    INDEX 01 12:32:45
  TRACK 05 AUDIO
    TITLE "POUR LA VIE"
    PERFORMER "Mireilie Mathieu"
    INDEX 00 15:17:05
    INDEX 01 15:19:37
  TRACK 06 AUDIO
    TITLE "L`AMOUR VIENDRA"
    PERFORMER "Mireilie Mathieu"
    INDEX 00 19:19:67
    INDEX 01 19:24:37
  TRACK 07 AUDIO
    TITLE "MES SOIRS DE BLUES"
    PERFORMER "Mireilie Mathieu"
    INDEX 00 22:31:60
    INDEX 01 22:34:60
  TRACK 08 AUDIO
    TITLE "MARIA ROSA"
    PERFORMER "Mireilie Mathieu"
    INDEX 00 26:19:42
    INDEX 01 26:22:65
  TRACK 09 AUDIO
    TITLE "CONTE DE FEES"
    PERFORMER "Mireilie Mathieu"
    INDEX 00 30:34:20
    INDEX 01 30:36:35
  TRACK 10 AUDIO
    TITLE "COMME SI C`ETAIT ECRIT"
    PERFORMER "Mireilie Mathieu"
    INDEX 00 34:23:35
    INDEX 01 34:25:22
Код:
AUDIOCHECKER v2.0 beta (build 457) - by Dester - opdester@freemail.hu
~~~~~~~~~~~~~~~~~~~~~~~~~~~~~~~~~~
-=== DO NOT EDIT THIS FILE! ===-
Path: ...\Mireilie Mathieu 1991
1 -=- Mireilie Mathieu - Mireilie Mathieu.flac -=- MPEG (95%)
124863300
Правила, инструкции, FAQ!!!
Торрент  Добавлен [01 янв 2020, 22:53] Скачать торрент Магнет ссылка
Скачать торрент
[ Размер 18.5 КБ / Просмотров 1 ]

Статус
Проверен 
 
Размер  228.03 МБ
Приватный: Нет (DHT включён)
.torrent скачан  0
 


     Отправить личное сообщение
   
Страница 1 из 1
Показать сообщения за:  Поле сортировки  
Начать новую тему Ответить на тему


Сейчас этот форум просматривают: нет зарегистрированных пользователей и гости: 0


Вы не можете начинать темы
Вы не можете отвечать на сообщения
Вы не можете редактировать свои сообщения
Вы не можете удалять свои сообщения
Вы не можете добавлять вложения

Перейти:  
cron