Начать новую тему Ответить на тему
Статистика раздачи
Размер: 275.48 МБ | Добавлен: 01 янв 2020, 23:06 | Скачали: 0
Сидеров: 0  [0 байт/сек]    Личеров: 0  [0 байт/сек]
Пред. тема | След. тема 

Автор
Сообщение

СообщениеДобавлено: 01 янв 2020, 23:06 

Ответить с цитатой 

Michel Houellebecq / Présence Humaine
Жанр: Pop, Chanson
Носитель: CD
Страна-производитель диска (релиза): Франция
Год издания: 2000
Издатель (лейбл): Zakat
Номер по каталогу: ZAKCD022
Страна исполнителя (группы): Франция
Аудиокодек: FLAC (*.flac)
Тип рипа: tracks+.cue
Битрейт аудио: lossless
Продолжительность: 00:44:49
Источник (релизер): Berghain
Наличие сканов в содержимом раздачи: да
Треклист:
01. Presence humaine 4:05
02. Sejour-club 3:54
03. Paris-Dourdan 4:41
04. Playa blanca 2:48
05. Les pics de pollution 4:50
06. On se reveillait tot 5:14
07. Plein ete 8:29
08. Celibataires 4:08
09. Crepuscule 3:23
10. Derniers temps 3:15
Код:
Exact Audio Copy V1.0 beta 3 from 29. August 2011
Отчёт EAC об извлечении, выполненном 25. июля 2014, 20:45
Michel Houellebecq / Presence humaine
Дисковод: ASUS    DRW-1814BLT   Adapter: 4  ID: 0
Режим чтения                 : Достоверность
Использование точного потока : Да
Отключение кэша аудио        : Да
Использование указателей C2  : Нет
Коррекция смещения при чтении                     : 6
Способность читать области Lead-in и Lead-out     : Нет
Заполнение пропущенных сэмплов тишиной            : Да
Удаление блоков с тишиной в начале и конце        : Нет
При вычислениях CRC использовались нулевые сэмплы : Да
Интерфейс                                         : Встроенный Win32-интерфейс для Win NT/2000
Обработка зазоров                                 : Добавлено к предыдущему треку
Выходной формат          : Пользовательский кодировщик
Выбранный битрейт        : 128 kBit/s
Качество                 : Высокий
Добавление ID3-тега      : Нет
Утилита сжатия           : C:\Program Files\Exact Audio Copy\Flac\flac.exe
Дополнительные параметры :  -V -8 -T "Genre=%genre%" -T "Artist=%artist%" -T "Title=%title%" -T "Album=%albumtitle%" -T "Date=%year%" -T "Tracknumber=%tracknr%" -T "Comment=EAC1.0b2 FLAC -8" %source%
TOC извлечённого CD
     Трек |   Старт  | Длительность | Начальный сектор | Конечный сектор
    ---------------------------------------------------------------------
       1  |  0:00.32 |    4:06.25   |          32      |      18506
       2  |  4:06.57 |    3:55.15   |       18507      |      36146
       3  |  8:01.72 |    4:42.53   |       36147      |      57349
       4  | 12:44.50 |    2:48.25   |       57350      |      69974
       5  | 15:33.00 |    4:51.42   |       69975      |      91841
       6  | 20:24.42 |    5:15.15   |       91842      |     115481
       7  | 25:39.57 |    8:32.20   |      115482      |     153901
       8  | 34:12.02 |    4:08.00   |      153902      |     172501
       9  | 38:20.02 |    3:25.33   |      172502      |     187909
      10  | 41:45.35 |    3:15.12   |      187910      |     202546
Трек  1
     Имя файла R:\Раздача 20\Michel Houellebecq - 2000 - Presence Humaine\01 Presence humaine.wav
     Длина предзазора  0:00:02.32
     Пиковый уровень 100.0 %
     Скорость извлечения 4.5 X
     Качество трека 99.9 %
     CRC теста D144AB3D
     CRC копии D144AB3D
     Копирование... OK
Трек  2
     Имя файла R:\Раздача 20\Michel Houellebecq - 2000 - Presence Humaine\02 Sejour-club.wav
     Длина предзазора  0:00:01.12
     Пиковый уровень 100.0 %
     Скорость извлечения 5.4 X
     Качество трека 100.0 %
     CRC теста 0F88C87D
     CRC копии 0F88C87D
     Копирование... OK
Трек  3
     Имя файла R:\Раздача 20\Michel Houellebecq - 2000 - Presence Humaine\03 Paris-Dourdan.wav
     Длина предзазора  0:00:01.32
     Пиковый уровень 100.0 %
     Скорость извлечения 6.3 X
     Качество трека 100.0 %
     CRC теста 3DA582AF
     CRC копии 3DA582AF
     Копирование... OK
Трек  4
     Имя файла R:\Раздача 20\Michel Houellebecq - 2000 - Presence Humaine\04 Playa blanca.wav
     Длина предзазора  0:00:01.58
     Пиковый уровень 100.0 %
     Скорость извлечения 5.2 X
     Качество трека 99.9 %
     CRC теста 55E792AC
     CRC копии 55E792AC
     Копирование... OK
Трек  5
     Имя файла R:\Раздача 20\Michel Houellebecq - 2000 - Presence Humaine\05 Les pics de pollution.wav
     Длина предзазора  0:00:00.38
     Пиковый уровень 100.0 %
     Скорость извлечения 7.2 X
     Качество трека 100.0 %
     CRC теста 492F4437
     CRC копии 492F4437
     Копирование... OK
Трек  6
     Имя файла R:\Раздача 20\Michel Houellebecq - 2000 - Presence Humaine\06 On se reveillait tot.wav
     Пиковый уровень 100.0 %
     Скорость извлечения 7.7 X
     Качество трека 100.0 %
     CRC теста 935A4839
     CRC копии 935A4839
     Копирование... OK
Трек  7
     Имя файла R:\Раздача 20\Michel Houellebecq - 2000 - Presence Humaine\07 Plein ete.wav
     Длина предзазора  0:00:01.15
     Пиковый уровень 100.0 %
     Скорость извлечения 8.2 X
     Качество трека 99.9 %
     CRC теста BB37B1B4
     CRC копии BB37B1B4
     Копирование... OK
Трек  8
     Имя файла R:\Раздача 20\Michel Houellebecq - 2000 - Presence Humaine\08 Celibataires.wav
     Длина предзазора  0:00:03.20
     Пиковый уровень 100.0 %
     Скорость извлечения 7.6 X
     Качество трека 99.9 %
     CRC теста 49C3C49B
     CRC копии 49C3C49B
     Копирование... OK
Трек  9
     Имя файла R:\Раздача 20\Michel Houellebecq - 2000 - Presence Humaine\09 Crepuscule.wav
     Пиковый уровень 100.0 %
     Скорость извлечения 8.7 X
     Качество трека 100.0 %
     CRC теста EADA9654
     CRC копии EADA9654
     Копирование... OK
Трек 10
     Имя файла R:\Раздача 20\Michel Houellebecq - 2000 - Presence Humaine\10 Derniers temps.wav
     Длина предзазора  0:00:01.70
     Пиковый уровень 100.0 %
     Скорость извлечения 8.8 X
     Качество трека 100.0 %
     CRC теста 3F0D6E9B
     CRC копии 3F0D6E9B
     Копирование... OK
Ошибок не произошло
Конец отчёта
==== Контрольная сумма отчёта 4DFC2DBBA9F90FDA5F202B4DF790F69B3F4CD64B7829A43F18461849479FDF42 ====
Код:
[color=#009933]REM GENRE[/color] Alternative
[color=#009933]REM DATE[/color] 2000
[color=#009933]REM DISCID[/color] 790A8C0A
[color=#009933]REM COMMENT[/color] "ExactAudioCopy v1.0b3"
[color=#009933]CATALOG[/color] 0000000000000
[color=#3300CC]PERFORMER[/color] "Michel Houellebecq"
[color=#3300CC]TITLE[/color] "Presence humaine"
[color=#FF0066]FILE[/color] "01 - Présence humaine.[color=#0000FF]wav[/color]" [color=#FF0066]WAVE[/color]
  [color=#990099]TRACK[/color] [color=#FF0000]01[/color] [color=#990099]AUDIO[/color]
    [color=#3300CC]TITLE[/color] "Présence humaine"
    [color=#3300CC]PERFORMER[/color] "Michel Houellebecq"
    [color=#009933]ISRC[/color] FQ@9E0000101
    [color=#6600CC]PREGAP[/color] 00:00:32
    [color=#FF8040]INDEX[/color] [color=#FF0000]01[/color] 00:00:00
  [color=#990099]TRACK[/color] [color=#FF0000]02[/color] [color=#990099]AUDIO[/color]
    [color=#3300CC]TITLE[/color] "Séjour-club"
    [color=#3300CC]PERFORMER[/color] "Michel Houellebecq"
    [color=#009933]ISRC[/color] FQ@9E0000102
    [color=#FF8040]INDEX[/color] [color=#FF0000]00[/color] 04:05:13
[color=#FF0066]FILE[/color] "02 - Séjour-club.[color=#0000FF]wav[/color]" [color=#FF0066]WAVE[/color]
    [color=#FF8040]INDEX[/color] [color=#FF0000]01[/color] 00:00:00
  [color=#990099]TRACK[/color] [color=#FF0000]03[/color] [color=#990099]AUDIO[/color]
    [color=#3300CC]TITLE[/color] "Paris-Dourdan"
    [color=#3300CC]PERFORMER[/color] "Michel Houellebecq"
    [color=#009933]ISRC[/color] FQ@9E0000103
    [color=#FF8040]INDEX[/color] [color=#FF0000]00[/color] 03:53:58
[color=#FF0066]FILE[/color] "03 - Paris-Dourdan.[color=#0000FF]wav[/color]" [color=#FF0066]WAVE[/color]
    [color=#FF8040]INDEX[/color] [color=#FF0000]01[/color] 00:00:00
  [color=#990099]TRACK[/color] [color=#FF0000]04[/color] [color=#990099]AUDIO[/color]
    [color=#3300CC]TITLE[/color] "Playa blanca"
    [color=#3300CC]PERFORMER[/color] "Michel Houellebecq"
    [color=#009933]ISRC[/color] FQ@9E0000104
    [color=#FF8040]INDEX[/color] [color=#FF0000]00[/color] 04:40:70
[color=#FF0066]FILE[/color] "04 - Playa blanca.[color=#0000FF]wav[/color]" [color=#FF0066]WAVE[/color]
    [color=#FF8040]INDEX[/color] [color=#FF0000]01[/color] 00:00:00
  [color=#990099]TRACK[/color] [color=#FF0000]05[/color] [color=#990099]AUDIO[/color]
    [color=#3300CC]TITLE[/color] "Les pics de pollution"
    [color=#3300CC]PERFORMER[/color] "Michel Houellebecq"
    [color=#009933]ISRC[/color] FQ@9E0000105
    [color=#FF8040]INDEX[/color] [color=#FF0000]00[/color] 02:47:62
[color=#FF0066]FILE[/color] "05 - Les pics de pollution.[color=#0000FF]wav[/color]" [color=#FF0066]WAVE[/color]
    [color=#FF8040]INDEX[/color] [color=#FF0000]01[/color] 00:00:00
[color=#FF0066]FILE[/color] "06 - On se réveillait tôt.[color=#0000FF]wav[/color]" [color=#FF0066]WAVE[/color]
  [color=#990099]TRACK[/color] [color=#FF0000]06[/color] [color=#990099]AUDIO[/color]
    [color=#3300CC]TITLE[/color] "On se réveillait tôt"
    [color=#3300CC]PERFORMER[/color] "Michel Houellebecq"
    [color=#009933]ISRC[/color] FQ@9E0000106
    [color=#FF8040]INDEX[/color] [color=#FF0000]01[/color] 00:00:00
  [color=#990099]TRACK[/color] [color=#FF0000]07[/color] [color=#990099]AUDIO[/color]
    [color=#3300CC]TITLE[/color] "Plein été"
    [color=#3300CC]PERFORMER[/color] "Michel Houellebecq"
    [color=#009933]ISRC[/color] FQ@9E0000107
    [color=#FF8040]INDEX[/color] [color=#FF0000]00[/color] 05:14:00
[color=#FF0066]FILE[/color] "07 - Plein été.[color=#0000FF]wav[/color]" [color=#FF0066]WAVE[/color]
    [color=#FF8040]INDEX[/color] [color=#FF0000]01[/color] 00:00:00
  [color=#990099]TRACK[/color] [color=#FF0000]08[/color] [color=#990099]AUDIO[/color]
    [color=#3300CC]TITLE[/color] "Célibataires"
    [color=#3300CC]PERFORMER[/color] "Michel Houellebecq"
    [color=#009933]ISRC[/color] FQ@9E0000108
    [color=#FF8040]INDEX[/color] [color=#FF0000]00[/color] 08:29:00
[color=#FF0066]FILE[/color] "08 - Célibataires.[color=#0000FF]wav[/color]" [color=#FF0066]WAVE[/color]
    [color=#FF8040]INDEX[/color] [color=#FF0000]01[/color] 00:00:00
[color=#FF0066]FILE[/color] "09 - Crépuscule.[color=#0000FF]wav[/color]" [color=#FF0066]WAVE[/color]
  [color=#990099]TRACK[/color] [color=#FF0000]09[/color] [color=#990099]AUDIO[/color]
    [color=#3300CC]TITLE[/color] "Crépuscule"
    [color=#3300CC]PERFORMER[/color] "Michel Houellebecq"
    [color=#009933]ISRC[/color] FQ@9E0000109
    [color=#FF8040]INDEX[/color] [color=#FF0000]01[/color] 00:00:00
  [color=#990099]TRACK[/color] [color=#FF0000]10[/color] [color=#990099]AUDIO[/color]
    [color=#3300CC]TITLE[/color] "Derniers temps"
    [color=#3300CC]PERFORMER[/color] "Michel Houellebecq"
    [color=#009933]ISRC[/color] FQ@9E0000110
    [color=#FF8040]INDEX[/color] [color=#FF0000]00[/color] 03:23:38
[color=#FF0066]FILE[/color] "10 - Derniers temps.[color=#0000FF]wav[/color]" [color=#FF0066]WAVE[/color]
    [color=#FF8040]INDEX[/color] [color=#FF0000]01[/color] 00:00:00
Artwork – Stéphane Manel
Bass – Damien Lefevre* (tracks: 1 to 7)
Drums, Percussion – Nicolas Courret (tracks: 1 to 7)
Engineer [On Stage] – Stéphane Poitevin
Guitar – Peter von Poehl (tracks: 8 to 10)
Instruments, Recorded By, Mixed By – B.B.* (tracks: 8 to 10)
Keyboards, Backing Vocals – Bertrand Burgalat (tracks: 1 to 7)
Lead Guitar – Romain Humeau (tracks: 1 to 7)
Lyrics By – Michel Houellebecq
Mastered By – Raphaël Jonin
Photography By – Philippe Matsas
Photography By [Beach] – Eric Franceschi
Producer – Bertrand Burgalat
Recorded By [Assistant], Mixed By [Assistant] – Romain Caillard (tracks: 1 to 7), Vincent Crenne (tracks: 1 to 7), Virgile Hilaire (tracks: 1 to 7)
Recorded By, Mixed By – Dominique Ledudal (tracks: 1 to 7)
Rhythm Guitar – Peter von Poehl (tracks: 1 to 7)
Правила, инструкции, FAQ!!!
Торрент  Добавлен [01 янв 2020, 23:06] Скачать торрент Магнет ссылка
Скачать торрент
[ Размер 3 КБ / Просмотров 0 ]

Статус
Проверен 
 
Размер  275.48 МБ
Приватный: Нет (DHT включён)
.torrent скачан  0
 


     Отправить личное сообщение
   
Страница 1 из 1
Показать сообщения за:  Поле сортировки  
Начать новую тему Ответить на тему


Сейчас этот форум просматривают: нет зарегистрированных пользователей и гости: 0


Вы не можете начинать темы
Вы не можете отвечать на сообщения
Вы не можете редактировать свои сообщения
Вы не можете удалять свои сообщения
Вы не можете добавлять вложения

Перейти:  
cron