Начать новую тему Ответить на тему
Статистика раздачи
Размер: 281.15 МБ | Добавлен: 01 янв 2020, 22:43 | Скачали: 0
Сидеров: 1  [0 байт/сек]    Личеров: 0  [0 байт/сек]
Пред. тема | След. тема 

Автор
Сообщение

СообщениеДобавлено: 01 янв 2020, 22:43 

Ответить с цитатой 

Kerredine Soltani / Kerredine Soltani
Жанр: Pop, chanson
Носитель: CD
Страна-производитель диска: EU
Год издания: 2012
Издатель (лейбл): Warner
Страна: France
Аудиокодек: FLAC (*.flac)
Тип рипа: image+.cue
Битрейт аудио: lossless
Продолжительность: 43:16
Источник (релизер): Диск из собственной коллекции
Наличие сканов в содержимом раздачи: нет
Треклист:
01. Fils De La Boheme
02. L'Amour N'existe Pas
03. En Temps De Crise
04. Emmene-Moi
05. Et Si Demain
06. Parigot
07. Pas Assez
08. Le Verlan
09. Pirate
10. J'ai L'impression
11. Lettre A Mes Enfants
12. Je Veux M'integrer
Код:
Exact Audio Copy V1.0 beta 3 from 29. August 2011
Отчёт EAC об извлечении, выполненном 13. июля 2014, 19:21
Kerredine Soltani / Kerredine Soltani
Дисковод: MATSHITADVD-RAM UJ8B0AW   Adapter: 0  ID: 1
Режим чтения                 : Достоверность
Использование точного потока : Да
Отключение кэша аудио        : Да
Использование указателей C2  : Нет
Коррекция смещения при чтении                     : 102
Способность читать области Lead-in и Lead-out     : Нет
Заполнение пропущенных сэмплов тишиной            : Да
Удаление блоков с тишиной в начале и конце        : Нет
При вычислениях CRC использовались нулевые сэмплы : Да
Интерфейс                                         : Встроенный Win32-интерфейс для Win NT/2000
Выходной формат          : Пользовательский кодировщик
Выбранный битрейт        : 128 kBit/s
Качество                 : Высокий
Добавление ID3-тега      : Нет
Утилита сжатия           : C:\Program Files (x86)\Exact Audio Copy\Flac\flac.exe
Дополнительные параметры : -V -8 %source%
TOC извлечённого CD
     Трек |   Старт  | Длительность | Начальный сектор | Конечный сектор
    ---------------------------------------------------------------------
       1  |  0:00.00 |    3:18.02   |           0      |      14851
       2  |  3:18.02 |    3:42.40   |       14852      |      31541
       3  |  7:00.42 |    3:56.36   |       31542      |      49277
       4  | 10:57.03 |    3:24.40   |       49278      |      64617
       5  | 14:21.43 |    3:58.46   |       64618      |      82513
       6  | 18:20.14 |    3:11.43   |       82514      |      96881
       7  | 21:31.57 |    3:32.64   |       96882      |     112845
       8  | 25:04.46 |    3:49.45   |      112846      |     130065
       9  | 28:54.16 |    3:43.56   |      130066      |     146846
      10  | 32:37.72 |    3:24.61   |      146847      |     162207
      11  | 36:02.58 |    3:44.41   |      162208      |     179048
      12  | 39:47.24 |    3:28.65   |      179049      |     194713
      13  | 45:48.14 |    8:59.27   |      206114      |     246565
Характеристики диапазона извлечения и сообщения об ошибках
Выбранный диапазон
     Имя файла C:\Мои раздачи\Kerredine Soltani - Kerredine Soltani\Kerredine Soltani - Kerredine Soltani.wav
     Пиковый уровень 100.0 %
     Скорость извлечения 1.8 X
     Качество диапазона 100.0 %
     CRC теста 20BFCEF0
     CRC копии 20BFCEF0
     Копирование... OK
Ошибок не произошло
AccurateRip: сводка
Трек  1  : извлечено точно (доверие 2)  [820F88D1]  (AR v2)
Трек  2  : извлечено точно (доверие 2)  [98066AD5]  (AR v2)
Трек  3  : извлечено точно (доверие 2)  [BE309C3B]  (AR v2)
Трек  4  : извлечено точно (доверие 2)  [A506DE7F]  (AR v2)
Трек  5  : извлечено точно (доверие 2)  [EE6D7ECC]  (AR v2)
Трек  6  : извлечено точно (доверие 2)  [9BF782A2]  (AR v2)
Трек  7  : извлечено точно (доверие 2)  [BB046242]  (AR v2)
Трек  8  : извлечено точно (доверие 2)  [FFBD7D3E]  (AR v2)
Трек  9  : извлечено точно (доверие 2)  [CCDE7DA7]  (AR v2)
Трек 10  : извлечено точно (доверие 2)  [400AA9B3]  (AR v2)
Трек 11  : извлечено точно (доверие 2)  [C0DE0653]  (AR v2)
Трек 12  : извлечено точно (доверие 2)  [7FA8FBAA]  (AR v2)
Все треки извлечены точно
Конец отчёта
==== Контрольная сумма отчёта 886BECB3A845C01D7FF77EB0C91E318C78A6B20DE13C7B162352EC71476B1987 ====
Код:
REM DISCID AA0CD70D
REM COMMENT "ExactAudioCopy v1.0b3"
PERFORMER "Kerredine Soltani"
TITLE "Kerredine Soltani"
FILE "Kerredine Soltani - Kerredine Soltani.flac" WAVE
  TRACK 01 AUDIO
    TITLE "Fils De La Bohиme"
    PERFORMER " "
    INDEX 01 00:00:00
  TRACK 02 AUDIO
    TITLE "L'Amour N'existe Pas"
    PERFORMER " "
    INDEX 01 03:18:02
  TRACK 03 AUDIO
    TITLE "En Temps De Crise"
    PERFORMER " "
    INDEX 01 07:00:42
  TRACK 04 AUDIO
    TITLE "Emmиne-Moi"
    PERFORMER " "
    INDEX 01 10:57:03
  TRACK 05 AUDIO
    TITLE "Et Si Demain"
    PERFORMER " "
    INDEX 01 14:21:43
  TRACK 06 AUDIO
    TITLE "Parigot"
    PERFORMER " "
    INDEX 00 18:18:47
    INDEX 01 18:20:14
  TRACK 07 AUDIO
    TITLE "Pas Assez"
    PERFORMER " "
    INDEX 00 21:29:43
    INDEX 01 21:31:57
  TRACK 08 AUDIO
    TITLE "Le Verlan"
    PERFORMER " "
    INDEX 00 25:02:40
    INDEX 01 25:04:46
  TRACK 09 AUDIO
    TITLE "Pirate"
    PERFORMER " "
    INDEX 01 28:54:16
  TRACK 10 AUDIO
    TITLE "J'ai L'impression"
    PERFORMER " "
    INDEX 00 32:36:59
    INDEX 01 32:37:72
  TRACK 11 AUDIO
    TITLE "Lettre A Mes Enfants"
    PERFORMER " "
    INDEX 00 36:01:58
    INDEX 01 36:02:58
  TRACK 12 AUDIO
    TITLE "Je Veux M'intйgrer"
    PERFORMER " "
    INDEX 01 39:47:24
Правила, инструкции, FAQ!!!
Торрент  Добавлен [01 янв 2020, 22:43] Скачать торрент Магнет ссылка
Скачать торрент
[ Размер 11.72 КБ / Просмотров 3 ]

Статус
Проверен 
 
Размер  281.15 МБ
Приватный: Нет (DHT включён)
.torrent скачан  0
 


     Отправить личное сообщение
   
Страница 1 из 1
Показать сообщения за:  Поле сортировки  
Начать новую тему Ответить на тему


Сейчас этот форум просматривают: нет зарегистрированных пользователей и гости: 0


Вы не можете начинать темы
Вы не можете отвечать на сообщения
Вы не можете редактировать свои сообщения
Вы не можете удалять свои сообщения
Вы не можете добавлять вложения

Перейти:  
cron