Начать новую тему Ответить на тему
Статистика раздачи
Размер: 477.42 МБ | Добавлен: 01 янв 2020, 23:02 | Скачали: 0
Сидеров: 0  [0 байт/сек]    Личеров: 0  [0 байт/сек]
Пред. тема | След. тема 

Автор
Сообщение

СообщениеДобавлено: 01 янв 2020, 23:02 

Ответить с цитатой 

Dalida / Yolanda 1958-59
Жанр: Pop, Chanson, French Chanson
Носитель: CD
Страна-производитель диска (релиза): Italia (?)
Год издания: 2010
Издатель (лейбл): PLIP MUSIC
Номер по каталогу: PL 002
Страна исполнителя (группы): France
Аудиокодек: FLAC (*.flac)
Тип рипа: image+.cue
Битрейт аудио: lossless
Продолжительность: 01:17:07
Источник (релизер): Рип с собственного диска
Наличие сканов в содержимом раздачи: да
Треклист:
01. Buenas noches mi amor
02. Le jour où la pluie viendra
03. Come prima (Tu me donnes)
04. Si je pouvais revivre un jour
05. Histoire d'un amour
06. Inconnu mon amour
07. Gondolier (With All My Heart)
08. Bambino (Guaglione)
09. Je pars (Alone)
10. Adieu monsieur mon amour
11. Guitare et tambourin (Holiday in Naples)
12. Des millions de larmes
13. Ciao ciao Bambina (Piove)
14. Ce serait dommage (Impatient Lover)
15. Gli zingari (Les gitans)
16. Du moment qu’on s’aime (Piccolissima serenata)
17. Scoubidou
18. Love in Portofino (A San Cristina)
19. La chanson d'Orphée (Manha do carnaval)
20. Je te tendrai les bras
21. Rendez-vous au Lavandou
22. Mes frères (Manhattan Spiritual)
23. La canzone di Orfeo (Manha do carnaval)
24. L'acqua viva
25. Il venditore di felicità
26. Non giocarti dell'amore
27. Marie Marie
28. Adonis
Код:
Exact Audio Copy V1.0 beta 3 from 29. August 2011
EAC extraction logfile from 8. April 2015, 16:13
Dalida / Yolanda 1958-59
Used drive  : HL-DT-STDVDRAM GH22NS50   Adapter: 3  ID: 0
Read mode               : Secure
Utilize accurate stream : Yes
Defeat audio cache      : Yes
Make use of C2 pointers : No
Read offset correction                      : 667
Overread into Lead-In and Lead-Out          : No
Fill up missing offset samples with silence : Yes
Delete leading and trailing silent blocks   : No
Null samples used in CRC calculations       : Yes
Used interface                              : Native Win32 interface for Win NT & 2000
Used output format              : User Defined Encoder
Selected bitrate                : 192 kBit/s
Quality                         : High
Add ID3 tag                     : No
Command line compressor         : C:\Program Files\Exact Audio Copy\FLAC\FLAC.EXE
Additional command line options : -V -8 -T "Date=%year%" -T "Genre=%genre%" %source%
TOC of the extracted CD
     Track |   Start  |  Length  | Start sector | End sector
    ---------------------------------------------------------
        1  |  0:00.00 |  2:45.63 |         0    |    12437
        2  |  2:45.63 |  2:56.72 |     12438    |    25709
        3  |  5:42.60 |  2:40.53 |     25710    |    37762
        4  |  8:23.38 |  2:20.54 |     37763    |    48316
        5  | 10:44.17 |  3:07.30 |     48317    |    62371
        6  | 13:51.47 |  2:40.63 |     62372    |    74434
        7  | 16:32.35 |  2:57.16 |     74435    |    87725
        8  | 19:29.51 |  3:32.27 |     87726    |   103652
        9  | 23:02.03 |  2:31.36 |    103653    |   115013
       10  | 25:33.39 |  2:24.68 |    115014    |   125881
       11  | 27:58.32 |  2:28.39 |    125882    |   137020
       12  | 30:26.71 |  3:00.09 |    137021    |   150529
       13  | 33:27.05 |  2:56.51 |    150530    |   163780
       14  | 36:23.56 |  2:11.03 |    163781    |   173608
       15  | 38:34.59 |  3:36.23 |    173609    |   189831
       16  | 42:11.07 |  2:24.59 |    189832    |   200690
       17  | 44:35.66 |  2:58.15 |    200691    |   214055
       18  | 47:34.06 |  3:02.59 |    214056    |   227764
       19  | 50:36.65 |  2:50.50 |    227765    |   240564
       20  | 53:27.40 |  2:50.40 |    240565    |   253354
       21  | 56:18.05 |  3:10.40 |    253355    |   267644
       22  | 59:28.45 |  3:00.00 |    267645    |   281144
       23  | 62:28.45 |  2:52.00 |    281145    |   294044
       24  | 65:20.45 |  1:48.50 |    294045    |   302194
       25  | 67:09.20 |  2:15.22 |    302195    |   312341
       26  | 69:24.42 |  1:53.15 |    312342    |   320831
       27  | 71:17.57 |  3:35.38 |    320832    |   336994
       28  | 74:53.20 |  2:14.45 |    336995    |   347089
Range status and errors
Selected range
     Filename D:\Uploads\Dalida\Dalida - 2010 Yolanda 1958-59\Dalida - Yolanda 1958-59.wav
     Peak level 100.0 %
     Extraction speed 2.1 X
     Range quality 100.0 %
     Test CRC 62B95B8D
     Copy CRC 62B95B8D
     Copy OK
No errors occurred
End of status report
==== Log checksum 0C5031D4B341849E2157060E094C26EE9152D2346B18107B8E9D918D1C9CD0D5 ====
Код:
REM GENRE Pop
REM DATE 2010
REM DISCID A012131C
REM COMMENT "ExactAudioCopy v1.0b3"
PERFORMER "Dalida"
TITLE "Yolanda 1958-59"
FILE "Dalida - Yolanda 1958-59.flac" WAVE
  TRACK 01 AUDIO
    TITLE "Buenas noches mi amor"
    PERFORMER "Dalida"
    FLAGS DCP
    INDEX 01 00:00:00
  TRACK 02 AUDIO
    TITLE "Le jour ou la pluie viendra"
    PERFORMER "Dalida"
    FLAGS DCP
    INDEX 00 02:43:63
    INDEX 01 02:45:63
  TRACK 03 AUDIO
    TITLE "Come prima"
    PERFORMER "Dalida"
    FLAGS DCP
    INDEX 00 05:40:60
    INDEX 01 05:42:60
  TRACK 04 AUDIO
    TITLE "Si je pouvais revivre un jour"
    PERFORMER "Dalida"
    FLAGS DCP
    INDEX 00 08:21:38
    INDEX 01 08:23:38
  TRACK 05 AUDIO
    TITLE "Histoire d'un amour"
    PERFORMER "Dalida"
    FLAGS DCP
    INDEX 00 10:42:17
    INDEX 01 10:44:17
  TRACK 06 AUDIO
    TITLE "Inconnu mon amour"
    PERFORMER "Dalida"
    FLAGS DCP
    INDEX 00 13:49:47
    INDEX 01 13:51:47
  TRACK 07 AUDIO
    TITLE "Gondolier"
    PERFORMER "Dalida"
    FLAGS DCP
    INDEX 00 16:30:35
    INDEX 01 16:32:35
  TRACK 08 AUDIO
    TITLE "Bambino"
    PERFORMER "Dalida"
    FLAGS DCP
    INDEX 00 19:27:51
    INDEX 01 19:29:51
  TRACK 09 AUDIO
    TITLE "Je pars"
    PERFORMER "Dalida"
    FLAGS DCP
    INDEX 00 23:00:03
    INDEX 01 23:02:03
  TRACK 10 AUDIO
    TITLE "Adieu monsieur mon amour"
    PERFORMER "Dalida"
    FLAGS DCP
    INDEX 00 25:31:39
    INDEX 01 25:33:39
  TRACK 11 AUDIO
    TITLE "Guitare et tambourin"
    PERFORMER "Dalida"
    FLAGS DCP
    INDEX 00 27:56:32
    INDEX 01 27:58:32
  TRACK 12 AUDIO
    TITLE "Des millions de larmes"
    PERFORMER "Dalida"
    FLAGS DCP
    INDEX 00 30:24:71
    INDEX 01 30:26:71
  TRACK 13 AUDIO
    TITLE "Ciao ciao Bambina"
    PERFORMER "Dalida"
    FLAGS DCP
    INDEX 00 33:25:05
    INDEX 01 33:27:05
  TRACK 14 AUDIO
    TITLE "Ce serait dommage"
    PERFORMER "Dalida"
    FLAGS DCP
    INDEX 00 36:21:56
    INDEX 01 36:23:56
  TRACK 15 AUDIO
    TITLE "Gli zingari"
    PERFORMER "Dalida"
    FLAGS DCP
    INDEX 00 38:32:59
    INDEX 01 38:34:59
  TRACK 16 AUDIO
    TITLE "Du moment qu’on s’aime"
    PERFORMER "Dalida"
    FLAGS DCP
    INDEX 00 42:09:07
    INDEX 01 42:11:07
  TRACK 17 AUDIO
    TITLE "Scoubidou"
    PERFORMER "Dalida"
    FLAGS DCP
    INDEX 00 44:33:66
    INDEX 01 44:35:66
  TRACK 18 AUDIO
    TITLE "Love in Portofino"
    PERFORMER "Dalida"
    FLAGS DCP
    INDEX 00 47:32:06
    INDEX 01 47:34:06
  TRACK 19 AUDIO
    TITLE "La chanson d'Orphee"
    PERFORMER "Dalida"
    FLAGS DCP
    INDEX 00 50:34:65
    INDEX 01 50:36:65
  TRACK 20 AUDIO
    TITLE "Je te tendrai les bras"
    PERFORMER "Dalida"
    FLAGS DCP
    INDEX 00 53:25:40
    INDEX 01 53:27:40
  TRACK 21 AUDIO
    TITLE "Rendez-vous au Lavandou"
    PERFORMER "Dalida"
    FLAGS DCP
    INDEX 00 56:16:05
    INDEX 01 56:18:05
  TRACK 22 AUDIO
    TITLE "Mes freres"
    PERFORMER "Dalida"
    FLAGS DCP
    INDEX 00 59:26:45
    INDEX 01 59:28:45
  TRACK 23 AUDIO
    TITLE "La canzone di Orfeo"
    PERFORMER "Dalida"
    FLAGS DCP
    INDEX 00 62:26:45
    INDEX 01 62:28:45
  TRACK 24 AUDIO
    TITLE "L'acqua viva"
    PERFORMER "Dalida"
    FLAGS DCP
    INDEX 00 65:18:45
    INDEX 01 65:20:45
  TRACK 25 AUDIO
    TITLE "Il venditore di felicita"
    PERFORMER "Dalida"
    FLAGS DCP
    INDEX 00 67:07:20
    INDEX 01 67:09:20
  TRACK 26 AUDIO
    TITLE "Non giocarti dell'amore"
    PERFORMER "Dalida"
    FLAGS DCP
    INDEX 00 69:22:42
    INDEX 01 69:24:42
  TRACK 27 AUDIO
    TITLE "Marie Marie"
    PERFORMER "Dalida"
    FLAGS DCP
    INDEX 00 71:15:57
    INDEX 01 71:17:57
  TRACK 28 AUDIO
    TITLE "Adonis"
    PERFORMER "Dalida"
    FLAGS DCP
    INDEX 00 74:51:20
    INDEX 01 74:53:20
Правила, инструкции, FAQ!!!
Торрент  Добавлен [01 янв 2020, 23:02] Скачать торрент Магнет ссылка
Скачать торрент
[ Размер 19.55 КБ / Просмотров 1 ]

Статус
Проверен 
 
Размер  477.42 МБ
Приватный: Нет (DHT включён)
.torrent скачан  0
 


     Отправить личное сообщение
   
Страница 1 из 1
Показать сообщения за:  Поле сортировки  
Начать новую тему Ответить на тему


Сейчас этот форум просматривают: нет зарегистрированных пользователей и гости: 0


Вы не можете начинать темы
Вы не можете отвечать на сообщения
Вы не можете редактировать свои сообщения
Вы не можете удалять свои сообщения
Вы не можете добавлять вложения

Перейти:  
cron