Начать новую тему Ответить на тему
Статистика раздачи
Размер: 474.48 МБ | Добавлен: 01 янв 2020, 23:01 | Скачали: 0
Сидеров: 0  [0 байт/сек]    Личеров: 0  [0 байт/сек]
Пред. тема | След. тема 

Автор
Сообщение

СообщениеДобавлено: 01 янв 2020, 23:01 

Ответить с цитатой 

Léo Ferré / L'ïle Saint-Louis - Immortal characters (3 CD)
Leo Ferre / L'ile Saint-Louis - Immortal characters (3 CD)
Жанр: Pop, Chanson
Носитель: CD
Страна-производитель диска (релиза): Франция
Год издания: 2011
Издатель (лейбл): Le Chant du Monde
Номер по каталогу: CDVP 698804
Страна исполнителя (группы): Франция
Аудиокодек: FLAC (*.flac)
Тип рипа: tracks+.cue
Битрейт аудио: lossless
Продолжительность: 03:37:00
Источник (релизер): mercilenain
Наличие сканов в содержимом раздачи: нет
Код:
Disk: 1  (La Vie D'Artiste)
   1. La Chanson Du Scaphandrier
   2. Monsieur William
   3. Monsieur Tout-Blanc
   4. La Vie D'artiste
   5. Le Bateau Espagnol
   6. La Femme Adultère
   7. A Saint-Germain Des Prés
   8. L'île Saint-Louis
   9. Le Flamenco De Paris
   10. L'inconnue De Londres
   11. Les Forains
   12. Barbarie
   13. L'esprit De Famille
   14. Le Temps Des Roses Rouges
   15. Judas
   16. Paris Canaille
   17. Notre Amour
   18. Martha La Mule
   19. Les Grandes Vacances
   20. Le Pont Mirabeau
   21. ... Et Des Clous
   22. Vitrines
   23. La Chambre
   24. Les Cloches De Nôtre-Dame
Disk: 2 (Le Piano Du Pauvre)
   1. Le Parvenu
   2. Le Piano Du Pauvre
   3. L'homme
   4. A La Seine
   5. Mon P'tit Voyou
   6. Graine D'ananar
   7. Notre-Dame De La Mouise
   8. Merci Mon Dieu
   9. Vise La Réclame
   10. La Rue
   11. Monsieur Mon Passé
   12. L'ame Du Rouquin
   13. La Vie
   14. La Chanson Triste
   15. En Amour
   16. Le Fleuve Aux Amants
   17. Le Guinche
   18. La Fortune
   19. Ma Vieille Branche
   20. T'en As
   21. La Grand Vie
   22. Le Temps Du Plastique
   23. Pauvre Rutebeuf
   24. L'amour
Disk: 3 (L'Etang Chimerique)
   1. L'été S'en Fout
   2. Les Copains D'la Neuille
   3. A Celle Qui Est Trop Gaie
   4. Le Serpent Qui Danse
   5. Le Léthé
   6. La Mort Des Amants
   7. L'invitation Au Voyage
   8. Le Revenant
   9. Harmonie Du Soir
   10. Brumes Et Pluies
   11. La Pipe
   12. Les Hiboux
   13. La Vie Antérieure
   14. Les Métamorphoses Du Vampire
   15. Java Partout
   16. La Zizique
   17. Mon Sébasto
   18. Les Temps Du Tango
   19. Le Jazz Band
   20. Mon Camarade
   21. L'Étang Chimérique
   22. Tahiti
Код:
Exact Audio Copy V1.0 beta 3 from 29. August 2011
EAC extraction logfile from 16. March 2012, 14:15
Léo Ferré / L'lle Saint-Louis
Used drive  : TSSTcorpCDDVDW SH-S223L   Adapter: 5  ID: 0
Read mode               : Secure
Utilize accurate stream : Yes
Defeat audio cache      : Yes
Make use of C2 pointers : No
Read offset correction                      : 6
Overread into Lead-In and Lead-Out          : No
Fill up missing offset samples with silence : Yes
Delete leading and trailing silent blocks   : No
Null samples used in CRC calculations       : Yes
Used interface                              : Native Win32 interface for Win NT & 2000
Gap handling                                : Appended to previous track
Used output format              : User Defined Encoder
Selected bitrate                : 1024 kBit/s
Quality                         : High
Add ID3 tag                     : No
Command line compressor         : C:\Program Files (x86)\Exact Audio Copy\Flac\flac.exe
Additional command line options : -8 -V -T "ARTIST=%artist%" -T "TITLE=%title%" -T "ALBUM=%albumtitle%" -T "DATE=%year%" -T "TRACKNUMBER=%tracknr%" -T "GENRE=%genre%" -T "PERFORMER=%albuminterpret%" -T "COMPOSER=%composer%" %haslyrics%--tag-from-file=LYRICS="%lyricsfile%"%haslyrics% -T "ALBUMARTIST=%albumartist%" -T "DISCNUMBER=%cdnumber%" -T "TOTALDISCS=%totalcds%" -T "TOTALTRACKS=%numtracks%" -T "COMMENT=%comment%" %source% -o %dest%
TOC of the extracted CD
     Track |   Start  |  Length  | Start sector | End sector
    ---------------------------------------------------------
        1  |  0:00.00 |  2:33.32 |         0    |    11506
        2  |  2:33.32 |  3:14.64 |     11507    |    26120
        3  |  5:48.21 |  3:26.32 |     26121    |    41602
        4  |  9:14.53 |  2:49.33 |     41603    |    54310
        5  | 12:04.11 |  3:29.03 |     54311    |    69988
        6  | 15:33.14 |  1:32.68 |     69989    |    76956
        7  | 17:06.07 |  2:33.56 |     76957    |    88487
        8  | 19:39.63 |  3:11.35 |     88488    |   102847
        9  | 22:51.23 |  1:41.65 |    102848    |   110487
       10  | 24:33.13 |  3:14.19 |    110488    |   125056
       11  | 27:47.32 |  3:02.47 |    125057    |   138753
       12  | 30:50.04 |  3:27.41 |    138754    |   154319
       13  | 34:17.45 |  2:33.52 |    154320    |   165846
       14  | 36:51.22 |  2:41.08 |    165847    |   177929
       15  | 39:32.30 |  2:46.41 |    177930    |   190420
       16  | 42:18.71 |  3:23.31 |    190421    |   205676
       17  | 45:42.27 |  2:51.42 |    205677    |   218543
       18  | 48:33.69 |  2:26.38 |    218544    |   229531
       19  | 51:00.32 |  3:30.26 |    229532    |   245307
       20  | 54:30.58 |  3:00.41 |    245308    |   258848
       21  | 57:31.24 |  2:22.06 |    258849    |   269504
       22  | 59:53.30 |  4:35.22 |    269505    |   290151
       23  | 64:28.52 |  3:03.30 |    290152    |   303906
       24  | 67:32.07 |  2:13.02 |    303907    |   313883
Track  1
     Filename E:\What.Cd Rips V0\What.CD Rips\Leo Ferre - L'lle Saint-Louis\L'lle Saint-Louis CD1\01 - La Chanson du scaphandried.wav
     Pre-gap length  0:00:02.00
     Peak level 81.4 %
     Extraction speed 4.5 X
     Track quality 100.0 %
     Test CRC FEC99F49
     Copy CRC FEC99F49
     Track not present in AccurateRip database
     Copy OK
Track  2
     Filename E:\What.Cd Rips V0\What.CD Rips\Leo Ferre - L'lle Saint-Louis\L'lle Saint-Louis CD1\02 - Monsieur William.wav
     Pre-gap length  0:00:02.00
     Peak level 69.3 %
     Extraction speed 3.9 X
     Track quality 99.9 %
     Test CRC 88A7D3C9
     Copy CRC 88A7D3C9
     Track not present in AccurateRip database
     Copy OK
Track  3
     Filename E:\What.Cd Rips V0\What.CD Rips\Leo Ferre - L'lle Saint-Louis\L'lle Saint-Louis CD1\03 - Monsieur Tout-Blanc.wav
     Pre-gap length  0:00:02.00
     Peak level 75.7 %
     Extraction speed 5.4 X
     Track quality 100.0 %
     Test CRC 47681C69
     Copy CRC 47681C69
     Track not present in AccurateRip database
     Copy OK
Track  4
     Filename E:\What.Cd Rips V0\What.CD Rips\Leo Ferre - L'lle Saint-Louis\L'lle Saint-Louis CD1\04 - La Vie d'artiste.wav
     Pre-gap length  0:00:02.00
     Peak level 82.2 %
     Extraction speed 5.5 X
     Track quality 100.0 %
     Test CRC 5D8026FC
     Copy CRC 5D8026FC
     Track not present in AccurateRip database
     Copy OK
Track  5
     Filename E:\What.Cd Rips V0\What.CD Rips\Leo Ferre - L'lle Saint-Louis\L'lle Saint-Louis CD1\05 - Le Bateau espagnol.wav
     Pre-gap length  0:00:02.00
     Peak level 80.2 %
     Extraction speed 6.1 X
     Track quality 100.0 %
     Test CRC 0466A1EA
     Copy CRC 0466A1EA
     Track not present in AccurateRip database
     Copy OK
Track  6
     Filename E:\What.Cd Rips V0\What.CD Rips\Leo Ferre - L'lle Saint-Louis\L'lle Saint-Louis CD1\06 - La Femme adultere.wav
     Pre-gap length  0:00:02.00
     Peak level 70.0 %
     Extraction speed 5.3 X
     Track quality 100.0 %
     Test CRC 329DEB2B
     Copy CRC 329DEB2B
     Track not present in AccurateRip database
     Copy OK
Track  7
     Filename E:\What.Cd Rips V0\What.CD Rips\Leo Ferre - L'lle Saint-Louis\L'lle Saint-Louis CD1\07 - A Saint-Germain-des-Pres.wav
     Pre-gap length  0:00:02.00
     Peak level 80.1 %
     Extraction speed 6.1 X
     Track quality 100.0 %
     Test CRC 3EF87F17
     Copy CRC 3EF87F17
     Track not present in AccurateRip database
     Copy OK
Track  8
     Filename E:\What.Cd Rips V0\What.CD Rips\Leo Ferre - L'lle Saint-Louis\L'lle Saint-Louis CD1\08 - L'lle Saint-Louis.wav
     Pre-gap length  0:00:02.00
     Peak level 89.1 %
     Extraction speed 6.6 X
     Track quality 100.0 %
     Test CRC 32EBC257
     Copy CRC 32EBC257
     Track not present in AccurateRip database
     Copy OK
Track  9
     Filename E:\What.Cd Rips V0\What.CD Rips\Leo Ferre - L'lle Saint-Louis\L'lle Saint-Louis CD1\09 - Le Flamenco de Paris.wav
     Pre-gap length  0:00:02.00
     Peak level 78.4 %
     Extraction speed 5.9 X
     Track quality 100.0 %
     Test CRC 93EA1956
     Copy CRC 93EA1956
     Track not present in AccurateRip database
     Copy OK
Track 10
     Filename E:\What.Cd Rips V0\What.CD Rips\Leo Ferre - L'lle Saint-Louis\L'lle Saint-Louis CD1\10 - L'lnconnue de Londres.wav
     Pre-gap length  0:00:02.00
     Peak level 62.6 %
     Extraction speed 7.0 X
     Track quality 100.0 %
     Test CRC B8C1C50E
     Copy CRC B8C1C50E
     Track not present in AccurateRip database
     Copy OK
Track 11
     Filename E:\What.Cd Rips V0\What.CD Rips\Leo Ferre - L'lle Saint-Louis\L'lle Saint-Louis CD1\11 - Les Forains.wav
     Pre-gap length  0:00:02.00
     Peak level 68.8 %
     Extraction speed 7.1 X
     Track quality 100.0 %
     Test CRC 6B069DE2
     Copy CRC 6B069DE2
     Track not present in AccurateRip database
     Copy OK
Track 12
     Filename E:\What.Cd Rips V0\What.CD Rips\Leo Ferre - L'lle Saint-Louis\L'lle Saint-Louis CD1\12 - Barbarie.wav
     Pre-gap length  0:00:02.00
     Peak level 88.0 %
     Extraction speed 7.5 X
     Track quality 100.0 %
     Test CRC 1EE094AF
     Copy CRC 1EE094AF
     Track not present in AccurateRip database
     Copy OK
Track 13
     Filename E:\What.Cd Rips V0\What.CD Rips\Leo Ferre - L'lle Saint-Louis\L'lle Saint-Louis CD1\13 - L'espirit de famille.wav
     Pre-gap length  0:00:02.00
     Peak level 77.9 %
     Extraction speed 5.3 X
     Track quality 99.9 %
     Test CRC 10730536
     Copy CRC 10730536
     Track not present in AccurateRip database
     Copy OK
Track 14
     Filename E:\What.Cd Rips V0\What.CD Rips\Leo Ferre - L'lle Saint-Louis\L'lle Saint-Louis CD1\14 - Le Temps des roses rogues.wav
     Pre-gap length  0:00:02.00
     Peak level 89.2 %
     Extraction speed 7.5 X
     Track quality 100.0 %
     Test CRC B4F3D09A
     Copy CRC B4F3D09A
     Track not present in AccurateRip database
     Copy OK
Track 15
     Filename E:\What.Cd Rips V0\What.CD Rips\Leo Ferre - L'lle Saint-Louis\L'lle Saint-Louis CD1\15 - Judas.wav
     Pre-gap length  0:00:02.00
     Peak level 58.3 %
     Extraction speed 7.7 X
     Track quality 100.0 %
     Test CRC 791B6DB3
     Copy CRC 791B6DB3
     Track not present in AccurateRip database
     Copy OK
Track 16
     Filename E:\What.Cd Rips V0\What.CD Rips\Leo Ferre - L'lle Saint-Louis\L'lle Saint-Louis CD1\16 - Paris Canaille.wav
     Pre-gap length  0:00:02.00
     Peak level 50.6 %
     Extraction speed 8.3 X
     Track quality 100.0 %
     Test CRC A1156C78
     Copy CRC A1156C78
     Track not present in AccurateRip database
     Copy OK
Track 17
     Filename E:\What.Cd Rips V0\What.CD Rips\Leo Ferre - L'lle Saint-Louis\L'lle Saint-Louis CD1\17 - Notre amour.wav
     Pre-gap length  0:00:02.00
     Peak level 84.8 %
     Extraction speed 8.2 X
     Track quality 100.0 %
     Test CRC E546E455
     Copy CRC E546E455
     Track not present in AccurateRip database
     Copy OK
Track 18
     Filename E:\What.Cd Rips V0\What.CD Rips\Leo Ferre - L'lle Saint-Louis\L'lle Saint-Louis CD1\18 - Martha la mule.wav
     Pre-gap length  0:00:02.00
     Peak level 83.8 %
     Extraction speed 8.1 X
     Track quality 100.0 %
     Test CRC E336379F
     Copy CRC E336379F
     Track not present in AccurateRip database
     Copy OK
Track 19
     Filename E:\What.Cd Rips V0\What.CD Rips\Leo Ferre - L'lle Saint-Louis\L'lle Saint-Louis CD1\19 - Les Grandes vacandes.wav
     Pre-gap length  0:00:02.00
     Peak level 87.1 %
     Extraction speed 8.9 X
     Track quality 100.0 %
     Test CRC 2CD03024
     Copy CRC 2CD03024
     Track not present in AccurateRip database
     Copy OK
Track 20
     Filename E:\What.Cd Rips V0\What.CD Rips\Leo Ferre - L'lle Saint-Louis\L'lle Saint-Louis CD1\20 - Le Pont Mirabeau.wav
     Pre-gap length  0:00:02.00
     Peak level 85.3 %
     Extraction speed 8.7 X
     Track quality 100.0 %
     Test CRC 75522822
     Copy CRC 75522822
     Track not present in AccurateRip database
     Copy OK
Track 21
     Filename E:\What.Cd Rips V0\What.CD Rips\Leo Ferre - L'lle Saint-Louis\L'lle Saint-Louis CD1\21 - ...et des clous.wav
     Pre-gap length  0:00:02.00
     Peak level 80.6 %
     Extraction speed 6.0 X
     Track quality 99.9 %
     Test CRC 23A67E75
     Copy CRC 23A67E75
     Track not present in AccurateRip database
     Copy OK
Track 22
     Filename E:\What.Cd Rips V0\What.CD Rips\Leo Ferre - L'lle Saint-Louis\L'lle Saint-Louis CD1\22 - Vitrines.wav
     Pre-gap length  0:00:02.00
     Peak level 81.0 %
     Extraction speed 9.7 X
     Track quality 100.0 %
     Test CRC 9413D0ED
     Copy CRC 9413D0ED
     Track not present in AccurateRip database
     Copy OK
Track 23
     Filename E:\What.Cd Rips V0\What.CD Rips\Leo Ferre - L'lle Saint-Louis\L'lle Saint-Louis CD1\23 - La Chambre.wav
     Pre-gap length  0:00:02.00
     Peak level 86.3 %
     Extraction speed 9.4 X
     Track quality 100.0 %
     Test CRC 763A46C8
     Copy CRC 763A46C8
     Track not present in AccurateRip database
     Copy OK
Track 24
     Filename E:\What.Cd Rips V0\What.CD Rips\Leo Ferre - L'lle Saint-Louis\L'lle Saint-Louis CD1\24 - Les Cloches de Notre-Dame.wav
     Pre-gap length  0:00:02.00
     Peak level 83.4 %
     Extraction speed 8.9 X
     Track quality 100.0 %
     Test CRC 381C4BC5
     Copy CRC 381C4BC5
     Track not present in AccurateRip database
     Copy OK
None of the tracks are present in the AccurateRip database
No errors occurred
End of status report
==== Log checksum 3DD6FE5123DE054D666E556AB14E094E877D65674C54E495C64F85B2EE198F9E ====
Код:
Exact Audio Copy V1.0 beta 3 from 29. August 2011
EAC extraction logfile from 16. March 2012, 14:41
Léo Ferré / Le Piano Du Pauvre
Used drive  : TSSTcorpCDDVDW SH-S223L   Adapter: 5  ID: 0
Read mode               : Secure
Utilize accurate stream : Yes
Defeat audio cache      : Yes
Make use of C2 pointers : No
Read offset correction                      : 6
Overread into Lead-In and Lead-Out          : No
Fill up missing offset samples with silence : Yes
Delete leading and trailing silent blocks   : No
Null samples used in CRC calculations       : Yes
Used interface                              : Native Win32 interface for Win NT & 2000
Gap handling                                : Appended to previous track
Used output format              : User Defined Encoder
Selected bitrate                : 1024 kBit/s
Quality                         : High
Add ID3 tag                     : No
Command line compressor         : C:\Program Files (x86)\Exact Audio Copy\Flac\flac.exe
Additional command line options : -8 -V -T "ARTIST=%artist%" -T "TITLE=%title%" -T "ALBUM=%albumtitle%" -T "DATE=%year%" -T "TRACKNUMBER=%tracknr%" -T "GENRE=%genre%" -T "PERFORMER=%albuminterpret%" -T "COMPOSER=%composer%" %haslyrics%--tag-from-file=LYRICS="%lyricsfile%"%haslyrics% -T "ALBUMARTIST=%albumartist%" -T "DISCNUMBER=%cdnumber%" -T "TOTALDISCS=%totalcds%" -T "TOTALTRACKS=%numtracks%" -T "COMMENT=%comment%" %source% -o %dest%
TOC of the extracted CD
     Track |   Start  |  Length  | Start sector | End sector
    ---------------------------------------------------------
        1  |  0:00.00 |  3:22.04 |         0    |    15153
        2  |  3:22.04 |  3:17.37 |     15154    |    29965
        3  |  6:39.41 |  2:48.42 |     29966    |    42607
        4  |  9:28.08 |  3:23.34 |     42608    |    57866
        5  | 12:51.42 |  3:35.37 |     57867    |    74028
        6  | 16:27.04 |  3:16.21 |     74029    |    88749
        7  | 19:43.25 |  3:28.32 |     88750    |   104381
        8  | 23:11.57 |  2:43.39 |    104382    |   116645
        9  | 25:55.21 |  2:59.59 |    116646    |   130129
       10  | 28:55.05 |  2:57.64 |    130130    |   143468
       11  | 31:52.69 |  3:26.60 |    143469    |   158978
       12  | 35:19.54 |  3:26.32 |    158979    |   174460
       13  | 38:46.11 |  2:13.69 |    174461    |   184504
       14  | 41:00.05 |  3:24.71 |    184505    |   199875
       15  | 44:25.01 |  2:26.05 |    199876    |   210830
       16  | 46:51.06 |  2:23.71 |    210831    |   221626
       17  | 49:15.02 |  2:50.60 |    221627    |   234436
       18  | 52:05.62 |  3:17.43 |    234437    |   249254
       19  | 55:23.30 |  4:34.10 |    249255    |   269814
       20  | 59:57.40 |  2:22.73 |    269815    |   280537
       21  | 62:20.38 |  3:21.08 |    280538    |   295620
       22  | 65:41.46 |  2:37.69 |    295621    |   307464
       23  | 68:19.40 |  3:26.38 |    307465    |   322952
       24  | 71:46.03 |  2:14.69 |    322953    |   333071
Track  1
     Filename E:\What.Cd Rips V0\What.CD Rips\Leo Ferre - L'lle Saint-Louis\CD2 - Le Piano Du Pauvre\01 - Le Parvenu.wav
     Pre-gap length  0:00:02.00
     Peak level 81.2 %
     Extraction speed 4.7 X
     Track quality 100.0 %
     Test CRC C27DE465
     Copy CRC C27DE465
     Track not present in AccurateRip database
     Copy OK
Track  2
     Filename E:\What.Cd Rips V0\What.CD Rips\Leo Ferre - L'lle Saint-Louis\CD2 - Le Piano Du Pauvre\02 - Le Piano du pauvre.wav
     Pre-gap length  0:00:02.00
     Peak level 87.0 %
     Extraction speed 5.1 X
     Track quality 100.0 %
     Test CRC 0F0D4568
     Copy CRC 0F0D4568
     Track not present in AccurateRip database
     Copy OK
Track  3
     Filename E:\What.Cd Rips V0\What.CD Rips\Leo Ferre - L'lle Saint-Louis\CD2 - Le Piano Du Pauvre\03 - L'Homme.wav
     Pre-gap length  0:00:02.00
     Peak level 81.4 %
     Extraction speed 5.2 X
     Track quality 100.0 %
     Test CRC A6A8A182
     Copy CRC A6A8A182
     Track not present in AccurateRip database
     Copy OK
Track  4
     Filename E:\What.Cd Rips V0\What.CD Rips\Leo Ferre - L'lle Saint-Louis\CD2 - Le Piano Du Pauvre\04 - A la seine.wav
     Pre-gap length  0:00:02.00
     Peak level 85.6 %
     Extraction speed 5.8 X
     Track quality 100.0 %
     Test CRC 4E99A41B
     Copy CRC 4E99A41B
     Track not present in AccurateRip database
     Copy OK
Track  5
     Filename E:\What.Cd Rips V0\What.CD Rips\Leo Ferre - L'lle Saint-Louis\CD2 - Le Piano Du Pauvre\05 - ,pm p'tit voyou.wav
     Pre-gap length  0:00:02.00
     Peak level 81.0 %
     Extraction speed 6.1 X
     Track quality 100.0 %
     Test CRC B2F9B67C
     Copy CRC B2F9B67C
     Track not present in AccurateRip database
     Copy OK
Track  6
     Filename E:\What.Cd Rips V0\What.CD Rips\Leo Ferre - L'lle Saint-Louis\CD2 - Le Piano Du Pauvre\06 - Graine d'ananar.wav
     Pre-gap length  0:00:02.00
     Peak level 81.0 %
     Extraction speed 6.4 X
     Track quality 100.0 %
     Test CRC AA46B32E
     Copy CRC AA46B32E
     Track not present in AccurateRip database
     Copy OK
Track  7
     Filename E:\What.Cd Rips V0\What.CD Rips\Leo Ferre - L'lle Saint-Louis\CD2 - Le Piano Du Pauvre\07 - Notre-Dame de la mouise.wav
     Pre-gap length  0:00:02.00
     Peak level 83.9 %
     Extraction speed 6.7 X
     Track quality 100.0 %
     Test CRC CE020996
     Copy CRC CE020996
     Track not present in AccurateRip database
     Copy OK
Track  8
     Filename E:\What.Cd Rips V0\What.CD Rips\Leo Ferre - L'lle Saint-Louis\CD2 - Le Piano Du Pauvre\08 - Merci min dieu.wav
     Pre-gap length  0:00:02.00
     Peak level 81.0 %
     Extraction speed 6.6 X
     Track quality 100.0 %
     Test CRC 48C6BA9A
     Copy CRC 48C6BA9A
     Track not present in AccurateRip database
     Copy OK
Track  9
     Filename E:\What.Cd Rips V0\What.CD Rips\Leo Ferre - L'lle Saint-Louis\CD2 - Le Piano Du Pauvre\09 - Vise la reclame.wav
     Pre-gap length  0:00:02.00
     Peak level 86.1 %
     Extraction speed 7.0 X
     Track quality 100.0 %
     Test CRC 46D83366
     Copy CRC 46D83366
     Track not present in AccurateRip database
     Copy OK
Track 10
     Filename E:\What.Cd Rips V0\What.CD Rips\Leo Ferre - L'lle Saint-Louis\CD2 - Le Piano Du Pauvre\10 - La Rue.wav
     Pre-gap length  0:00:02.00
     Peak level 78.0 %
     Extraction speed 7.2 X
     Track quality 100.0 %
     Test CRC DE30B840
     Copy CRC DE30B840
     Track not present in AccurateRip database
     Copy OK
Track 11
     Filename E:\What.Cd Rips V0\What.CD Rips\Leo Ferre - L'lle Saint-Louis\CD2 - Le Piano Du Pauvre\11 - Monsieur mon passe.wav
     Pre-gap length  0:00:02.00
     Peak level 61.1 %
     Extraction speed 5.9 X
     Track quality 99.9 %
     Test CRC 68FD41B2
     Copy CRC 68FD41B2
     Track not present in AccurateRip database
     Copy OK
Track 12
     Filename E:\What.Cd Rips V0\What.CD Rips\Leo Ferre - L'lle Saint-Louis\CD2 - Le Piano Du Pauvre\12 - L'Ame du rouquin.wav
     Pre-gap length  0:00:02.00
     Peak level 80.5 %
     Extraction speed 7.8 X
     Track quality 100.0 %
     Test CRC 41E2E46C
     Copy CRC 41E2E46C
     Track not present in AccurateRip database
     Copy OK
Track 13
     Filename E:\What.Cd Rips V0\What.CD Rips\Leo Ferre - L'lle Saint-Louis\CD2 - Le Piano Du Pauvre\13 - La Vie.wav
     Pre-gap length  0:00:02.00
     Peak level 73.7 %
     Extraction speed 7.4 X
     Track quality 100.0 %
     Test CRC 7E3FC2E3
     Copy CRC 7E3FC2E3
     Track not present in AccurateRip database
     Copy OK
Track 14
     Filename E:\What.Cd Rips V0\What.CD Rips\Leo Ferre - L'lle Saint-Louis\CD2 - Le Piano Du Pauvre\14 - La Chanson tiste.wav
     Pre-gap length  0:00:02.00
     Peak level 77.2 %
     Extraction speed 8.2 X
     Track quality 100.0 %
     Test CRC 5BA5215D
     Copy CRC 5BA5215D
     Track not present in AccurateRip database
     Copy OK
Track 15
     Filename E:\What.Cd Rips V0\What.CD Rips\Leo Ferre - L'lle Saint-Louis\CD2 - Le Piano Du Pauvre\15 - En amour.wav
     Pre-gap length  0:00:02.00
     Peak level 76.1 %
     Extraction speed 5.6 X
     Track quality 99.9 %
     Test CRC 7EB70B1E
     Copy CRC 7EB70B1E
     Track not present in AccurateRip database
     Copy OK
Track 16
     Filename E:\What.Cd Rips V0\What.CD Rips\Leo Ferre - L'lle Saint-Louis\CD2 - Le Piano Du Pauvre\16 - Le Fleuve aux amants.wav
     Pre-gap length  0:00:01.98
     Peak level 76.3 %
     Extraction speed 8.0 X
     Track quality 100.0 %
     Test CRC 9E948A3A
     Copy CRC 9E948A3A
     Track not present in AccurateRip database
     Copy OK
Track 17
     Filename E:\What.Cd Rips V0\What.CD Rips\Leo Ferre - L'lle Saint-Louis\CD2 - Le Piano Du Pauvre\17 - Le Guinche.wav
     Pre-gap length  0:00:02.00
     Peak level 72.6 %
     Extraction speed 8.3 X
     Track quality 100.0 %
     Test CRC B767D7F3
     Copy CRC B767D7F3
     Track not present in AccurateRip database
     Copy OK
Track 18
     Filename E:\What.Cd Rips V0\What.CD Rips\Leo Ferre - L'lle Saint-Louis\CD2 - Le Piano Du Pauvre\18 - La Fortune.wav
     Pre-gap length  0:00:02.00
     Peak level 76.7 %
     Extraction speed 8.7 X
     Track quality 100.0 %
     Test CRC 981159B9
     Copy CRC 981159B9
     Track not present in AccurateRip database
     Copy OK
Track 19
     Filename E:\What.Cd Rips V0\What.CD Rips\Leo Ferre - L'lle Saint-Louis\CD2 - Le Piano Du Pauvre\19 - Ma vieille branche.wav
     Pre-gap length  0:00:02.00
     Peak level 76.9 %
     Extraction speed 9.3 X
     Track quality 100.0 %
     Test CRC 212783F1
     Copy CRC 212783F1
     Track not present in AccurateRip database
     Copy OK
Track 20
     Filename E:\What.Cd Rips V0\What.CD Rips\Leo Ferre - L'lle Saint-Louis\CD2 - Le Piano Du Pauvre\20 - T' en as.wav
     Pre-gap length  0:00:02.00
     Peak level 84.4 %
     Extraction speed 8.6 X
     Track quality 100.0 %
     Test CRC 2C30D0E9
     Copy CRC 2C30D0E9
     Track not present in AccurateRip database
     Copy OK
Track 21
     Filename E:\What.Cd Rips V0\What.CD Rips\Leo Ferre - L'lle Saint-Louis\CD2 - Le Piano Du Pauvre\21 - La Grande vie.wav
     Pre-gap length  0:00:02.00
     Peak level 82.8 %
     Extraction speed 9.3 X
     Track quality 100.0 %
     Test CRC B9476A3C
     Copy CRC B9476A3C
     Track not present in AccurateRip database
     Copy OK
Track 22
     Filename E:\What.Cd Rips V0\What.CD Rips\Leo Ferre - L'lle Saint-Louis\CD2 - Le Piano Du Pauvre\22 - Le Temps du plastique.wav
     Pre-gap length  0:00:02.00
     Peak level 77.3 %
     Extraction speed 9.2 X
     Track quality 100.0 %
     Test CRC 7FDBB7AD
     Copy CRC 7FDBB7AD
     Track not present in AccurateRip database
     Copy OK
Track 23
     Filename E:\What.Cd Rips V0\What.CD Rips\Leo Ferre - L'lle Saint-Louis\CD2 - Le Piano Du Pauvre\23 - Pauvre Rutebeuf.wav
     Pre-gap length  0:00:02.00
     Peak level 72.2 %
     Extraction speed 6.1 X
     Track quality 99.9 %
     Test CRC 76FC59C1
     Copy CRC 76FC59C1
     Track not present in AccurateRip database
     Copy OK
Track 24
     Filename E:\What.Cd Rips V0\What.CD Rips\Leo Ferre - L'lle Saint-Louis\CD2 - Le Piano Du Pauvre\24 - L'Amour.wav
     Pre-gap length  0:00:02.00
     Peak level 62.1 %
     Extraction speed 9.0 X
     Track quality 100.0 %
     Test CRC DA7C6DD1
     Copy CRC DA7C6DD1
     Track not present in AccurateRip database
     Copy OK
None of the tracks are present in the AccurateRip database
No errors occurred
End of status report
==== Log checksum 6B180DE6D80E49E1032A71C2C0A7CDFBC9ACFF817D03FC46ABF7C8814A7DE202 ====
Код:
Exact Audio Copy V1.0 beta 3 from 29. August 2011
EAC extraction logfile from 16. March 2012, 15:07
Léo Ferré / L'Etang Chimerique
Used drive  : TSSTcorpCDDVDW SH-S223L   Adapter: 5  ID: 0
Read mode               : Secure
Utilize accurate stream : Yes
Defeat audio cache      : Yes
Make use of C2 pointers : No
Read offset correction                      : 6
Overread into Lead-In and Lead-Out          : No
Fill up missing offset samples with silence : Yes
Delete leading and trailing silent blocks   : No
Null samples used in CRC calculations       : Yes
Used interface                              : Native Win32 interface for Win NT & 2000
Gap handling                                : Appended to previous track
Used output format              : User Defined Encoder
Selected bitrate                : 1024 kBit/s
Quality                         : High
Add ID3 tag                     : No
Command line compressor         : C:\Program Files (x86)\Exact Audio Copy\Flac\flac.exe
Additional command line options : -8 -V -T "ARTIST=%artist%" -T "TITLE=%title%" -T "ALBUM=%albumtitle%" -T "DATE=%year%" -T "TRACKNUMBER=%tracknr%" -T "GENRE=%genre%" -T "PERFORMER=%albuminterpret%" -T "COMPOSER=%composer%" %haslyrics%--tag-from-file=LYRICS="%lyricsfile%"%haslyrics% -T "ALBUMARTIST=%albumartist%" -T "DISCNUMBER=%cdnumber%" -T "TOTALDISCS=%totalcds%" -T "TOTALTRACKS=%numtracks%" -T "COMMENT=%comment%" %source% -o %dest%
TOC of the extracted CD
     Track |   Start  |  Length  | Start sector | End sector
    ---------------------------------------------------------
        1  |  0:00.00 |  2:58.07 |         0    |    13356
        2  |  2:58.07 |  3:07.54 |     13357    |    27435
        3  |  6:05.61 |  3:56.06 |     27436    |    45141
        4  | 10:01.67 |  2:53.33 |     45142    |    58149
        5  | 12:55.25 |  3:58.03 |     58150    |    76002
        6  | 16:53.28 |  3:53.21 |     76003    |    93498
        7  | 20:46.49 |  3:40.66 |     93499    |   110064
        8  | 24:27.40 |  2:03.35 |    110065    |   119324
        9  | 26:31.00 |  2:57.56 |    119325    |   132655
       10  | 29:28.56 |  1:54.44 |    132656    |   141249
       11  | 31:23.25 |  1:23.49 |    141250    |   147523
       12  | 32:46.74 |  2:56.29 |    147524    |   160752
       13  | 35:43.28 |  3:22.72 |    160753    |   175974
       14  | 39:06.25 |  3:16.36 |    175975    |   190710
       15  | 42:22.61 |  3:11.03 |    190711    |   205038
       16  | 45:33.64 |  2:55.41 |    205039    |   218204
       17  | 48:29.30 |  5:15.66 |    218205    |   241895
       18  | 53:45.21 |  3:53.17 |    241896    |   259387
       19  | 57:38.38 |  3:46.27 |    259388    |   276364
       20  | 61:24.65 |  4:16.28 |    276365    |   295592
       21  | 65:41.18 |  3:19.16 |    295593    |   310533
       22  | 69:00.34 |  4:20.37 |    310534    |   330070
Track  1
     Filename E:\What.Cd Rips V0\What.CD Rips\Leo Ferre - L'lle Saint-Louis\CD3 - L'Etang Chimerique\01 - L'Ete s'en fout.wav
     Pre-gap length  0:00:02.00
     Peak level 57.2 %
     Extraction speed 4.7 X
     Track quality 100.0 %
     Test CRC DC79DE63
     Copy CRC DC79DE63
     Track not present in AccurateRip database
     Copy OK
Track  2
     Filename E:\What.Cd Rips V0\What.CD Rips\Leo Ferre - L'lle Saint-Louis\CD3 - L'Etang Chimerique\02 - Les Copains d'la neuille.wav
     Pre-gap length  0:00:02.00
     Peak level 44.8 %
     Extraction speed 5.0 X
     Track quality 100.0 %
     Test CRC BA8CC71F
     Copy CRC BA8CC71F
     Track not present in AccurateRip database
     Copy OK
Track  3
     Filename E:\What.Cd Rips V0\What.CD Rips\Leo Ferre - L'lle Saint-Louis\CD3 - L'Etang Chimerique\03 - A celle qio est trop gaie.wav
     Pre-gap length  0:00:02.00
     Peak level 82.8 %
     Extraction speed 5.6 X
     Track quality 100.0 %
     Test CRC 506A2791
     Copy CRC 506A2791
     Track not present in AccurateRip database
     Copy OK
Track  4
     Filename E:\What.Cd Rips V0\What.CD Rips\Leo Ferre - L'lle Saint-Louis\CD3 - L'Etang Chimerique\04 - Le Serpent qui danse.wav
     Pre-gap length  0:00:02.00
     Peak level 82.0 %
     Extraction speed 5.7 X
     Track quality 100.0 %
     Test CRC 37A13438
     Copy CRC 37A13438
     Track not present in AccurateRip database
     Copy OK
Track  5
     Filename E:\What.Cd Rips V0\What.CD Rips\Leo Ferre - L'lle Saint-Louis\CD3 - L'Etang Chimerique\05 - Le Lethe.wav
     Pre-gap length  0:00:02.00
     Peak level 83.0 %
     Extraction speed 5.0 X
     Track quality 99.9 %
     Test CRC FC1F0D30
     Copy CRC FC1F0D30
     Track not present in AccurateRip database
     Copy OK
Track  6
     Filename E:\What.Cd Rips V0\What.CD Rips\Leo Ferre - L'lle Saint-Louis\CD3 - L'Etang Chimerique\06 - La Mort des amants.wav
     Pre-gap length  0:00:02.00
     Peak level 74.8 %
     Extraction speed 6.6 X
     Track quality 100.0 %
     Test CRC 095D36D0
     Copy CRC 095D36D0
     Track not present in AccurateRip database
     Copy OK
Track  7
     Filename E:\What.Cd Rips V0\What.CD Rips\Leo Ferre - L'lle Saint-Louis\CD3 - L'Etang Chimerique\07 - L'Invitation au voyage.wav
     Pre-gap length  0:00:02.00
     Peak level 85.1 %
     Extraction speed 6.9 X
     Track quality 100.0 %
     Test CRC 8F207093
     Copy CRC 8F207093
     Track not present in AccurateRip database
     Copy OK
Track  8
     Filename E:\What.Cd Rips V0\What.CD Rips\Leo Ferre - L'lle Saint-Louis\CD3 - L'Etang Chimerique\08 - Le Revenant.wav
     Pre-gap length  0:00:02.00
     Peak level 86.2 %
     Extraction speed 4.4 X
     Track quality 99.9 %
     Test CRC DA36C7E5
     Copy CRC DA36C7E5
     Track not present in AccurateRip database
     Copy OK
Track  9
     Filename E:\What.Cd Rips V0\What.CD Rips\Leo Ferre - L'lle Saint-Louis\CD3 - L'Etang Chimerique\09 - Harmonie du soir.wav
     Pre-gap length  0:00:02.00
     Peak level 87.3 %
     Extraction speed 7.0 X
     Track quality 100.0 %
     Test CRC CE0D84E3
     Copy CRC CE0D84E3
     Track not present in AccurateRip database
     Copy OK
Track 10
     Filename E:\What.Cd Rips V0\What.CD Rips\Leo Ferre - L'lle Saint-Louis\CD3 - L'Etang Chimerique\10 - Brumes et pluies.wav
     Pre-gap length  0:00:02.00
     Peak level 78.6 %
     Extraction speed 6.5 X
     Track quality 100.0 %
     Test CRC D036DA85
     Copy CRC D036DA85
     Track not present in AccurateRip database
     Copy OK
Track 11
     Filename E:\What.Cd Rips V0\What.CD Rips\Leo Ferre - L'lle Saint-Louis\CD3 - L'Etang Chimerique\11 - La Pipe.wav
     Pre-gap length  0:00:02.00
     Peak level 83.3 %
     Extraction speed 3.7 X
     Track quality 99.8 %
     Test CRC 84C9B263
     Copy CRC 84C9B263
     Track not present in AccurateRip database
     Copy OK
Track 12
     Filename E:\What.Cd Rips V0\What.CD Rips\Leo Ferre - L'lle Saint-Louis\CD3 - L'Etang Chimerique\12 - Les Hiboux.wav
     Pre-gap length  0:00:02.00
     Peak level 74.5 %
     Extraction speed 7.4 X
     Track quality 100.0 %
     Test CRC BF980369
     Copy CRC BF980369
     Track not present in AccurateRip database
     Copy OK
Track 13
     Filename E:\What.Cd Rips V0\What.CD Rips\Leo Ferre - L'lle Saint-Louis\CD3 - L'Etang Chimerique\13 - La Vie anterieure.wav
     Pre-gap length  0:00:02.00
     Peak level 79.4 %
     Extraction speed 7.8 X
     Track quality 100.0 %
     Test CRC E378CD28
     Copy CRC E378CD28
     Track not present in AccurateRip database
     Copy OK
Track 14
     Filename E:\What.Cd Rips V0\What.CD Rips\Leo Ferre - L'lle Saint-Louis\CD3 - L'Etang Chimerique\14 - Les Metamorphoses du vampire.wav
     Pre-gap length  0:00:02.00
     Peak level 84.3 %
     Extraction speed 8.0 X
     Track quality 100.0 %
     Test CRC 02C878A2
     Copy CRC 02C878A2
     Track not present in AccurateRip database
     Copy OK
Track 15
     Filename E:\What.Cd Rips V0\What.CD Rips\Leo Ferre - L'lle Saint-Louis\CD3 - L'Etang Chimerique\15 - Java partout.wav
     Pre-gap length  0:00:02.00
     Peak level 84.5 %
     Extraction speed 8.2 X
     Track quality 100.0 %
     Test CRC 6A37F8B5
     Copy CRC 6A37F8B5
     Track not present in AccurateRip database
     Copy OK
Track 16
     Filename E:\What.Cd Rips V0\What.CD Rips\Leo Ferre - L'lle Saint-Louis\CD3 - L'Etang Chimerique\16 - La Zizique.wav
     Pre-gap length  0:00:02.00
     Peak level 75.9 %
     Extraction speed 8.2 X
     Track quality 100.0 %
     Test CRC F5CB9D75
     Copy CRC F5CB9D75
     Track not present in AccurateRip database
     Copy OK
Track 17
     Filename E:\What.Cd Rips V0\What.CD Rips\Leo Ferre - L'lle Saint-Louis\CD3 - L'Etang Chimerique\17 - Mon Sebasto.wav
     Pre-gap length  0:00:02.00
     Peak level 83.0 %
     Extraction speed 9.1 X
     Track quality 100.0 %
     Test CRC 49390C38
     Copy CRC 49390C38
     Track not present in AccurateRip database
     Copy OK
Track 18
     Filename E:\What.Cd Rips V0\What.CD Rips\Leo Ferre - L'lle Saint-Louis\CD3 - L'Etang Chimerique\18 - Le Temps du tango.wav
     Pre-gap length  0:00:02.00
     Peak level 76.0 %
     Extraction speed 9.1 X
     Track quality 100.0 %
     Test CRC 57DDF292
     Copy CRC 57DDF292
     Track not present in AccurateRip database
     Copy OK
Track 19
     Filename E:\What.Cd Rips V0\What.CD Rips\Leo Ferre - L'lle Saint-Louis\CD3 - L'Etang Chimerique\19 - Le Jazz Band.wav
     Pre-gap length  0:00:02.00
     Peak level 69.2 %
     Extraction speed 9.2 X
     Track quality 100.0 %
     Test CRC 3326373E
     Copy CRC 3326373E
     Track not present in AccurateRip database
     Copy OK
Track 20
     Filename E:\What.Cd Rips V0\What.CD Rips\Leo Ferre - L'lle Saint-Louis\CD3 - L'Etang Chimerique\20 - Mon camarade.wav
     Pre-gap length  0:00:02.00
     Peak level 74.0 %
     Extraction speed 9.7 X
     Track quality 100.0 %
     Test CRC 7BBF4B65
     Copy CRC 7BBF4B65
     Track not present in AccurateRip database
     Copy OK
Track 21
     Filename E:\What.Cd Rips V0\What.CD Rips\Leo Ferre - L'lle Saint-Louis\CD3 - L'Etang Chimerique\21 - L'Etang chimerique.wav
     Pre-gap length  0:00:02.00
     Peak level 87.2 %
     Extraction speed 7.2 X
     Track quality 99.9 %
     Test CRC 05DED7AC
     Copy CRC 05DED7AC
     Track not present in AccurateRip database
     Copy OK
Track 22
     Filename E:\What.Cd Rips V0\What.CD Rips\Leo Ferre - L'lle Saint-Louis\CD3 - L'Etang Chimerique\22 - Tahiti.wav
     Pre-gap length  0:00:02.00
     Peak level 74.5 %
     Extraction speed 10.0 X
     Track quality 100.0 %
     Test CRC 998B8BE7
     Copy CRC 998B8BE7
     Track not present in AccurateRip database
     Copy OK
None of the tracks are present in the AccurateRip database
No errors occurred
End of status report
==== Log checksum C06AAF251601E2ABDD20B5D73A1F6C8122DE271480F702A7566F2A229ECFC777 ====
Код:
[color=#009933]REM DISCID[/color] 53105918
[color=#009933]REM COMMENT[/color] "ExactAudioCopy v1.0b3"
[color=#FF0066]FILE[/color] "01 - La Chanson du scaphandried.[color=#0000FF]wav[/color]" [color=#FF0066]WAVE[/color]
  [color=#990099]TRACK[/color] [color=#FF0000]01[/color] [color=#990099]AUDIO[/color]
    [color=#FF8040]INDEX[/color] [color=#FF0000]01[/color] 00:00:00
  [color=#990099]TRACK[/color] [color=#FF0000]02[/color] [color=#990099]AUDIO[/color]
    [color=#FF8040]INDEX[/color] [color=#FF0000]00[/color] 02:31:32
[color=#FF0066]FILE[/color] "02 - Monsieur William.[color=#0000FF]wav[/color]" [color=#FF0066]WAVE[/color]
    [color=#FF8040]INDEX[/color] [color=#FF0000]01[/color] 00:00:00
  [color=#990099]TRACK[/color] [color=#FF0000]03[/color] [color=#990099]AUDIO[/color]
    [color=#FF8040]INDEX[/color] [color=#FF0000]00[/color] 03:12:64
[color=#FF0066]FILE[/color] "03 - Monsieur Tout-Blanc.[color=#0000FF]wav[/color]" [color=#FF0066]WAVE[/color]
    [color=#FF8040]INDEX[/color] [color=#FF0000]01[/color] 00:00:00
  [color=#990099]TRACK[/color] [color=#FF0000]04[/color] [color=#990099]AUDIO[/color]
    [color=#FF8040]INDEX[/color] [color=#FF0000]00[/color] 03:24:32
[color=#FF0066]FILE[/color] "04 - La Vie d'artiste.[color=#0000FF]wav[/color]" [color=#FF0066]WAVE[/color]
    [color=#FF8040]INDEX[/color] [color=#FF0000]01[/color] 00:00:00
  [color=#990099]TRACK[/color] [color=#FF0000]05[/color] [color=#990099]AUDIO[/color]
    [color=#FF8040]INDEX[/color] [color=#FF0000]00[/color] 02:47:33
[color=#FF0066]FILE[/color] "05 - Le Bateau espagnol.[color=#0000FF]wav[/color]" [color=#FF0066]WAVE[/color]
    [color=#FF8040]INDEX[/color] [color=#FF0000]01[/color] 00:00:00
  [color=#990099]TRACK[/color] [color=#FF0000]06[/color] [color=#990099]AUDIO[/color]
    [color=#FF8040]INDEX[/color] [color=#FF0000]00[/color] 03:27:03
[color=#FF0066]FILE[/color] "06 - La Femme adultere.[color=#0000FF]wav[/color]" [color=#FF0066]WAVE[/color]
    [color=#FF8040]INDEX[/color] [color=#FF0000]01[/color] 00:00:00
  [color=#990099]TRACK[/color] [color=#FF0000]07[/color] [color=#990099]AUDIO[/color]
    [color=#FF8040]INDEX[/color] [color=#FF0000]00[/color] 01:30:68
[color=#FF0066]FILE[/color] "07 - A Saint-Germain-des-Pres.[color=#0000FF]wav[/color]" [color=#FF0066]WAVE[/color]
    [color=#FF8040]INDEX[/color] [color=#FF0000]01[/color] 00:00:00
  [color=#990099]TRACK[/color] [color=#FF0000]08[/color] [color=#990099]AUDIO[/color]
    [color=#FF8040]INDEX[/color] [color=#FF0000]00[/color] 02:31:56
[color=#FF0066]FILE[/color] "08 - L'lle Saint-Louis.[color=#0000FF]wav[/color]" [color=#FF0066]WAVE[/color]
    [color=#FF8040]INDEX[/color] [color=#FF0000]01[/color] 00:00:00
  [color=#990099]TRACK[/color] [color=#FF0000]09[/color] [color=#990099]AUDIO[/color]
    [color=#FF8040]INDEX[/color] [color=#FF0000]00[/color] 03:09:35
[color=#FF0066]FILE[/color] "09 - Le Flamenco de Paris.[color=#0000FF]wav[/color]" [color=#FF0066]WAVE[/color]
    [color=#FF8040]INDEX[/color] [color=#FF0000]01[/color] 00:00:00
  [color=#990099]TRACK[/color] [color=#FF0000]10[/color] [color=#990099]AUDIO[/color]
    [color=#FF8040]INDEX[/color] [color=#FF0000]00[/color] 01:39:65
[color=#FF0066]FILE[/color] "10 - L'lnconnue de Londres.[color=#0000FF]wav[/color]" [color=#FF0066]WAVE[/color]
    [color=#FF8040]INDEX[/color] [color=#FF0000]01[/color] 00:00:00
  [color=#990099]TRACK[/color] [color=#FF0000]11[/color] [color=#990099]AUDIO[/color]
    [color=#FF8040]INDEX[/color] [color=#FF0000]00[/color] 03:12:19
[color=#FF0066]FILE[/color] "11 - Les Forains.[color=#0000FF]wav[/color]" [color=#FF0066]WAVE[/color]
    [color=#FF8040]INDEX[/color] [color=#FF0000]01[/color] 00:00:00
  [color=#990099]TRACK[/color] [color=#FF0000]12[/color] [color=#990099]AUDIO[/color]
    [color=#FF8040]INDEX[/color] [color=#FF0000]00[/color] 03:00:47
[color=#FF0066]FILE[/color] "12 - Barbarie.[color=#0000FF]wav[/color]" [color=#FF0066]WAVE[/color]
    [color=#FF8040]INDEX[/color] [color=#FF0000]01[/color] 00:00:00
  [color=#990099]TRACK[/color] [color=#FF0000]13[/color] [color=#990099]AUDIO[/color]
    [color=#FF8040]INDEX[/color] [color=#FF0000]00[/color] 03:25:41
[color=#FF0066]FILE[/color] "13 - L'espirit de famille.[color=#0000FF]wav[/color]" [color=#FF0066]WAVE[/color]
    [color=#FF8040]INDEX[/color] [color=#FF0000]01[/color] 00:00:00
  [color=#990099]TRACK[/color] [color=#FF0000]14[/color] [color=#990099]AUDIO[/color]
    [color=#FF8040]INDEX[/color] [color=#FF0000]00[/color] 02:31:52
[color=#FF0066]FILE[/color] "14 - Le Temps des roses rogues.[color=#0000FF]wav[/color]" [color=#FF0066]WAVE[/color]
    [color=#FF8040]INDEX[/color] [color=#FF0000]01[/color] 00:00:00
  [color=#990099]TRACK[/color] [color=#FF0000]15[/color] [color=#990099]AUDIO[/color]
    [color=#FF8040]INDEX[/color] [color=#FF0000]00[/color] 02:39:08
[color=#FF0066]FILE[/color] "15 - Judas.[color=#0000FF]wav[/color]" [color=#FF0066]WAVE[/color]
    [color=#FF8040]INDEX[/color] [color=#FF0000]01[/color] 00:00:00
  [color=#990099]TRACK[/color] [color=#FF0000]16[/color] [color=#990099]AUDIO[/color]
    [color=#FF8040]INDEX[/color] [color=#FF0000]00[/color] 02:44:41
[color=#FF0066]FILE[/color] "16 - Paris Canaille.[color=#0000FF]wav[/color]" [color=#FF0066]WAVE[/color]
    [color=#FF8040]INDEX[/color] [color=#FF0000]01[/color] 00:00:00
  [color=#990099]TRACK[/color] [color=#FF0000]17[/color] [color=#990099]AUDIO[/color]
    [color=#FF8040]INDEX[/color] [color=#FF0000]00[/color] 03:21:31
[color=#FF0066]FILE[/color] "17 - Notre amour.[color=#0000FF]wav[/color]" [color=#FF0066]WAVE[/color]
    [color=#FF8040]INDEX[/color] [color=#FF0000]01[/color] 00:00:00
  [color=#990099]TRACK[/color] [color=#FF0000]18[/color] [color=#990099]AUDIO[/color]
    [color=#FF8040]INDEX[/color] [color=#FF0000]00[/color] 02:49:42
[color=#FF0066]FILE[/color] "18 - Martha la mule.[color=#0000FF]wav[/color]" [color=#FF0066]WAVE[/color]
    [color=#FF8040]INDEX[/color] [color=#FF0000]01[/color] 00:00:00
  [color=#990099]TRACK[/color] [color=#FF0000]19[/color] [color=#990099]AUDIO[/color]
    [color=#FF8040]INDEX[/color] [color=#FF0000]00[/color] 02:24:38
[color=#FF0066]FILE[/color] "19 - Les Grandes vacandes.[color=#0000FF]wav[/color]" [color=#FF0066]WAVE[/color]
    [color=#FF8040]INDEX[/color] [color=#FF0000]01[/color] 00:00:00
  [color=#990099]TRACK[/color] [color=#FF0000]20[/color] [color=#990099]AUDIO[/color]
    [color=#FF8040]INDEX[/color] [color=#FF0000]00[/color] 03:28:26
[color=#FF0066]FILE[/color] "20 - Le Pont Mirabeau.[color=#0000FF]wav[/color]" [color=#FF0066]WAVE[/color]
    [color=#FF8040]INDEX[/color] [color=#FF0000]01[/color] 00:00:00
  [color=#990099]TRACK[/color] [color=#FF0000]21[/color] [color=#990099]AUDIO[/color]
    [color=#FF8040]INDEX[/color] [color=#FF0000]00[/color] 02:58:41
[color=#FF0066]FILE[/color] "21 - ...et des clous.[color=#0000FF]wav[/color]" [color=#FF0066]WAVE[/color]
    [color=#FF8040]INDEX[/color] [color=#FF0000]01[/color] 00:00:00
  [color=#990099]TRACK[/color] [color=#FF0000]22[/color] [color=#990099]AUDIO[/color]
    [color=#FF8040]INDEX[/color] [color=#FF0000]00[/color] 02:20:06
[color=#FF0066]FILE[/color] "22 - Vitrines.[color=#0000FF]wav[/color]" [color=#FF0066]WAVE[/color]
    [color=#FF8040]INDEX[/color] [color=#FF0000]01[/color] 00:00:00
  [color=#990099]TRACK[/color] [color=#FF0000]23[/color] [color=#990099]AUDIO[/color]
    [color=#FF8040]INDEX[/color] [color=#FF0000]00[/color] 04:33:22
[color=#FF0066]FILE[/color] "23 - La Chambre.[color=#0000FF]wav[/color]" [color=#FF0066]WAVE[/color]
    [color=#FF8040]INDEX[/color] [color=#FF0000]01[/color] 00:00:00
  [color=#990099]TRACK[/color] [color=#FF0000]24[/color] [color=#990099]AUDIO[/color]
    [color=#FF8040]INDEX[/color] [color=#FF0000]00[/color] 03:01:30
[color=#FF0066]FILE[/color] "24 - Les Cloches de Notre-Dame.[color=#0000FF]wav[/color]" [color=#FF0066]WAVE[/color]
    [color=#FF8040]INDEX[/color] [color=#FF0000]01[/color] 00:00:00
Код:
[color=#009933]REM DISCID[/color] 60115818
[color=#009933]REM COMMENT[/color] "ExactAudioCopy v1.0b3"
[color=#FF0066]FILE[/color] "01 - Le Parvenu.[color=#0000FF]wav[/color]" [color=#FF0066]WAVE[/color]
  [color=#990099]TRACK[/color] [color=#FF0000]01[/color] [color=#990099]AUDIO[/color]
    [color=#FF8040]INDEX[/color] [color=#FF0000]01[/color] 00:00:00
  [color=#990099]TRACK[/color] [color=#FF0000]02[/color] [color=#990099]AUDIO[/color]
    [color=#FF8040]INDEX[/color] [color=#FF0000]00[/color] 03:20:04
[color=#FF0066]FILE[/color] "02 - Le Piano du pauvre.[color=#0000FF]wav[/color]" [color=#FF0066]WAVE[/color]
    [color=#FF8040]INDEX[/color] [color=#FF0000]01[/color] 00:00:00
  [color=#990099]TRACK[/color] [color=#FF0000]03[/color] [color=#990099]AUDIO[/color]
    [color=#FF8040]INDEX[/color] [color=#FF0000]00[/color] 03:15:37
[color=#FF0066]FILE[/color] "03 - L'Homme.[color=#0000FF]wav[/color]" [color=#FF0066]WAVE[/color]
    [color=#FF8040]INDEX[/color] [color=#FF0000]01[/color] 00:00:00
  [color=#990099]TRACK[/color] [color=#FF0000]04[/color] [color=#990099]AUDIO[/color]
    [color=#FF8040]INDEX[/color] [color=#FF0000]00[/color] 02:46:42
[color=#FF0066]FILE[/color] "04 - A la seine.[color=#0000FF]wav[/color]" [color=#FF0066]WAVE[/color]
    [color=#FF8040]INDEX[/color] [color=#FF0000]01[/color] 00:00:00
  [color=#990099]TRACK[/color] [color=#FF0000]05[/color] [color=#990099]AUDIO[/color]
    [color=#FF8040]INDEX[/color] [color=#FF0000]00[/color] 03:21:34
[color=#FF0066]FILE[/color] "05 - ,pm p'tit voyou.[color=#0000FF]wav[/color]" [color=#FF0066]WAVE[/color]
    [color=#FF8040]INDEX[/color] [color=#FF0000]01[/color] 00:00:00
  [color=#990099]TRACK[/color] [color=#FF0000]06[/color] [color=#990099]AUDIO[/color]
    [color=#FF8040]INDEX[/color] [color=#FF0000]00[/color] 03:33:37
[color=#FF0066]FILE[/color] "06 - Graine d'ananar.[color=#0000FF]wav[/color]" [color=#FF0066]WAVE[/color]
    [color=#FF8040]INDEX[/color] [color=#FF0000]01[/color] 00:00:00
  [color=#990099]TRACK[/color] [color=#FF0000]07[/color] [color=#990099]AUDIO[/color]
    [color=#FF8040]INDEX[/color] [color=#FF0000]00[/color] 03:14:21
[color=#FF0066]FILE[/color] "07 - Notre-Dame de la mouise.[color=#0000FF]wav[/color]" [color=#FF0066]WAVE[/color]
    [color=#FF8040]INDEX[/color] [color=#FF0000]01[/color] 00:00:00
  [color=#990099]TRACK[/color] [color=#FF0000]08[/color] [color=#990099]AUDIO[/color]
    [color=#FF8040]INDEX[/color] [color=#FF0000]00[/color] 03:26:32
[color=#FF0066]FILE[/color] "08 - Merci min dieu.[color=#0000FF]wav[/color]" [color=#FF0066]WAVE[/color]
    [color=#FF8040]INDEX[/color] [color=#FF0000]01[/color] 00:00:00
  [color=#990099]TRACK[/color] [color=#FF0000]09[/color] [color=#990099]AUDIO[/color]
    [color=#FF8040]INDEX[/color] [color=#FF0000]00[/color] 02:41:39
[color=#FF0066]FILE[/color] "09 - Vise la reclame.[color=#0000FF]wav[/color]" [color=#FF0066]WAVE[/color]
    [color=#FF8040]INDEX[/color] [color=#FF0000]01[/color] 00:00:00
  [color=#990099]TRACK[/color] [color=#FF0000]10[/color] [color=#990099]AUDIO[/color]
    [color=#FF8040]INDEX[/color] [color=#FF0000]00[/color] 02:57:59
[color=#FF0066]FILE[/color] "10 - La Rue.[color=#0000FF]wav[/color]" [color=#FF0066]WAVE[/color]
    [color=#FF8040]INDEX[/color] [color=#FF0000]01[/color] 00:00:00
  [color=#990099]TRACK[/color] [color=#FF0000]11[/color] [color=#990099]AUDIO[/color]
    [color=#FF8040]INDEX[/color] [color=#FF0000]00[/color] 02:55:64
[color=#FF0066]FILE[/color] "11 - Monsieur mon passe.[color=#0000FF]wav[/color]" [color=#FF0066]WAVE[/color]
    [color=#FF8040]INDEX[/color] [color=#FF0000]01[/color] 00:00:00
  [color=#990099]TRACK[/color] [color=#FF0000]12[/color] [color=#990099]AUDIO[/color]
    [color=#FF8040]INDEX[/color] [color=#FF0000]00[/color] 03:24:60
[color=#FF0066]FILE[/color] "12 - L'Ame du rouquin.[color=#0000FF]wav[/color]" [color=#FF0066]WAVE[/color]
    [color=#FF8040]INDEX[/color] [color=#FF0000]01[/color] 00:00:00
  [color=#990099]TRACK[/color] [color=#FF0000]13[/color] [color=#990099]AUDIO[/color]
    [color=#FF8040]INDEX[/color] [color=#FF0000]00[/color] 03:24:32
[color=#FF0066]FILE[/color] "13 - La Vie.[color=#0000FF]wav[/color]" [color=#FF0066]WAVE[/color]
    [color=#FF8040]INDEX[/color] [color=#FF0000]01[/color] 00:00:00
  [color=#990099]TRACK[/color] [color=#FF0000]14[/color] [color=#990099]AUDIO[/color]
    [color=#FF8040]INDEX[/color] [color=#FF0000]00[/color] 02:11:69
[color=#FF0066]FILE[/color] "14 - La Chanson tiste.[color=#0000FF]wav[/color]" [color=#FF0066]WAVE[/color]
    [color=#FF8040]INDEX[/color] [color=#FF0000]01[/color] 00:00:00
  [color=#990099]TRACK[/color] [color=#FF0000]15[/color] [color=#990099]AUDIO[/color]
    [color=#FF8040]INDEX[/color] [color=#FF0000]00[/color] 03:22:71
[color=#FF0066]FILE[/color] "15 - En amour.[color=#0000FF]wav[/color]" [color=#FF0066]WAVE[/color]
    [color=#FF8040]INDEX[/color] [color=#FF0000]01[/color] 00:00:00
  [color=#990099]TRACK[/color] [color=#FF0000]16[/color] [color=#990099]AUDIO[/color]
    [color=#FF8040]INDEX[/color] [color=#FF0000]00[/color] 02:24:06
[color=#FF0066]FILE[/color] "16 - Le Fleuve aux amants.[color=#0000FF]wav[/color]" [color=#FF0066]WAVE[/color]
    [color=#FF8040]INDEX[/color] [color=#FF0000]01[/color] 00:00:00
  [color=#990099]TRACK[/color] [color=#FF0000]17[/color] [color=#990099]AUDIO[/color]
    [color=#FF8040]INDEX[/color] [color=#FF0000]00[/color] 02:21:71
[color=#FF0066]FILE[/color] "17 - Le Guinche.[color=#0000FF]wav[/color]" [color=#FF0066]WAVE[/color]
    [color=#FF8040]INDEX[/color] [color=#FF0000]01[/color] 00:00:00
  [color=#990099]TRACK[/color] [color=#FF0000]18[/color] [color=#990099]AUDIO[/color]
    [color=#FF8040]INDEX[/color] [color=#FF0000]00[/color] 02:48:60
[color=#FF0066]FILE[/color] "18 - La Fortune.[color=#0000FF]wav[/color]" [color=#FF0066]WAVE[/color]
    [color=#FF8040]INDEX[/color] [color=#FF0000]01[/color] 00:00:00
  [color=#990099]TRACK[/color] [color=#FF0000]19[/color] [color=#990099]AUDIO[/color]
    [color=#FF8040]INDEX[/color] [color=#FF0000]00[/color] 03:15:43
[color=#FF0066]FILE[/color] "19 - Ma vieille branche.[color=#0000FF]wav[/color]" [color=#FF0066]WAVE[/color]
    [color=#FF8040]INDEX[/color] [color=#FF0000]01[/color] 00:00:00
  [color=#990099]TRACK[/color] [color=#FF0000]20[/color] [color=#990099]AUDIO[/color]
    [color=#FF8040]INDEX[/color] [color=#FF0000]00[/color] 04:32:10
[color=#FF0066]FILE[/color] "20 - T' en as.[color=#0000FF]wav[/color]" [color=#FF0066]WAVE[/color]
    [color=#FF8040]INDEX[/color] [color=#FF0000]01[/color] 00:00:00
  [color=#990099]TRACK[/color] [color=#FF0000]21[/color] [color=#990099]AUDIO[/color]
    [color=#FF8040]INDEX[/color] [color=#FF0000]00[/color] 02:20:73
[color=#FF0066]FILE[/color] "21 - La Grande vie.[color=#0000FF]wav[/color]" [color=#FF0066]WAVE[/color]
    [color=#FF8040]INDEX[/color] [color=#FF0000]01[/color] 00:00:00
  [color=#990099]TRACK[/color] [color=#FF0000]22[/color] [color=#990099]AUDIO[/color]
    [color=#FF8040]INDEX[/color] [color=#FF0000]00[/color] 03:19:08
[color=#FF0066]FILE[/color] "22 - Le Temps du plastique.[color=#0000FF]wav[/color]" [color=#FF0066]WAVE[/color]
    [color=#FF8040]INDEX[/color] [color=#FF0000]01[/color] 00:00:00
  [color=#990099]TRACK[/color] [color=#FF0000]23[/color] [color=#990099]AUDIO[/color]
    [color=#FF8040]INDEX[/color] [color=#FF0000]00[/color] 02:35:69
[color=#FF0066]FILE[/color] "23 - Pauvre Rutebeuf.[color=#0000FF]wav[/color]" [color=#FF0066]WAVE[/color]
    [color=#FF8040]INDEX[/color] [color=#FF0000]01[/color] 00:00:00
  [color=#990099]TRACK[/color] [color=#FF0000]24[/color] [color=#990099]AUDIO[/color]
    [color=#FF8040]INDEX[/color] [color=#FF0000]00[/color] 03:24:38
[color=#FF0066]FILE[/color] "24 - L'Amour.[color=#0000FF]wav[/color]" [color=#FF0066]WAVE[/color]
    [color=#FF8040]INDEX[/color] [color=#FF0000]01[/color] 00:00:00
Код:
[color=#009933]REM DISCID[/color] 4D113016
[color=#009933]REM COMMENT[/color] "ExactAudioCopy v1.0b3"
[color=#FF0066]FILE[/color] "01 - L'Ete s'en fout.[color=#0000FF]wav[/color]" [color=#FF0066]WAVE[/color]
  [color=#990099]TRACK[/color] [color=#FF0000]01[/color] [color=#990099]AUDIO[/color]
    [color=#FF8040]INDEX[/color] [color=#FF0000]01[/color] 00:00:00
  [color=#990099]TRACK[/color] [color=#FF0000]02[/color] [color=#990099]AUDIO[/color]
    [color=#FF8040]INDEX[/color] [color=#FF0000]00[/color] 02:56:07
[color=#FF0066]FILE[/color] "02 - Les Copains d'la neuille.[color=#0000FF]wav[/color]" [color=#FF0066]WAVE[/color]
    [color=#FF8040]INDEX[/color] [color=#FF0000]01[/color] 00:00:00
  [color=#990099]TRACK[/color] [color=#FF0000]03[/color] [color=#990099]AUDIO[/color]
    [color=#FF8040]INDEX[/color] [color=#FF0000]00[/color] 03:05:54
[color=#FF0066]FILE[/color] "03 - A celle qio est trop gaie.[color=#0000FF]wav[/color]" [color=#FF0066]WAVE[/color]
    [color=#FF8040]INDEX[/color] [color=#FF0000]01[/color] 00:00:00
  [color=#990099]TRACK[/color] [color=#FF0000]04[/color] [color=#990099]AUDIO[/color]
    [color=#FF8040]INDEX[/color] [color=#FF0000]00[/color] 03:54:06
[color=#FF0066]FILE[/color] "04 - Le Serpent qui danse.[color=#0000FF]wav[/color]" [color=#FF0066]WAVE[/color]
    [color=#FF8040]INDEX[/color] [color=#FF0000]01[/color] 00:00:00
  [color=#990099]TRACK[/color] [color=#FF0000]05[/color] [color=#990099]AUDIO[/color]
    [color=#FF8040]INDEX[/color] [color=#FF0000]00[/color] 02:51:33
[color=#FF0066]FILE[/color] "05 - Le Lethe.[color=#0000FF]wav[/color]" [color=#FF0066]WAVE[/color]
    [color=#FF8040]INDEX[/color] [color=#FF0000]01[/color] 00:00:00
  [color=#990099]TRACK[/color] [color=#FF0000]06[/color] [color=#990099]AUDIO[/color]
    [color=#FF8040]INDEX[/color] [color=#FF0000]00[/color] 03:56:03
[color=#FF0066]FILE[/color] "06 - La Mort des amants.[color=#0000FF]wav[/color]" [color=#FF0066]WAVE[/color]
    [color=#FF8040]INDEX[/color] [color=#FF0000]01[/color] 00:00:00
  [color=#990099]TRACK[/color] [color=#FF0000]07[/color] [color=#990099]AUDIO[/color]
    [color=#FF8040]INDEX[/color] [color=#FF0000]00[/color] 03:51:21
[color=#FF0066]FILE[/color] "07 - L'Invitation au voyage.[color=#0000FF]wav[/color]" [color=#FF0066]WAVE[/color]
    [color=#FF8040]INDEX[/color] [color=#FF0000]01[/color] 00:00:00
  [color=#990099]TRACK[/color] [color=#FF0000]08[/color] [color=#990099]AUDIO[/color]
    [color=#FF8040]INDEX[/color] [color=#FF0000]00[/color] 03:38:66
[color=#FF0066]FILE[/color] "08 - Le Revenant.[color=#0000FF]wav[/color]" [color=#FF0066]WAVE[/color]
    [color=#FF8040]INDEX[/color] [color=#FF0000]01[/color] 00:00:00
  [color=#990099]TRACK[/color] [color=#FF0000]09[/color] [color=#990099]AUDIO[/color]
    [color=#FF8040]INDEX[/color] [color=#FF0000]00[/color] 02:01:35
[color=#FF0066]FILE[/color] "09 - Harmonie du soir.[color=#0000FF]wav[/color]" [color=#FF0066]WAVE[/color]
    [color=#FF8040]INDEX[/color] [color=#FF0000]01[/color] 00:00:00
  [color=#990099]TRACK[/color] [color=#FF0000]10[/color] [color=#990099]AUDIO[/color]
    [color=#FF8040]INDEX[/color] [color=#FF0000]00[/color] 02:55:56
[color=#FF0066]FILE[/color] "10 - Brumes et pluies.[color=#0000FF]wav[/color]" [color=#FF0066]WAVE[/color]
    [color=#FF8040]INDEX[/color] [color=#FF0000]01[/color] 00:00:00
  [color=#990099]TRACK[/color] [color=#FF0000]11[/color] [color=#990099]AUDIO[/color]
    [color=#FF8040]INDEX[/color] [color=#FF0000]00[/color] 01:52:44
[color=#FF0066]FILE[/color] "11 - La Pipe.[color=#0000FF]wav[/color]" [color=#FF0066]WAVE[/color]
    [color=#FF8040]INDEX[/color] [color=#FF0000]01[/color] 00:00:00
  [color=#990099]TRACK[/color] [color=#FF0000]12[/color] [color=#990099]AUDIO[/color]
    [color=#FF8040]INDEX[/color] [color=#FF0000]00[/color] 01:21:49
[color=#FF0066]FILE[/color] "12 - Les Hiboux.[color=#0000FF]wav[/color]" [color=#FF0066]WAVE[/color]
    [color=#FF8040]INDEX[/color] [color=#FF0000]01[/color] 00:00:00
  [color=#990099]TRACK[/color] [color=#FF0000]13[/color] [color=#990099]AUDIO[/color]
    [color=#FF8040]INDEX[/color] [color=#FF0000]00[/color] 02:54:29
[color=#FF0066]FILE[/color] "13 - La Vie anterieure.[color=#0000FF]wav[/color]" [color=#FF0066]WAVE[/color]
    [color=#FF8040]INDEX[/color] [color=#FF0000]01[/color] 00:00:00
  [color=#990099]TRACK[/color] [color=#FF0000]14[/color] [color=#990099]AUDIO[/color]
    [color=#FF8040]INDEX[/color] [color=#FF0000]00[/color] 03:20:72
[color=#FF0066]FILE[/color] "14 - Les Metamorphoses du vampire.[color=#0000FF]wav[/color]" [color=#FF0066]WAVE[/color]
    [color=#FF8040]INDEX[/color] [color=#FF0000]01[/color] 00:00:00
  [color=#990099]TRACK[/color] [color=#FF0000]15[/color] [color=#990099]AUDIO[/color]
    [color=#FF8040]INDEX[/color] [color=#FF0000]00[/color] 03:14:36
[color=#FF0066]FILE[/color] "15 - Java partout.[color=#0000FF]wav[/color]" [color=#FF0066]WAVE[/color]
    [color=#FF8040]INDEX[/color] [color=#FF0000]01[/color] 00:00:00
  [color=#990099]TRACK[/color] [color=#FF0000]16[/color] [color=#990099]AUDIO[/color]
    [color=#FF8040]INDEX[/color] [color=#FF0000]00[/color] 03:09:03
[color=#FF0066]FILE[/color] "16 - La Zizique.[color=#0000FF]wav[/color]" [color=#FF0066]WAVE[/color]
    [color=#FF8040]INDEX[/color] [color=#FF0000]01[/color] 00:00:00
  [color=#990099]TRACK[/color] [color=#FF0000]17[/color] [color=#990099]AUDIO[/color]
    [color=#FF8040]INDEX[/color] [color=#FF0000]00[/color] 02:53:41
[color=#FF0066]FILE[/color] "17 - Mon Sebasto.[color=#0000FF]wav[/color]" [color=#FF0066]WAVE[/color]
    [color=#FF8040]INDEX[/color] [color=#FF0000]01[/color] 00:00:00
  [color=#990099]TRACK[/color] [color=#FF0000]18[/color] [color=#990099]AUDIO[/color]
    [color=#FF8040]INDEX[/color] [color=#FF0000]00[/color] 05:13:66
[color=#FF0066]FILE[/color] "18 - Le Temps du tango.[color=#0000FF]wav[/color]" [color=#FF0066]WAVE[/color]
    [color=#FF8040]INDEX[/color] [color=#FF0000]01[/color] 00:00:00
  [color=#990099]TRACK[/color] [color=#FF0000]19[/color] [color=#990099]AUDIO[/color]
    [color=#FF8040]INDEX[/color] [color=#FF0000]00[/color] 03:51:17
[color=#FF0066]FILE[/color] "19 - Le Jazz Band.[color=#0000FF]wav[/color]" [color=#FF0066]WAVE[/color]
    [color=#FF8040]INDEX[/color] [color=#FF0000]01[/color] 00:00:00
  [color=#990099]TRACK[/color] [color=#FF0000]20[/color] [color=#990099]AUDIO[/color]
    [color=#FF8040]INDEX[/color] [color=#FF0000]00[/color] 03:44:27
[color=#FF0066]FILE[/color] "20 - Mon camarade.[color=#0000FF]wav[/color]" [color=#FF0066]WAVE[/color]
    [color=#FF8040]INDEX[/color] [color=#FF0000]01[/color] 00:00:00
  [color=#990099]TRACK[/color] [color=#FF0000]21[/color] [color=#990099]AUDIO[/color]
    [color=#FF8040]INDEX[/color] [color=#FF0000]00[/color] 04:14:28
[color=#FF0066]FILE[/color] "21 - L'Etang chimerique.[color=#0000FF]wav[/color]" [color=#FF0066]WAVE[/color]
    [color=#FF8040]INDEX[/color] [color=#FF0000]01[/color] 00:00:00
  [color=#990099]TRACK[/color] [color=#FF0000]22[/color] [color=#990099]AUDIO[/color]
    [color=#FF8040]INDEX[/color] [color=#FF0000]00[/color] 03:17:16
[color=#FF0066]FILE[/color] "22 - Tahiti.[color=#0000FF]wav[/color]" [color=#FF0066]WAVE[/color]
    [color=#FF8040]INDEX[/color] [color=#FF0000]01[/color] 00:00:00
Правила, инструкции, FAQ!!!
Торрент  Добавлен [01 янв 2020, 23:01] Скачать торрент Магнет ссылка
Скачать торрент
[ Размер 7.94 КБ / Просмотров 4 ]

Статус
Проверен 
 
Размер  474.48 МБ
Приватный: Нет (DHT включён)
.torrent скачан  0
 


     Отправить личное сообщение
   
Страница 1 из 1
Показать сообщения за:  Поле сортировки  
Начать новую тему Ответить на тему


Сейчас этот форум просматривают: нет зарегистрированных пользователей и гости: 0


Вы не можете начинать темы
Вы не можете отвечать на сообщения
Вы не можете редактировать свои сообщения
Вы не можете удалять свои сообщения
Вы не можете добавлять вложения

Перейти:  
cron